#TITLE:彼女はいじわる;
#SUBTITLE:;
#ARTIST:浜千咲;
#TITLETRANSLIT:Kanojo wa Ijiwaru;
#SUBTITLETRANSLIT:;
#ARTISTTRANSLIT:Hama Chisaki;
#CREDIT:DMAxel;
#BANNER:Kanojo wa Ijiwaru.png;
#BACKGROUND:Kanojo wa Ijiwaru-bg.png;
#LYRICSPATH:Kanojo wa Ijiwaru.lrc;
#CDTITLE:DMAxel Original Simfile.png;
#MUSIC:Kanojo wa Ijiwaru.mp3;
#OFFSET:0.900;
#SAMPLESTART:48.462;
#SAMPLELENGTH:12.000;
#SELECTABLE:YES;
#BPMS:0.000=131.000;
#STOPS:;
#BGCHANGES:0.500=Kanojo wa Ijiwaru.AVI=1.000=1=1=0,
99999=-nosongbg-=1.000=0=0=0 // don't automatically add -songbackground-
;

//---------------dance-single - ----------------
#NOTES:
     dance-single:
     :
     Easy:
     3:
     0.251,0.289,0.112,0.073,0.000:
0000
0000
0000
0000
,
0000
0000
0000
0000
,
0000
0000
0000
0000
,
0000
0000
0000
0000
,
0000
0000
0000
0000
,
1000
1000
1000
1000
,
0001
0001
0001
0001
,
1000
1000
1000
1000
,
0001
0001
0001
0001
,
1001
0010
0001
0000
,
0000
1000
0100
0000
,
1000
0001
0100
0000
,
0010
0100
0010
1000
,
0100
0000
1000
0100
,
1000
0000
0000
0000
,
0000
0010
0100
0000
,
0001
0010
0001
0010
,
0000
0000
0001
0100
,
0010
0000
0000
0000
,
0100
0010
0100
0010
,
1000
0001
1000
0001
,
0010
0001
0010
0001
,
1000
0100
1000
0100
,
1000
0010
0100
0010
,
1000
0001
1000
0001
,
0010
0100
1000
0100
,
1000
0000
0000
0000
,
1001
1001
0010
0100
,
0010
0100
0010
1000
,
1001
1001
0100
0010
,
0100
0010
0100
0001
,
1001
1001
0100
0010
,
0100
0010
1000
0001
,
2001
0000
3001
0010
,
0001
0000
0100
0010
,
2000
0000
0000
0000
,
3010
0100
0002
0000
,
0013
0001
0100
0000
,
0010
0100
0001
0010
,
0001
0000
1000
0100
,
1000
0000
0000
0000
,
0010
0100
0001
0000
,
0010
0001
0010
0100
,
1000
0000
0100
1000
,
0010
0000
0000
0000
,
0100
0010
0100
0010
,
1000
0001
1000
0001
,
0010
0001
0010
0100
,
1000
0100
1000
0010
,
0100
0001
0100
0001
,
1000
0010
1000
0010
,
1000
0100
0010
0001
,
2002
0000
0000
3003
,
1001
1001
0100
1000
,
0100
0010
0001
0010
,
1001
1001
0100
1000
,
0020
0000
0230
0000
,
0301
0010
0001
0010
,
0100
1000
0100
1000
,
0010
0010
0100
0100
,
0001
0010
0001
1000
,
0200
0000
0000
0000
,
2300
0000
0000
0000
,
3001
0000
0000
0000
,
0000
0010
0010
0000
,
0000
0000
0000
0000
,
0000
0100
0100
0000
,
0000
0000
0000
0000
,
0000
1000
1000
0000
,
0000
0000
0000
0000
,
0000
0001
0001
1000
,
1001
0100
1000
0100
,
1000
0100
0010
0001
,
0010
0001
0010
0001
,
0100
0010
1000
0010
,
1000
0010
0100
0001
,
0100
0001
0100
0010
,
1000
0100
1000
0010
,
0100
0001
0010
0001
,
0010
0010
0001
0001
,
1000
1000
0100
0100
,
1000
1000
0010
0010
,
0100
0100
0001
0001
,
0010
0100
1000
0100
,
1000
1000
0100
0010
,
0001
0001
0010
0001
,
0100
0100
0010
0010
,
1001
1001
0100
0010
,
1000
1000
0100
1000
,
1001
1001
0010
0100
,
0001
0000
1001
0000
,
0100
0100
0010
1000
,
0100
0010
0001
0100
,
0020
0000
0000
0000
,
2030
0000
3001
0010
,
1001
1001
0100
0010
,
1000
1000
0010
0100
,
0001
0001
1000
0010
,
1001
0000
0000
0000
,
0100
0100
0010
1000
,
0100
0010
0001
0010
,
0002
0000
0000
0000
,
2003
0000
0000
0000
,
3001
0010
0001
0001
,
1000
0100
1000
1000
,
0010
0000
0000
0100
0000
0000
0010
0000
,
0000
1000
0000
0000
0001
0000
0000
2002
,
0000
0000
0000
0000
,
3003
0000
0000
0000
;

//---------------dance-single - ----------------
#NOTES:
     dance-single:
     :
     Challenge:
     8:
     0.536,0.525,0.389,0.185,0.163: // measure 1
0000
0000
0000
0000
,  // measure 2
0000
0000
0000
0000
,  // measure 3
0000
0000
0000
0000
,  // measure 4
0000
0000
0000
0000
,  // measure 5
0000
0000
0000
0000
,  // measure 6
1000
0100
1000
0100
1000
0100
1000
0000
,  // measure 7
0001
0010
0001
0010
0001
0010
0001
0000
,  // measure 8
1000
0010
1000
0010
1000
0010
1000
0000
,  // measure 9
0001
0100
0001
0100
0001
0100
0001
0000
,  // measure 10
1001
0000
0000
0000
0010
0000
0000
0100
0000
0010
0000
0000
1001
0000
0000
0000
,  // measure 11
0010
0000
0100
0000
0010
0000
0000
1000
0000
0001
0000
0000
1001
0000
0000
0000
,  // measure 12
0200
0000
0001
0000
0301
0000
0000
0100
,  // measure 13
0001
0100
1000
0100
0010
0001
0010
0001
,  // measure 14
0000
0000
0000
0010
1000
0010
0001
0010
,  // measure 15
0001
0000
0100
0020
0000
0130
0001
0010
,  // measure 16
0100
0000
1001
0000
1001
0000
0000
0010
,  // measure 17
1000
0000
0010
0000
0001
0000
0010
0000
0100
0000
0000
1000
0000
0000
0100
0000
,  // measure 18
0000
0000
0000
0010
0001
0010
0000
1000
,  // measure 19
0100
0000
0000
0100
0000
0000
0100
0000
0000
0000
1000
0000
0100
0000
0001
0000
,  // measure 20
1100
0000
1100
0000
0010
0001
0100
0010
,  // measure 21
1000
1000
0000
0011
0000
0100
1000
0010
,  // measure 22
0100
0000
0010
0100
0010
0000
0100
0010
,  // measure 23
1100
0000
0011
0000
1100
0000
0011
0100
,  // measure 24
0010
0100
0000
0001
0000
0010
0100
0010
,  // measure 25
1001
0000
0001
0100
0000
0100
0010
0100
,  // measure 26
0011
1100
1001
1001
,  // measure 27
0100
0000
0010
0000
0100
0000
0010
0000
0100
0000
0001
1000
0001
0000
0000
0000
,  // measure 28
1000
0100
0010
0100
1000
0001
0010
0100
,  // measure 29
1000
0010
0100
0010
1000
0100
1000
0000
,  // measure 30
0001
0010
0100
0010
0001
1000
0100
0010
,  // measure 31
0202
0000
0303
2020
0000
0000
0000
3030
,  // measure 32
0001
0010
0100
0010
0001
1000
0010
0100
,  // measure 33
0001
0100
0001
1000
0100
0010
0001
0000
,  // measure 34
1000
0100
0010
0100
1000
0001
0010
0100
,  // measure 35
1000
0000
0000
0000
1001
0000
0010
0000
0100
0000
0001
0000
0010
0001
0010
0001
,  // measure 36
0200
0000
0000
0000
0001
0000
0000
1000
0000
0001
0000
0000
1300
0000
0000
0000
,  // measure 37
0020
0000
0000
0000
1000
0000
0000
0001
0000
1000
0000
0000
0031
0000
0100
0000
,  // measure 38
1001
0000
0011
0000
0101
0000
0000
0100
,  // measure 39
1000
0100
0001
0100
0010
1000
0010
1000
,  // measure 40
0000
0000
0000
0100
0001
0100
0010
1000
,  // measure 41
0100
0000
0000
0100
0000
0000
0100
0000
0000
0000
1000
0000
0100
0000
0001
0000
,  // measure 42
1001
0000
1100
0000
1010
0000
0000
0100
,  // measure 43
1000
0100
0001
0100
0010
1000
0100
0010
,  // measure 44
0000
0000
0000
0001
0100
1000
0010
0100
,  // measure 45
0010
0000
0000
0010
0000
0000
0010
0000
0000
0000
1000
0000
0010
0000
0001
0000
,  // measure 46
1100
0000
0011
0000
1100
0000
0010
0001
,  // measure 47
0010
0100
0000
1001
0000
0100
1000
0100
,  // measure 48
0010
0010
0001
0010
0000
0001
0010
1000
,  // measure 49
0011
0000
1100
0000
0011
0000
1100
0010
,  // measure 50
0100
0100
0000
1001
0000
0010
1000
0100
,  // measure 51
0010
0000
0001
0010
0001
0010
0000
0100
,  // measure 52
1010
0101
1010
0101
,  // measure 53
0010
0000
0100
0000
0010
0000
0100
0000
0010
0000
1000
0001
1000
0000
0000
0000
,  // measure 54
1001
0000
1001
0000
0100
1000
0100
0010
,  // measure 55
0100
1000
0100
0001
0010
0001
0010
0000
,  // measure 56
1001
0000
1001
0000
0100
0001
0010
0100
,  // measure 57
2020
0000
3030
0102
0000
1000
1003
0000
,  // measure 58
0101
0000
1001
0000
0010
1000
0100
0010
,  // measure 59
0100
1000
0010
0001
0010
0100
1000
0000
,  // measure 60
0101
0000
1001
0000
0100
0001
0010
0100
,  // measure 61
1000
0000
0100
0000
0001
0000
0100
0000
0001
0000
0010
0000
0100
1000
0100
1000
,  // measure 62
0100
0000
0000
0000
1000
0000
0000
0010
0000
0001
0000
0000
0110
0000
0000
0000
,  // measure 63
1000
0000
0000
0000
0001
0000
0000
0100
0000
1000
0000
0000
0110
0000
0001
0010
,  // measure 64
0002
0203
0320
2030
,  // measure 65
3020
0100
0130
0000
1001
0000
0110
0000
,  // measure 66
2000
3020
0230
0302
,  // measure 67
0203
0010
0310
0000
1001
0000
0110
0000
,  // measure 68
0002
0023
0230
2300
,  // measure 69
3020
0100
0130
0000
1001
0000
0110
0000
,  // measure 70
2000
3200
0320
0032
,  // measure 71
0103
0010
0100
0010
0100
0000
0000
0000
1001
0000
0000
0000
0110
0000
0000
0000
,  // measure 72
0001
0000
0010
0000
0100
0000
0000
1000
0010
0000
0100
0000
0100
0000
0010
0000
,  // measure 73
1000
0000
0100
0000
0010
0000
0000
0001
0100
0000
0010
0000
0010
0000
0100
0000
,  // measure 74
0001
0000
0010
0000
0100
0000
0000
1000
0010
0000
0100
0000
0100
0000
0010
0000
,  // measure 75
1000
0000
0100
0000
0010
0000
0000
0001
0100
0000
0010
0000
0010
0000
0100
0000
,  // measure 76
0001
0000
0100
0000
0010
0000
0000
1000
0100
0000
0010
0000
0010
0000
0100
0000
,  // measure 77
1000
0000
0010
0000
0100
0000
0000
0001
0010
0000
0100
0000
0100
0000
0010
0000
,  // measure 78
0001
0000
0100
0000
0010
0000
0000
1000
0010
0000
0100
0000
0100
0000
0010
0000
,  // measure 79
1000
0000
0100
0000
0010
0000
0000
0001
0010
0000
0001
0100
0001
0100
0001
0000
,  // measure 80
0110
0000
0000
1000
0010
0000
0000
0010
0100
0000
0000
0100
0001
0000
0000
0001
,  // measure 81
1000
0000
0000
1000
0010
0000
0000
0010
0100
0000
0000
0100
0001
0000
0000
0001
,  // measure 82
1000
0000
0000
1000
0100
0000
0000
0100
0010
0000
0000
0010
0001
0000
0000
0001
,  // measure 83
0100
0000
0010
0000
0010
0000
1000
0000
0100
0000
0010
0000
0001
0000
0000
0100
,  // measure 84
0001
0000
0000
0001
0010
0000
0000
0010
0100
0000
0000
0100
1000
0000
0000
1000
,  // measure 85
0010
0000
0000
0010
0100
0000
0000
0100
0001
0000
0000
0001
1000
0000
0000
1000
,  // measure 86
0010
0000
0000
0010
0100
0000
0000
0100
0010
0000
0000
0010
1000
0000
0000
0000
,  // measure 87
1001
0000
0010
0000
0001
0000
0010
0000
0100
0000
1000
0010
1000
0010
1000
0000
,  // measure 88
0011
0000
1001
0000
0100
0001
0010
0100
,  // measure 89
1000
0100
0001
0010
0100
0010
0001
0000
,  // measure 90
1100
0000
1001
0000
0010
1000
0100
0010
,  // measure 91
0101
0000
0100
2020
0000
0000
3030
0000
,  // measure 92
0101
0000
0110
0000
1000
0001
0010
0100
,  // measure 93
1000
0010
0100
0001
0100
1000
0100
0000
,  // measure 94
2000
0000
0010
0000
3010
0100
0000
0100
,  // measure 95
0001
0000
0000
0000
1000
0000
0100
0000
0001
0000
0010
0000
0100
1000
0100
0000
,  // measure 96
1001
0000
1001
0000
0100
0001
0010
0100
,  // measure 97
1000
0100
0001
0100
1000
0010
0110
0000
,  // measure 98
1001
0000
1001
0000
0100
0001
0010
0100
,  // measure 99
1010
0000
0010
0202
0000
0000
0303
0000
,  // measure 100
0110
0000
1100
0000
0010
0001
0100
0001
,  // measure 101
0010
0100
1000
0100
0001
0100
1000
0000
,  // measure 102
0002
0000
0100
0000
0103
0010
0000
0010
,  // measure 103
1000
0000
0000
0000
0001
0000
0010
0000
1000
0000
0010
0000
0100
0010
0100
0000
,  // measure 104
0001
0000
0100
0000
0010
0000
0100
0001
0000
0010
0100
0000
1000
0000
1000
0000
,  // measure 105
0010
0000
1000
0000
0100
0000
1000
0010
0000
0100
0010
0000
0001
0000
0001
0000
,  // measure 106
1001
0010
1000
0100
0001
0010
1000
0100
,  // measure 107
0001
0010
1000
0100
0001
0100
0010
2002
,  // measure 108
0000
0000
0000
0000
,  // measure 109
3003
0000
0000
0000
;

//---------------dance-single - ----------------
#NOTES:
     dance-single:
     :
     Hard:
     7:
     0.434,0.525,0.437,0.165,0.019:
0000
0000
0000
0000
,
0000
0000
0000
0000
,
0000
0000
0000
0000
,
0000
0000
0000
0000
,
0000
0000
0000
0000
,
0011
0011
0011
0011
,
1100
1100
1100
1100
,
0101
0101
0101
0101
,
1010
1010
1010
1010
,
2002
0000
0000
3003
,
0220
0000
0000
0330
,
1001
0000
1000
0000
1000
0000
0000
0020
,
0000
0000
0130
0010
0100
0001
0010
0100
,
1000
0000
0010
0000
0100
0010
0100
0010
,
0100
0000
0000
0001
0000
0000
0100
0000
0000
0000
0010
0000
0100
0000
0000
0000
,
0010
0000
1001
0000
1001
0000
0000
0200
,
0000
0301
0010
0100
1000
0000
0010
0000
,
1000
0000
0010
1000
0010
0100
0000
0002
,
0000
0000
1003
0100
,
0011
0000
1100
0000
0001
0000
0100
0010
,
1000
1000
0000
0010
0000
0100
0001
0010
,
0010
0001
0010
0100
,
1010
0101
1010
1001
,
0100
0010
0000
1000
0000
0010
0100
0000
,
1001
0000
0010
0100
0000
0001
0000
0100
,
0010
1100
0011
1001
,
0010
0100
0010
0100
0010
0000
0000
0000
,
1001
0000
1100
0000
0001
1000
0100
0010
,
0000
0001
0010
0100
0000
1000
0001
0000
,
1001
0000
0011
0000
1000
0100
0000
1000
,
1001
0000
0001
1001
0000
0000
0000
0000
,
1001
0000
0011
0000
1000
0100
0010
0001
,
0000
0010
0001
0100
0000
0010
1000
0000
,
0002
0000
0100
0000
0103
0010
1000
0100
,
2000
0000
0010
0000
3010
0100
0001
0100
,
0022
0000
0000
0033
,
2200
0000
0000
3300
,
1001
0000
1100
0000
1010
0000
0000
0100
,
0000
0001
0000
0100
0010
0100
0010
0100
,
0010
0000
1000
0010
1000
0010
0100
0001
,
0100
0000
0001
1000
0000
0100
1000
0100
,
1000
0000
0011
0000
1001
0000
0000
0010
,
0000
1000
0010
0100
0010
0100
0010
1000
,
0010
0000
1000
0100
0010
0001
0100
0010
,
0100
0000
0010
0000
0100
0001
0100
1000
,
0011
0000
1100
0000
0011
0000
0000
1000
,
0100
0010
0000
1001
0000
0010
0001
0010
,
0100
0100
1000
0100
0000
1000
0100
0001
,
1100
0000
0011
0000
1100
0000
0011
0100
,
0010
0010
0000
1001
0000
0100
0001
0010
,
0100
0000
1000
0100
1000
0100
0000
0010
,
0101
1010
0101
1010
,
0100
0010
0100
0010
0100
0000
0000
0000
,
1001
0000
1001
0000
0010
0001
0010
0100
,
0000
1000
0100
0001
0000
0100
0010
0000
,
1001
0000
1001
0000
0010
1000
0000
0001
,
0101
0000
1000
1001
0000
0000
0000
0000
,
0110
0000
1001
0000
0100
0001
0010
0100
,
0000
1000
0100
0001
0000
0100
0010
0000
,
2000
0000
0010
0000
3010
0100
0010
0100
,
0002
0000
0100
0000
0103
0010
0100
0010
,
2200
0000
0000
3300
,
0022
0000
0000
0033
,
1000
1000
1000
1000
,
0200
0000
0000
1300
,
0001
0001
0001
0001
,
0020
0000
0000
0031
,
1001
1000
1000
1000
,
0200
0000
0000
1300
,
0001
0001
0001
0001
,
0010
0001
0010
0100
1001
0000
0110
0000
,
1000
0000
1000
0000
1000
0100
0010
0000
,
0001
0000
0001
0000
0001
0010
0100
0000
,
1000
0000
1000
0000
1000
0100
0010
0000
,
0001
0000
0001
0000
0001
0010
0100
0000
,
1000
0000
1000
0000
1000
0010
0100
0000
,
0001
0000
0001
0000
0001
0100
0010
0000
,
1000
0000
1000
0000
1000
0010
0100
0001
,
0000
0001
0010
0100
1000
0010
1000
0010
,
0200
0000
0010
0000
0010
0310
0000
0000
,
2000
0000
0001
0000
0001
3001
0000
0000
,
0020
0000
0100
0000
0100
0130
0000
0000
,
0001
0010
1000
0100
0001
0010
0100
1000
,
0020
0000
0100
0000
0100
0130
0000
0000
,
2000
0000
0001
0000
0001
3001
0000
0000
,
0200
0000
0010
0000
0010
0310
0000
0000
,
1001
0000
0100
0000
1000
0000
0100
0000
0010
0000
0001
0100
0001
0100
0001
0000
,
1100
0000
1001
0000
0010
1000
0100
0010
,
0001
0010
1000
0100
0000
0010
0001
0000
,
1100
0000
1001
0000
0100
0001
0000
1000
,
1010
0000
0001
0101
0000
0000
0000
0000
,
1010
0000
0110
0000
0001
1000
0100
0010
,
0001
0100
0010
1000
0000
0100
0010
0000
,
0002
0000
0100
0000
0103
0010
0000
0010
,
2000
0000
0000
3100
0010
0001
0100
0100
,
1001
0000
1001
0000
0010
1000
0100
0010
,
0001
0010
1000
0010
0000
0100
0001
0000
,
1001
0000
1001
0000
0100
0010
0000
0001
,
0101
0000
1000
1010
0000
0000
0000
0000
,
0110
0000
0011
0000
0100
1000
0010
1000
,
0000
0100
0010
0001
0000
0010
0100
0000
,
2000
0000
0010
0000
3010
0100
0000
0100
,
0002
0000
0000
0000
0000
0000
0013
0000
0100
0000
1000
0000
0010
0100
0010
0000
,
1000
0000
0010
0000
0100
0000
0000
0010
0000
1000
0000
0000
0001
0000
0001
0000
,
0100
0000
0001
0000
0010
0000
0000
0001
0000
1000
0000
0000
0100
0000
0100
0000
,
1000
0100
0001
0010
1000
0100
0001
0010
,
1000
0100
0001
0010
1000
0100
0010
2002
,
0000
0000
0000
0000
,
3003
0000
0000
0000
;

//---------------dance-single - ----------------
#NOTES:
     dance-single:
     :
     Medium:
     5:
     0.373,0.446,0.355,0.126,0.000:
0000
0000
0000
0000
,
0000
0000
0000
0000
,
0000
0000
0000
0000
,
0000
0000
0000
0000
,
0000
0000
0000
0000
,
0001
0010
0001
0010
,
0100
1000
0100
1000
,
0001
0100
0001
0100
,
0010
1000
0010
1000
,
1001
0100
1100
1100
,
0100
0010
0011
0011
,
2001
0000
0001
0000
0001
3000
0000
0100
,
0000
0000
0010
0000
0100
0000
0001
1000
,
0000
0000
0000
0010
0100
0010
0100
0010
,
0000
1000
0001
1000
,
1002
0000
0010
0000
0013
0000
0000
0100
,
0000
1000
0001
1000
0002
0000
0000
0103
,
0000
0001
1000
0010
,
0100
0010
1000
0100
,
0011
0000
0011
0000
0000
0010
0100
0010
,
0100
0001
0010
0100
,
2001
0000
0000
0000
,
3001
0001
0100
0010
,
1000
0100
0010
0001
,
0100
0010
0100
0001
,
0011
0011
1100
1100
,
1000
0001
1000
0001
1000
0010
0010
0010
,
0110
0000
1001
0000
0100
1000
0010
1000
,
0100
0010
0001
0010
,
1001
0000
1001
0000
0010
0001
0000
0000
,
0101
0000
0000
1010
0000
0000
1000
0000
,
1001
0000
1001
0000
0100
0001
0010
0001
,
0100
0010
1000
0100
,
1001
0000
1000
0010
1000
0010
0000
0100
,
0001
0000
0100
0010
0100
0001
0100
0100
,
2001
0000
0000
0000
,
3002
0000
0000
0003
,
0110
0000
1010
0000
1010
0000
0000
0100
,
0000
1000
0000
0010
0100
0010
0100
0010
,
0000
0000
1000
0010
0100
0001
0010
0001
,
0100
0010
0100
0001
,
1000
0000
0101
0000
0101
0000
0000
0010
,
0000
1000
0001
0100
0001
0100
0010
0100
,
0000
0000
0000
0010
0100
0010
1000
0100
,
1000
0000
0100
0000
0010
0001
0010
0100
,
1000
1010
0101
0010
,
0100
0010
0100
0001
,
0011
1100
0011
0100
,
0010
0100
0010
0000
1000
0001
1000
0100
,
0010
0010
0000
0001
0000
0100
0000
0010
,
1000
0000
0100
1000
0100
1000
0000
0000
,
1001
0110
0101
1010
,
0001
1000
0001
1000
0001
0100
0100
0000
,
0110
0000
1001
0000
0010
0001
0100
0001
,
0010
0100
1000
0100
,
1001
0000
1001
0000
0010
1000
0000
0100
,
0010
0000
0000
1001
0000
0000
0000
0000
,
1010
0000
0110
0000
0001
0100
0010
0100
,
0000
0010
0000
1000
0000
0100
0010
0000
,
1002
0010
0010
0013
,
2001
0100
0100
3100
,
0202
0000
0000
0303
,
2020
0000
0000
3030
,
0200
0000
0000
0000
,
2300
0000
0000
0000
,
3002
0000
0000
0000
,
0023
0000
0000
0000
,
0230
0000
0000
0000
,
2300
0000
0000
0000
,
3002
0000
0000
0000
,
0203
0000
0000
0310
,
1001
0000
0010
0000
0001
0001
0001
0000
,
0010
0000
0100
0000
1000
1000
1000
0000
,
0100
0000
0010
0000
0001
0001
0001
0000
,
0010
0000
0100
0000
1000
1000
1000
0000
,
0010
0000
0100
0000
0001
0001
0001
0000
,
0100
0000
0010
0000
1000
1000
1000
0000
,
0010
0000
0100
0000
0001
0001
0001
0000
,
0100
0010
0100
0000
0010
1000
0010
0000
,
1001
0000
0001
0010
0001
0000
0000
0000
,
1001
0000
1000
0100
1000
0000
0000
0000
,
1001
0000
0001
0100
0001
0000
0000
0000
,
1001
0000
1000
0010
1000
0000
0000
0000
,
0010
0100
0010
0000
0100
0001
0100
0000
,
0001
1000
0001
0000
1000
0100
1000
0000
,
0010
0100
0001
0000
0100
0010
1000
0000
,
0100
0010
0001
0000
0010
0100
1000
0000
,
1001
0000
1001
0000
0010
0100
0010
0100
,
0001
0010
0100
1000
,
1001
0000
1001
0000
0100
0010
0000
0010
,
1000
0000
0000
1001
0000
0000
0000
0000
,
0110
0000
1001
0000
0100
1000
0010
0000
,
0100
0001
0100
0000
0010
0100
0010
0000
,
2001
0100
0100
3100
,
1002
0010
0010
0013
,
1001
0000
1001
0000
0010
1000
0100
0000
,
1000
0001
1000
0000
0010
0100
0010
0000
,
1001
0000
1001
0000
0100
0010
0000
0100
,
0001
0000
0000
1010
0000
0000
0000
0000
,
0110
0000
1001
0000
0100
1000
0010
0000
,
0100
0010
0100
0000
0001
0100
0010
0000
,
2001
0100
0100
3100
,
1002
0000
0010
0000
0010
0010
0013
0000
,
1000
0010
0100
0000
0010
0010
0010
0000
,
0100
0001
0010
0000
0100
0100
0100
0000
,
1000
0010
0000
0010
0100
0000
0100
0001
,
0000
0001
0010
0000
0010
0100
0000
2002
,
0000
0000
0000
0000
,
3003
0000
0000
0000
;
