#TITLE:Kailua;
#SUBTITLE:;
#ARTIST:kors k;
#TITLETRANSLIT:;
#SUBTITLETRANSLIT:;
#ARTISTTRANSLIT:;
#CREDIT:DMAxel;
#BANNER:Kailua.png;
#BACKGROUND:Kailua-bg.png;
#LYRICSPATH:;
#CDTITLE:beatmaniaIIDX.png;
#MUSIC:Kailua.mp3;
#OFFSET:-10.280;
#SAMPLESTART:67.776;
#SAMPLELENGTH:12.000;
#SELECTABLE:YES;
#BPMS:0.000=146.000;
#STOPS:;
#BGCHANGES:;

//---------------dance-single - ----------------
#NOTES:
     dance-single:
     :
     Easy:
     3:
     0.174,0.230,0.017,0.069,0.000: // measure 1
0000
1000
0000
0001
,  // measure 2
0000
1000
0000
0002
,  // measure 3
0000
0000
0000
1003
,  // measure 4
1001
0001
0000
0100
,  // measure 5
0000
0001
0000
0100
,  // measure 6
0000
0010
0000
1000
,  // measure 7
0000
0010
0000
1000
,  // measure 8
0000
0001
0000
1000
,  // measure 9
0000
0001
0000
1000
,  // measure 10
0000
0100
0000
0010
,  // measure 11
0000
0001
0000
0100
,  // measure 12
0000
0001
0000
0010
,  // measure 13
0000
0100
0000
1000
,  // measure 14
0000
0001
0000
1000
,  // measure 15
0000
0001
0000
1000
,  // measure 16
0001
1000
0000
0100
,  // measure 17
1000
0100
0000
0010
,  // measure 18
0001
0010
0001
1000
,  // measure 19
0002
0000
0000
0003
,  // measure 20
2000
0000
0000
0000
,  // measure 21
0000
0000
0000
0000
,  // measure 22
3200
0000
0000
0000
,  // measure 23
0000
0000
0000
0000
,  // measure 24
0320
0000
0000
0000
,  // measure 25
0000
0000
0000
0000
,  // measure 26
0032
0000
0000
0000
,  // measure 27
0000
0000
0000
0000
,  // measure 28
1003
0000
0001
0000
,  // measure 29
1000
0000
0001
0000
,  // measure 30
0100
0000
0010
0000
,  // measure 31
0100
0000
0010
0000
,  // measure 32
1000
0000
0001
0000
,  // measure 33
1000
0000
0001
0000
,  // measure 34
0200
0000
0000
0000
,  // measure 35
0000
0000
0000
0310
,  // measure 36
1000
0001
0000
1000
,  // measure 37
0001
0100
0000
0001
,  // measure 38
1000
0010
0000
0100
,  // measure 39
0010
1000
0000
0010
,  // measure 40
0100
0001
0000
0010
,  // measure 41
0001
1000
0000
0100
,  // measure 42
1000
0010
0000
0100
,  // measure 43
0010
1000
0000
0100
,  // measure 44
0010
0001
0000
0010
,  // measure 45
0100
1000
0000
0010
,  // measure 46
0100
0010
0000
1000
,  // measure 47
0001
0100
0000
0010
,  // measure 48
1000
0001
0000
0010
,  // measure 49
0001
1000
0000
0100
,  // measure 50
0010
0001
0000
1000
,  // measure 51
0020
0000
0000
0000
,  // measure 52
0130
0010
0100
0010
,  // measure 53
1000
0001
1000
0001
,  // measure 54
0100
0010
0100
0010
,  // measure 55
1000
0001
1000
0001
,  // measure 56
0010
0100
0010
0100
,  // measure 57
1000
0001
0000
0001
,  // measure 58
0000
1000
0000
1000
,  // measure 59
0000
0000
0000
0000
,  // measure 60
1001
0000
0000
0000
;

//---------------dance-single - ----------------
#NOTES:
     dance-single:
     :
     Hard:
     7:
     0.485,0.571,0.147,0.424,0.082: // measure 1
1000
0001
0100
0010
,  // measure 2
0100
0000
0010
0000
1000
0100
0010
0001
,  // measure 3
1000
0100
0010
0001
0100
0010
1000
0000
,  // measure 4
1001
0000
0110
0000
0001
0100
0001
0000
,  // measure 5
1000
0001
1000
0000
0100
0000
1000
0000
0010
0000
0100
0000
0010
0000
0000
0000
,  // measure 6
2000
0001
3001
0000
0011
0000
1001
0000
,  // measure 7
0001
0000
1000
0001
0100
0000
0101
0000
,  // measure 8
1000
0100
1000
0000
0001
0010
0001
0000
,  // measure 9
0100
0010
0100
0000
0001
1000
0001
0000
,  // measure 10
0002
1000
1003
0000
1100
0000
1001
0000
,  // measure 11
1000
0000
0001
1000
0010
0000
1010
0000
,  // measure 12
1001
0000
0001
0000
1000
0010
1000
0000
,  // measure 13
0001
0100
0001
0000
0100
0010
0100
0000
,  // measure 14
0010
0100
0010
0000
1000
0010
0100
0000
,  // measure 15
0001
0100
1000
0000
0001
0100
0010
0000
,  // measure 16
1001
0000
1000
0000
0010
0100
0001
0000
,  // measure 17
1000
0100
0010
0000
0001
0100
0010
0000
,  // measure 18
1001
0100
0010
0000
1001
0010
0100
0000
,  // measure 19
1000
0000
0001
0000
1000
0001
0100
0002
0000
0000
0000
0000
0000
1003
0100
1000
,  // measure 20
0200
0000
0000
2300
0000
0000
3002
0000
,  // measure 21
0000
0000
0000
0000
,  // measure 22
0023
0000
0000
0032
0000
0000
2003
0000
,  // measure 23
0000
0000
0000
0000
,  // measure 24
3002
0000
0000
0203
0000
0000
0320
0000
,  // measure 25
0000
0000
0000
0000
,  // measure 26
2030
0000
0000
3020
0000
0000
0230
0000
,  // measure 27
0000
0000
0000
0000
0000
0301
0010
0100
,  // measure 28
2000
0000
0000
3020
0000
0000
2030
0000
,  // measure 29
0001
0000
0001
0000
,  // measure 30
3002
0000
0000
0203
0000
0000
0302
0000
,  // measure 31
1000
0000
0000
0000
1003
0100
0010
0001
,  // measure 32
0200
0000
0000
0320
0000
0000
2030
0000
,  // measure 33
0001
0000
0001
0000
3001
0200
0000
0320
,  // measure 34
0000
0000
1030
0100
0010
0001
1000
0100
,  // measure 35
0010
0001
0100
1000
0100
0010
0001
0000
,  // measure 36
2001
0000
3001
0200
0000
0310
2000
0000
,  // measure 37
3100
1000
0010
0000
0100
0001
0010
0100
,  // measure 38
2000
0000
3001
0200
0000
0310
2000
0000
,  // measure 39
3100
1000
0010
0000
0100
0001
0010
0100
,  // measure 40
2000
0000
3001
0020
0000
0130
2000
0000
,  // measure 41
3100
0010
0001
0000
0100
0001
1000
0100
,  // measure 42
0020
0000
0031
0200
0000
0310
2000
0000
,  // measure 43
3100
0010
0001
0000
0100
0001
0100
1000
,  // measure 44
1001
0000
0100
0002
0000
1003
0200
0000
,  // measure 45
1300
0100
1000
0001
0100
0001
1000
0100
,  // measure 46
0020
0000
0031
2000
0000
3001
0020
0000
,  // measure 47
0031
0010
0001
1000
0010
1000
0001
0010
,  // measure 48
0200
0000
1300
0020
0000
0000
1030
0001
,  // measure 49
1000
0010
0100
0010
1000
0100
0001
0100
,  // measure 50
1001
0000
0100
1000
0010
0000
0100
0001
,  // measure 51
2002
0000
0000
3003
,  // measure 52
0010
0000
1000
0000
0010
1000
0010
0000
0100
0000
0001
0000
0100
0001
0100
0000
,  // measure 53
0001
0000
1000
0000
0001
1000
0001
0000
0100
0010
0100
0000
0010
0100
0010
0000
,  // measure 54
1000
0000
0100
0000
1000
0100
1000
0000
0001
0000
0010
0000
0001
0010
0001
0000
,  // measure 55
1000
0000
0001
0000
1000
0001
1000
0000
0010
0100
0010
0000
0100
0010
0100
0000
,  // measure 56
0010
0100
0001
0010
0000
0100
0010
0100
,  // measure 57
0000
1000
0010
1000
0001
0010
0100
1000
,  // measure 58
0000
0000
0001
0100
0000
0000
0100
0010
0000
0000
0010
1000
0000
0000
1000
0001
,  // measure 59
0000
0100
0010
0100
0010
0100
0010
0100
,  // measure 60
2002
0000
0000
0000
,  // measure 61
3003
0000
0000
0000
;

//---------------dance-single - ----------------
#NOTES:
     dance-single:
     :
     Medium:
     5:
     0.371,0.363,0.216,0.320,0.009: // measure 1
1000
0001
0100
0010
,  // measure 2
1000
0001
0010
0100
,  // measure 3
1000
0001
0010
0100
,  // measure 4
1001
1001
0100
0101
,  // measure 5
1000
0010
0100
0000
0001
0010
0100
0000
,  // measure 6
1000
1010
1001
1001
,  // measure 7
1000
0000
1010
0000
0001
0100
0010
0000
,  // measure 8
1000
0100
0010
0000
0001
0000
0011
0000
,  // measure 9
1000
0000
1001
0000
0001
0100
0001
0000
,  // measure 10
1000
0100
1000
0000
1000
0000
1100
0000
,  // measure 11
0001
0000
1001
0000
1000
0001
0100
0000
,  // measure 12
1001
0001
1000
1100
,  // measure 13
0001
1000
0001
0011
,  // measure 14
1000
0100
0001
0100
,  // measure 15
1000
0001
0100
0001
,  // measure 16
1001
0000
0001
0000
1000
0100
0010
0000
,  // measure 17
1001
0000
1000
0000
0001
0010
0100
0000
,  // measure 18
1001
0100
1001
0100
,  // measure 19
1000
0000
0001
0000
0100
0000
0000
0101
0000
0000
0000
0000
0000
2000
0000
0000
,  // measure 20
3020
0000
0000
0230
0000
0000
0320
0000
,  // measure 21
0000
0000
0000
0030
,  // measure 22
0200
0000
0000
0320
0000
0000
0230
0000
,  // measure 23
0000
0000
0000
0300
,  // measure 24
0002
0000
0000
2003
0000
0000
3002
0000
,  // measure 25
0000
0000
0000
0003
,  // measure 26
2000
0000
0000
3002
0000
0000
2003
0000
,  // measure 27
0000
0000
0000
3000
,  // measure 28
0001
0100
0001
0100
,  // measure 29
1000
0100
0001
1000
,  // measure 30
0100
1000
0100
0001
,  // measure 31
0100
1000
0001
0100
,  // measure 32
0010
1000
0010
0100
,  // measure 33
0001
0100
0001
0010
,  // measure 34
0100
1000
0100
0001
,  // measure 35
0010
1000
0010
0100
,  // measure 36
1002
0000
0000
0023
0000
0000
0230
0000
,  // measure 37
1000
0000
1300
0000
0010
0001
0010
0000
,  // measure 38
0002
0000
0000
0023
0000
0000
0230
0000
,  // measure 39
1000
0000
1300
0000
0010
0001
0100
0000
,  // measure 40
0002
0000
0000
0203
0000
0000
0320
0000
,  // measure 41
1000
0000
1030
0000
0100
0001
0100
0000
,  // measure 42
0002
0000
0000
0203
0000
0000
0320
0000
,  // measure 43
1000
0000
1030
0000
0100
0001
0100
0001
,  // measure 44
2000
0000
0000
3200
0000
0000
0320
0000
,  // measure 45
0001
0000
0031
0000
0100
1000
0100
0000
,  // measure 46
2000
0000
0000
3200
0000
0000
0320
0000
,  // measure 47
0001
0000
0031
0000
0100
1000
0010
0000
,  // measure 48
2000
0000
0000
3020
0000
0000
0230
0000
,  // measure 49
0001
0000
0301
0000
0010
1000
0010
0000
,  // measure 50
1001
0000
0100
0010
0100
0000
0010
0100
,  // measure 51
0020
0000
0000
0030
,  // measure 52
0110
0000
0010
0100
0001
0000
1000
0100
,  // measure 53
1000
0000
0001
0100
1000
0100
0010
1000
,  // measure 54
0001
0000
0100
0010
1000
0000
0001
0010
,  // measure 55
0001
0000
1000
0100
0001
0100
0010
0001
,  // measure 56
1000
0000
0001
1000
0000
0010
0000
0100
,  // measure 57
0000
0001
0000
0001
0000
1000
0000
1000
,  // measure 58
0000
1010
0000
0010
0000
0101
0000
0100
,  // measure 59
0000
0001
0000
0100
0000
0010
0000
1000
,  // measure 60
2002
0000
0000
0000
,  // measure 61
3003
0000
0000
0000
;

//---------------dance-single - ----------------
#NOTES:
     dance-single:
     :
     Beginner:
     1:
     0.059,0.128,0.052,0.000,0.000: // measure 1
0000
0000
0000
0000
,  // measure 2
0000
0000
0000
0000
,  // measure 3
0000
0000
0000
0000
,  // measure 4
1001
0000
0000
0000
,  // measure 5
1000
0000
0000
0000
,  // measure 6
1000
0000
0000
0000
,  // measure 7
0001
0000
0000
0000
,  // measure 8
0001
0000
0000
0000
,  // measure 9
0100
0000
0000
0000
,  // measure 10
0010
0000
0000
0000
,  // measure 11
0100
0000
0000
0000
,  // measure 12
1001
0000
0000
0000
,  // measure 13
0001
0000
0000
0000
,  // measure 14
0001
0000
0000
0000
,  // measure 15
1000
0000
0000
0000
,  // measure 16
1000
0000
0000
0000
,  // measure 17
0001
0000
0000
0000
,  // measure 18
1000
0000
1000
0000
,  // measure 19
1001
0000
0000
0000
,  // measure 20
0001
0000
0000
0000
,  // measure 21
0000
0000
0000
0000
,  // measure 22
0000
0000
0000
0000
,  // measure 23
0000
0000
0000
0000
,  // measure 24
0000
0000
0000
0000
,  // measure 25
0000
0000
0000
0000
,  // measure 26
0000
0000
0000
0000
,  // measure 27
0000
0000
0000
0000
,  // measure 28
1000
0000
0000
0000
,  // measure 29
0000
0000
0000
0000
,  // measure 30
0010
0000
0000
0000
,  // measure 31
0000
0000
0000
0000
,  // measure 32
0100
0000
0000
0000
,  // measure 33
0000
0000
0000
0000
,  // measure 34
0001
0000
0000
0000
,  // measure 35
0000
0000
0000
0000
,  // measure 36
1001
0000
0000
0000
,  // measure 37
1000
0000
0000
0000
,  // measure 38
0001
0000
0000
0000
,  // measure 39
0000
0000
0000
0000
,  // measure 40
0001
0000
0000
0000
,  // measure 41
0000
0000
0000
0000
,  // measure 42
1000
0000
0000
0000
,  // measure 43
0000
0000
0000
0000
,  // measure 44
0010
0000
0000
0000
,  // measure 45
0100
0000
0000
0000
,  // measure 46
0010
0000
0000
0000
,  // measure 47
1000
0000
0000
0000
,  // measure 48
0001
0000
0000
0000
,  // measure 49
1000
0000
0000
0000
,  // measure 50
1000
0000
0000
0000
,  // measure 51
1000
0000
0000
0000
,  // measure 52
1001
0000
0000
0000
,  // measure 53
0001
0000
0000
0000
,  // measure 54
0010
0000
0000
0000
,  // measure 55
0100
0000
0000
0000
,  // measure 56
1000
0000
0000
0000
,  // measure 57
0000
0000
0000
0000
,  // measure 58
1000
0000
0000
0000
,  // measure 59
0000
0000
0000
0000
,  // measure 60
1001
0000
0000
0000
;
