#TITLE:黒髪乱れし修羅となりて;
#SUBTITLE:;
#ARTIST:村正クオリア;
#TITLETRANSLIT:KUROKAMI MIDARESHI SHURA TO NARITE;
#SUBTITLETRANSLIT:;
#ARTISTTRANSLIT:MURAMASA QUALIA;
#CREDIT:DMAxel;
#BANNER:KUROKAMI MIDARESHI SHURA TO NARITE.png;
#BACKGROUND:KUROKAMI MIDARESHI SHURA TO NARITE-bg.png;
#LYRICSPATH:KUROKAMI MIDARESHI SHURA TO NARITE.lrc;
#CDTITLE:pop'n music.png;
#MUSIC:KUROKAMI MIDARESHI SHURA TO NARITE.mp3;
#OFFSET:-7.220;
#SAMPLESTART:38.780;
#SAMPLELENGTH:12.000;
#SELECTABLE:YES;
#BPMS:0.000=300.000;
#STOPS:;
#BGCHANGES:;

//---------------dance-single - ----------------
#NOTES:
     dance-single:
     :
     Easy:
     4:
     0.287,0.398,0.506,0.082,0.000: // measure 1
1000
0000
0000
0000
,  // measure 2
0000
0000
0000
0000
,  // measure 3
1000
0000
0000
0000
,  // measure 4
0000
0000
0000
0000
,  // measure 5
0001
0000
0000
0000
,  // measure 6
0000
0000
0000
0000
,  // measure 7
0001
0000
0000
0000
,  // measure 8
0000
0000
0000
0000
,  // measure 9
1001
0000
0000
0000
,  // measure 10
0000
0000
0000
0000
,  // measure 11
0001
0000
0000
0000
,  // measure 12
0000
0000
0000
0000
,  // measure 13
0001
0000
0000
0000
,  // measure 14
0000
0000
0000
0000
,  // measure 15
0001
0000
1000
0000
,  // measure 16
0001
0000
0000
0000
,  // measure 17
1000
0000
0000
0000
,  // measure 18
0000
0000
0000
0000
,  // measure 19
1000
0000
0000
0000
,  // measure 20
0000
0000
0000
0000
,  // measure 21
1000
0000
0000
0000
,  // measure 22
0000
0000
0000
0000
,  // measure 23
1000
0000
0001
0000
,  // measure 24
1000
0000
0000
0000
,  // measure 25
1001
0000
0000
0000
,  // measure 26
1100
0000
0000
0000
,  // measure 27
1001
0000
0000
0000
,  // measure 28
0011
0000
0000
0000
,  // measure 29
1001
0000
0000
0000
,  // measure 30
1100
0000
0000
0000
,  // measure 31
1001
0000
0000
0000
,  // measure 32
0011
0000
0000
0000
,  // measure 33
1001
0000
0000
0000
,  // measure 34
0101
0000
0000
0000
,  // measure 35
1001
0000
0000
0000
,  // measure 36
1010
0000
0000
0000
,  // measure 37
1001
0000
0000
0000
,  // measure 38
0101
0000
0000
0000
,  // measure 39
1001
0000
0000
0000
,  // measure 40
0000
0000
0000
0000
,  // measure 41
0010
0000
0100
0000
,  // measure 42
0010
0000
0100
0000
,  // measure 43
0010
0000
1000
0000
,  // measure 44
0010
0000
1000
0000
,  // measure 45
0001
0000
1000
0000
,  // measure 46
0001
0000
1000
0000
,  // measure 47
0101
0000
0000
0000
,  // measure 48
0000
0000
0000
0000
,  // measure 49
0100
0000
0010
0000
,  // measure 50
0100
0000
0010
0000
,  // measure 51
0100
0000
0001
0000
,  // measure 52
0100
0000
0001
0000
,  // measure 53
1000
0000
0001
0000
,  // measure 54
1000
0000
0000
0000
,  // measure 55
1010
0000
0000
0000
,  // measure 56
0010
0000
0101
0000
,  // measure 57
1001
0000
0000
0000
,  // measure 58
0100
0000
1010
0000
,  // measure 59
1001
0000
0000
0000
,  // measure 60
0010
0000
0011
0000
,  // measure 61
1001
0000
0000
0000
,  // measure 62
0100
0000
1100
0000
,  // measure 63
1001
0000
0000
0000
,  // measure 64
0010
0000
0011
0000
,  // measure 65
1001
0000
0000
0000
,  // measure 66
0100
0000
1100
0000
,  // measure 67
1001
0000
0000
0000
,  // measure 68
0010
0000
0101
0000
,  // measure 69
1001
0000
0000
0000
,  // measure 70
0100
0000
1010
0000
,  // measure 71
2002
0000
0000
0000
,  // measure 72
0000
0000
3003
0000
,  // measure 73
0011
0000
0100
0000
,  // measure 74
1000
0000
0100
0000
,  // measure 75
1000
0000
0001
0000
,  // measure 76
1000
0000
0001
0000
,  // measure 77
0010
0000
0001
0000
,  // measure 78
0010
0000
0001
0000
,  // measure 79
0010
0000
0100
0000
,  // measure 80
1000
0000
0001
0000
,  // measure 81
1100
0000
0010
0000
,  // measure 82
0001
0000
0010
0000
,  // measure 83
0001
0000
1000
0000
,  // measure 84
0001
0000
1000
0000
,  // measure 85
0100
0000
1000
0000
,  // measure 86
0100
0000
1000
0000
,  // measure 87
0010
0000
0100
0000
,  // measure 88
0001
0000
1000
0000
,  // measure 89
1001
0000
0000
0000
,  // measure 90
0011
0000
0000
0000
,  // measure 91
1001
0000
0000
0000
,  // measure 92
1010
0000
0000
0000
,  // measure 93
1001
0000
0000
0000
,  // measure 94
1100
0000
0000
0000
,  // measure 95
1001
0000
0000
0000
,  // measure 96
0101
0000
0000
0000
,  // measure 97
1001
0000
0000
0000
,  // measure 98
0011
0000
0000
0000
,  // measure 99
1001
0000
0000
0000
,  // measure 100
1100
0000
0000
0000
,  // measure 101
1001
0000
0000
0000
,  // measure 102
0110
0000
0000
0000
,  // measure 103
1001
0000
0000
0000
,  // measure 104
0110
0000
0000
0000
,  // measure 105
1001
0000
0001
0000
,  // measure 106
0010
0000
0000
0000
,  // measure 107
0100
0000
1000
0000
,  // measure 108
0100
0000
0000
1001
,  // measure 109
0000
0000
0100
0000
,  // measure 110
0010
0000
0001
0000
,  // measure 111
1000
0000
0001
0000
,  // measure 112
1000
0000
0001
0000
,  // measure 113
0011
0000
0000
0000
,  // measure 114
0100
0000
1000
0000
,  // measure 115
0010
0000
0000
0000
,  // measure 116
0100
0000
0000
1001
,  // measure 117
0000
0000
0100
0000
,  // measure 118
0010
0000
0001
0000
,  // measure 119
1000
0000
0001
0000
,  // measure 120
1000
0000
0000
0000
,  // measure 121
2200
0000
0000
0000
,  // measure 122
0000
0000
3300
0000
,  // measure 123
0020
0000
0000
0000
,  // measure 124
0000
0000
0030
0000
,  // measure 125
0002
0000
0000
0000
,  // measure 126
0000
0000
0003
0000
,  // measure 127
2002
0000
0000
0000
,  // measure 128
0000
0000
3003
0000
,  // measure 129
0011
0000
0100
0000
,  // measure 130
1000
0000
0010
0000
,  // measure 131
1000
0000
0001
0000
,  // measure 132
1000
0000
0010
0000
,  // measure 133
1000
0000
0100
0000
,  // measure 134
0010
0000
0001
0000
,  // measure 135
0011
0000
0000
0000
,  // measure 136
0000
0000
0000
0000
,  // measure 137
0110
0000
0000
0000
,  // measure 138
0000
0000
0010
0000
,  // measure 139
2002
0000
0000
0000
,  // measure 140
0000
0000
3003
0000
;

//---------------dance-single - ----------------
#NOTES:
     dance-single:
     :
     Medium:
     6:
     0.467,0.569,0.326,0.237,0.000: // measure 1
0100
0200
0000
0000
,  // measure 2
0000
0000
0000
0000
,  // measure 3
0301
0002
0000
0000
,  // measure 4
0000
0000
0000
0000
,  // measure 5
1003
2000
0000
0000
,  // measure 6
0000
0000
0000
0000
,  // measure 7
3010
0020
0000
0000
,  // measure 8
0000
0000
0030
0000
,  // measure 9
1001
0000
0002
0000
,  // measure 10
0000
0000
0000
0000
,  // measure 11
0000
0000
2003
0000
,  // measure 12
0000
0000
0000
0000
,  // measure 13
0000
0000
3002
0000
,  // measure 14
0000
0000
0000
0000
,  // measure 15
1003
0000
0010
0000
,  // measure 16
0100
0000
0001
0000
,  // measure 17
0000
0000
2000
0000
,  // measure 18
0000
0000
0000
0000
,  // measure 19
0000
0000
3020
0000
,  // measure 20
0000
0000
0000
0000
,  // measure 21
0000
0000
0230
0000
,  // measure 22
0000
0000
0000
0000
,  // measure 23
0301
0000
0100
0000
,  // measure 24
0010
1000
0001
0000
,  // measure 25
1002
0000
0000
0100
,  // measure 26
0103
0001
0100
0000
,  // measure 27
2001
0000
0000
0010
,  // measure 28
3010
1000
0010
0000
,  // measure 29
1002
0000
0000
0100
,  // measure 30
0103
0001
0100
0000
,  // measure 31
2001
0000
0000
0010
,  // measure 32
3010
1000
0010
0000
,  // measure 33
1002
0000
0000
0010
,  // measure 34
0013
0001
0010
0000
,  // measure 35
2001
0000
0000
0100
,  // measure 36
3100
1000
0100
0000
,  // measure 37
1002
0000
0000
0010
,  // measure 38
0013
0001
0010
0000
,  // measure 39
0001
0010
0100
1000
,  // measure 40
0001
0000
0000
0000
,  // measure 41
0001
0010
0001
0010
,  // measure 42
0001
1000
0001
1000
,  // measure 43
0001
0010
0001
0010
,  // measure 44
0001
0000
1001
0000
,  // measure 45
1000
0100
1000
0100
,  // measure 46
1000
0001
1000
0001
,  // measure 47
1000
0000
0000
1000
0000
0000
0001
0000
,  // measure 48
0000
0001
0000
0000
0000
0000
0000
0000
,  // measure 49
1000
0010
1000
0010
,  // measure 50
1000
0001
1000
0001
,  // measure 51
1000
0010
1000
0010
,  // measure 52
1000
0000
1001
0000
,  // measure 53
0001
0100
0001
0100
,  // measure 54
0001
1000
0001
1000
,  // measure 55
0001
0001
0001
0000
,  // measure 56
0100
0010
1000
0000
,  // measure 57
1000
1000
1000
0100
,  // measure 58
0010
0001
0101
0000
,  // measure 59
1000
1000
1000
0000
,  // measure 60
0010
0100
0001
0000
,  // measure 61
0001
0001
0001
0010
,  // measure 62
0100
1000
1010
0000
,  // measure 63
0001
0001
0001
0000
,  // measure 64
0010
0100
1000
0000
,  // measure 65
1000
1000
1000
0100
,  // measure 66
0010
0001
0011
0000
,  // measure 67
1000
1000
1000
0000
,  // measure 68
0100
0010
0001
0000
,  // measure 69
0001
0001
0001
0010
,  // measure 70
0100
1000
1100
0000
,  // measure 71
2002
0000
0000
0000
,  // measure 72
0000
0000
3003
0000
,  // measure 73
0010
0100
0010
0100
,  // measure 74
0001
0000
0000
0001
0000
0000
0001
0000
,  // measure 75
0000
0100
0010
0100
,  // measure 76
0001
0000
0000
0001
0000
0000
0001
0000
,  // measure 77
0000
0100
0010
0100
,  // measure 78
0001
0000
0000
0001
0000
0000
0001
0000
,  // measure 79
1000
0010
1000
0000
,  // measure 80
0001
0000
1001
0000
,  // measure 81
0010
0100
0010
0100
,  // measure 82
1000
0000
0000
1000
0000
0000
1000
0000
,  // measure 83
0000
0010
0100
0010
,  // measure 84
1000
0000
0000
1000
0000
0000
1000
0000
,  // measure 85
0000
0010
0100
0010
,  // measure 86
1000
0000
0000
1000
0000
0000
1000
0000
,  // measure 87
0001
0100
0001
0000
,  // measure 88
1000
0000
1001
0000
,  // measure 89
2001
0000
0000
0010
,  // measure 90
3010
1000
0001
0000
,  // measure 91
1002
0000
0000
0100
,  // measure 92
0103
0001
1000
0000
,  // measure 93
2001
0000
0000
0100
,  // measure 94
3100
1000
0001
0000
,  // measure 95
1002
0000
0000
0010
,  // measure 96
0013
0001
1000
0000
,  // measure 97
1010
0000
0000
1000
0000
0000
0000
0000
,  // measure 98
1010
0000
0000
1000
0000
0000
0000
0000
,  // measure 99
0011
0000
0000
0001
0000
0000
0000
0000
,  // measure 100
0011
0000
0000
0001
0000
0000
0000
0000
,  // measure 101
1100
0000
0000
1000
0000
0000
0000
0000
,  // measure 102
1100
0000
0000
1000
0000
0000
0000
0000
,  // measure 103
0101
0000
0000
0001
0000
0000
0000
0000
,  // measure 104
0101
0000
0000
0000
,  // measure 105
1001
0000
1000
0000
,  // measure 106
1000
0000
0010
0000
,  // measure 107
0100
0001
0000
0001
,  // measure 108
0000
0100
0000
1010
,  // measure 109
0000
1000
0100
1000
,  // measure 110
0100
1000
0100
1000
,  // measure 111
0001
1000
0001
0010
,  // measure 112
0001
0000
0011
0000
,  // measure 113
1001
0000
0001
0000
,  // measure 114
0001
0000
0100
0000
,  // measure 115
0010
1000
0000
1000
,  // measure 116
0000
0010
0000
0101
,  // measure 117
0000
0001
0010
0001
,  // measure 118
0010
0001
0010
0001
,  // measure 119
1000
0001
1000
0010
,  // measure 120
1000
0000
0000
0000
,  // measure 121
2020
0000
0000
0000
,  // measure 122
0000
0000
3000
0000
,  // measure 123
0200
0000
0000
0000
,  // measure 124
0000
0000
0030
0000
,  // measure 125
0002
0000
0000
0000
,  // measure 126
0000
0000
0303
0000
,  // measure 127
1001
0000
0000
0001
0000
0000
1000
0000
,  // measure 128
0000
1000
0000
0000
0000
0000
0000
0000
,  // measure 129
0001
0100
0001
0100
,  // measure 130
0001
1000
0001
1000
,  // measure 131
0010
1000
0010
1000
,  // measure 132
0100
0010
0001
0001
,  // measure 133
1000
0010
1000
0010
,  // measure 134
1000
0001
1000
0001
,  // measure 135
1000
0000
1100
0000
,  // measure 136
0000
0001
0001
0000
,  // measure 137
0011
0000
0011
0000
,  // measure 138
0000
0001
0100
0010
,  // measure 139
2002
0000
0000
0000
,  // measure 140
0000
0000
3003
0000
;

//---------------dance-single - ----------------
#NOTES:
     dance-single:
     :
     Hard:
     9:
     0.662,0.740,0.375,0.196,0.000: // measure 1
0101
0000
0101
0000
,  // measure 2
0000
0000
1000
0100
1000
0100
1000
0000
,  // measure 3
1100
0000
1100
0000
,  // measure 4
0000
0000
0001
0010
0001
0010
0001
0000
,  // measure 5
0011
0000
0011
0000
,  // measure 6
0000
0000
1000
0010
1000
0010
1000
0000
,  // measure 7
1010
0000
1010
0000
,  // measure 8
0000
0000
0001
1000
0001
1000
0001
0000
,  // measure 9
1001
0000
0200
0000
,  // measure 10
0010
0000
0000
0010
0000
0000
0310
0000
,  // measure 11
0000
0000
0020
0000
,  // measure 12
0100
0000
0000
0100
0000
0000
0130
0000
,  // measure 13
0000
0000
0200
0000
,  // measure 14
0010
0000
0000
0010
0000
0000
0310
0000
,  // measure 15
1000
0100
1000
0001
,  // measure 16
0010
0100
0010
0001
,  // measure 17
0100
0000
0020
0000
,  // measure 18
0100
0000
0000
0100
0000
0000
0130
0000
,  // measure 19
0000
0000
0200
0000
,  // measure 20
0010
0000
0000
0010
0000
0000
0310
0000
,  // measure 21
0000
0000
0020
0000
,  // measure 22
0100
0000
0000
0100
0000
0000
0130
0000
,  // measure 23
0001
0010
0001
1000
,  // measure 24
0100
0010
0100
1000
,  // measure 25
0001
0010
0100
1000
,  // measure 26
0010
0100
0010
1000
,  // measure 27
0100
0001
0100
1000
,  // measure 28
0100
0010
0100
0000
,  // measure 29
1000
0100
0010
0001
,  // measure 30
0100
0010
0100
0001
,  // measure 31
0100
1000
0100
0001
,  // measure 32
0100
0010
0100
0010
0100
0010
0100
0000
,  // measure 33
0001
0010
0100
1000
,  // measure 34
0100
0010
0100
1000
,  // measure 35
0100
0001
0100
1000
,  // measure 36
0001
0100
0010
0000
,  // measure 37
1000
0100
0010
0001
,  // measure 38
0010
0100
0010
0001
,  // measure 39
0100
0000
1000
0000
0100
0000
0010
0100
,  // measure 40
0010
0000
0000
0000
,  // measure 41
0001
0100
0010
1000
,  // measure 42
0100
0010
0100
1000
,  // measure 43
0001
0010
0001
0010
,  // measure 44
0001
0100
0010
1000
,  // measure 45
0001
0010
0100
1000
,  // measure 46
0100
0010
0100
1000
,  // measure 47
0001
0000
0000
1001
0000
0000
1001
0000
,  // measure 48
0000
1001
0000
0000
1001
0000
0000
0000
,  // measure 49
1000
0010
0100
0001
,  // measure 50
0010
0100
0010
0001
,  // measure 51
1000
0100
1000
0100
,  // measure 52
1000
0010
0100
0001
,  // measure 53
1000
0100
0010
0001
,  // measure 54
0010
0100
0010
0001
,  // measure 55
1000
0000
0010
1000
0000
0010
0000
1000
,  // measure 56
0001
0010
0011
0000
,  // measure 57
0001
0000
0100
0001
0000
0100
0000
0001
,  // measure 58
1000
0100
1100
0000
,  // measure 59
1000
0000
0100
1000
0000
0100
0000
1000
,  // measure 60
0001
0100
0101
0000
,  // measure 61
0001
0000
0010
0001
0000
0010
0000
0001
,  // measure 62
1000
0010
1010
0000
,  // measure 63
1000
0000
0001
0100
0000
0001
0000
0100
,  // measure 64
0001
1000
1001
0000
,  // measure 65
0001
0000
1000
0010
0000
1000
0000
0010
,  // measure 66
1000
0001
1001
0000
,  // measure 67
0001
0000
1000
0100
0000
1000
0000
0100
,  // measure 68
1000
0001
1001
0000
,  // measure 69
1000
0000
0001
0010
0000
0001
0000
0010
,  // measure 70
0001
1000
1001
0000
,  // measure 71
0220
0000
0000
0000
,  // measure 72
0000
0000
0330
0000
,  // measure 73
1000
0000
0010
0100
0010
0100
0010
0000
,  // measure 74
0100
0001
0010
0001
,  // measure 75
1000
0000
0010
0100
0010
0100
0010
0000
,  // measure 76
0100
0001
0010
0001
,  // measure 77
1000
0000
0010
0100
0010
0100
0010
0000
,  // measure 78
0100
0001
0010
0001
,  // measure 79
1000
0010
1000
0000
0001
0100
0001
0000
,  // measure 80
0010
0100
1000
1000
,  // measure 81
0001
0000
0100
0010
0100
0010
0100
0000
,  // measure 82
0010
1000
0100
1000
,  // measure 83
0001
0000
0100
0010
0100
0010
0100
0000
,  // measure 84
0010
1000
0100
1000
,  // measure 85
0001
0000
0100
0010
0100
0010
0100
0000
,  // measure 86
0010
1000
0100
1000
,  // measure 87
0001
0100
0001
0000
1000
0010
1000
0000
,  // measure 88
0100
0010
0001
0001
,  // measure 89
2001
0000
0000
0100
0000
0000
3100
0000
,  // measure 90
0020
0000
0000
0001
0000
0000
0031
0000
,  // measure 91
2000
0000
0000
0010
0000
0000
3010
0000
,  // measure 92
0200
0000
0000
0001
0000
0000
0000
0000
,  // measure 93
0302
0000
0000
0010
0000
0000
0013
0000
,  // measure 94
0200
0000
0000
1000
0000
0000
1300
0000
,  // measure 95
0002
0000
0000
0100
0000
0000
0103
0000
,  // measure 96
0001
0100
0010
1000
,  // measure 97
0002
0000
0000
0100
0000
0000
0103
0000
,  // measure 98
0020
0000
0000
1000
0000
0000
1030
0000
,  // measure 99
0002
0000
0000
0010
0000
0000
0013
0000
,  // measure 100
0200
0000
0000
1000
0000
0000
0000
0000
,  // measure 101
2300
0000
0000
0010
0000
0000
3010
0000
,  // measure 102
0200
0000
0000
0001
0000
0000
0301
0000
,  // measure 103
2000
0000
0000
0001
0000
0000
3001
0000
,  // measure 104
1000
0010
0100
0001
,  // measure 105
1001
0000
0101
0000
,  // measure 106
0101
0000
0101
0000
,  // measure 107
0010
1010
0000
1010
,  // measure 108
0000
1010
0000
1001
,  // measure 109
0000
0001
0100
0010
,  // measure 110
1000
0000
0001
0000
0010
0000
0001
0010
,  // measure 111
0001
1000
0100
0010
,  // measure 112
0100
0000
1000
0001
1000
0001
1000
0000
,  // measure 113
1001
0000
1010
0000
,  // measure 114
1010
0000
1010
0000
,  // measure 115
0100
0101
0000
0101
,  // measure 116
0000
0101
0000
1001
,  // measure 117
0000
1000
0010
0100
,  // measure 118
0001
0000
1000
0000
0100
0000
1000
0100
,  // measure 119
1000
0001
0010
0100
,  // measure 120
0010
0000
0000
0000
,  // measure 121
1001
0000
0001
0000
,  // measure 122
0001
0000
0001
0000
,  // measure 123
0100
0000
0100
0000
,  // measure 124
0100
0000
0100
0000
,  // measure 125
1000
0000
1000
0000
,  // measure 126
1000
0000
1000
0000
,  // measure 127
1001
0000
0000
1001
0000
0000
1001
0000
,  // measure 128
0000
1001
0000
0000
1001
0000
0000
0000
,  // measure 129
1000
0000
0010
0000
0100
0000
0001
0100
,  // measure 130
0001
0000
0100
0000
0010
0000
1000
0100
,  // measure 131
1000
0001
1000
0100
,  // measure 132
1000
0100
1000
0000
0001
0010
0001
0000
,  // measure 133
1000
0001
1000
0000
0010
0000
0100
0001
,  // measure 134
0100
0010
1000
0100
,  // measure 135
1000
0100
1000
0000
0100
1000
0100
0000
,  // measure 136
0000
0000
1000
0001
1000
0001
1000
0000
,  // measure 137
0001
0010
0001
0000
0010
0001
0010
0000
,  // measure 138
0000
0000
0001
1000
0001
1000
0001
0000
,  // measure 139
2002
0000
0000
0000
,  // measure 140
0000
0000
3003
0000
;

//---------------dance-single - ----------------
#NOTES:
     dance-single:
     :
     Challenge:
     10:
     0.886,0.967,0.465,0.098,0.000:
0001
0100
0001
0000
0100
0001
0100
0000
,
0000
0000
0010
0100
0010
0100
0010
0000
,
1000
0010
1000
0000
0010
1000
0010
0000
,
0000
0000
0100
0010
0100
0010
0100
0000
,
0001
0010
0001
0000
0010
0001
0010
0000
,
0000
0000
0001
1000
0001
1000
0001
0000
,
1000
0100
1000
0000
0100
1000
0100
0000
,
0000
0000
1000
0001
1000
0001
1000
0000
,
1002
0000
0100
0000
,
1000
0000
0000
1000
0000
0000
1003
0000
,
0000
0000
0200
0000
,
0010
0000
0000
0010
0000
0000
0310
0000
,
0000
0000
0002
0000
,
1000
0000
0000
1000
0000
0000
1003
0000
,
0010
0100
0010
1000
,
0002
0000
0000
1000
0000
0000
1003
0000
,
0000
0000
0200
0000
,
0001
0000
0000
0001
0000
0000
0301
0000
,
0000
0000
0200
0000
,
0010
0000
0000
0010
0000
0000
0310
0000
,
1000
0001
2000
0000
,
0010
0000
0000
0010
0000
0000
3010
0000
,
0100
0010
0100
0000
0001
0100
0001
1000
,
0100
0010
0001
0000
1000
0001
1000
0000
,
0010
1000
0010
0000
1000
0000
0001
0000
,
0010
0100
0010
0000
0001
0000
1000
0000
,
0001
0100
0001
0000
1000
0000
0100
0000
,
0010
0100
0010
0000
0100
0000
1000
0000
,
0001
0100
0001
0000
0100
0000
0001
0000
,
0010
0100
0010
0000
0001
0000
1000
0000
,
0100
0010
0100
0000
1000
0000
0010
0000
,
0100
0001
0100
0001
1000
0100
0010
0001
,
1000
0000
0000
1010
0000
0000
0100
0001
,
0100
0000
0010
0000
1000
0100
0010
0000
,
0001
0000
0000
0101
0000
0000
0010
1000
,
0010
0000
1000
0000
0001
0010
0100
0000
,
1000
0000
0000
1010
0000
0000
0100
0001
,
0100
0000
0001
0000
1000
0100
0010
0000
,
0001
0100
0001
0000
1000
0000
0100
1000
,
0010
0000
0000
0000
,
0010
1000
0010
1000
0010
1000
0010
0100
,
0001
0100
0001
0100
0001
0100
0001
1000
,
0100
1000
0100
1000
0100
1000
0100
1000
,
0001
0010
0100
1000
0001
1000
0001
1000
,
0001
0100
0001
0100
0001
0100
0001
1000
,
0100
1000
0100
1000
0100
1000
0100
1000
,
0100
0000
0000
1100
0000
0000
0101
0000
,
0000
1001
0000
0000
0001
1000
0001
1000
,
0001
0100
0001
0100
0001
0100
0001
1000
,
0100
1000
0100
1000
0100
1000
0100
1000
,
0010
0100
0010
0100
0010
0100
0010
0100
,
0001
0010
0100
1000
0001
1000
0001
1000
,
0001
0010
0001
0010
0001
0010
0001
1000
,
0010
1000
0010
1000
0010
1000
0010
0000
,
1001
0000
0100
1000
0000
0001
0000
0100
,
0001
0101
1001
0000
,
0100
0010
0100
0001
0000
1000
0010
0100
,
0010
1010
1001
0000
,
0001
0000
0010
0001
0000
1000
0000
0010
,
1000
1010
1001
0000
,
0010
0100
0010
1000
0000
0001
0100
0010
,
0100
0101
1001
0000
,
1000
0000
0001
0100
0000
0001
0000
1000
,
0100
1100
1001
0000
,
0100
0010
0100
0001
0000
1000
0010
0100
,
0010
0110
1001
0000
,
0100
0010
0100
0001
0000
1000
0000
0010
,
0100
0110
0110
0000
,
0010
0100
0010
1000
0000
0001
0100
0010
,
0100
0110
1001
0000
,
1001
0000
0000
0000
,
0100
0010
0100
0010
0100
0010
0100
0000
,
1001
0000
1000
0010
1000
0010
1000
0000
,
0001
0000
0100
0001
0000
0001
1000
0000
,
1000
0000
0001
0100
0001
0100
0001
0000
,
1000
0000
0010
1000
0000
1000
0001
0000
,
0001
0000
1000
0100
1000
0100
1000
0000
,
0001
0000
0100
0001
0000
0001
1000
0000
,
0100
1000
0100
0000
0010
0001
0010
0100
,
1000
0001
0100
0001
0100
0001
1000
0000
,
1001
0000
0001
0010
0001
0010
0001
0000
,
1000
0000
0010
1000
0000
1000
0001
0000
,
0001
0000
1000
0100
1000
0100
1000
0000
,
0001
0000
0100
0001
0000
0001
1000
0000
,
1000
0000
0001
0100
0001
0100
0001
0000
,
1000
0000
0010
1000
0000
1000
0001
0000
,
0010
0001
0010
0000
0100
1000
0100
0010
,
0001
1000
0010
1000
0010
1000
0010
0000
,
1001
0000
0000
0101
0000
0000
0010
1000
,
0010
0000
1000
0000
0100
0010
0001
0000
,
1010
0000
0000
1010
0000
0000
0100
0001
,
0100
0000
0001
0000
0010
0100
1000
0000
,
0011
0000
0000
0011
0000
0000
0100
1000
,
0100
0000
1000
0000
0100
0010
0001
0000
,
1100
0000
0000
1100
0000
0000
0010
0001
,
0010
0001
1000
0100
0010
0001
1000
0000
,
0110
0000
0000
0110
0000
0000
0001
1000
,
0001
0000
0100
0000
0010
1000
0010
0000
,
0110
0000
0000
0110
0000
0000
1000
0001
,
1000
0000
0010
0000
0100
0001
0100
0000
,
0110
0000
0000
0110
0000
0000
0001
0010
,
0001
0000
1000
0000
0010
0100
0001
0000
,
0110
0000
0000
0110
0000
0000
1000
0100
,
1000
0000
0001
0100
0001
1000
0100
0010
,
1001
0000
0000
1000
0001
0000
0000
0001
,
0100
0010
0020
0000
,
1030
1001
0000
0011
,
0000
0011
0000
1001
,
0000
0000
0100
0001
0100
0001
0100
0001
,
1000
0100
1000
0100
1000
0100
1000
0001
,
0100
0000
0001
0100
0001
0100
0001
0100
,
0010
0000
1000
0001
1000
0001
0010
0100
,
1001
0000
0000
0001
1000
0000
0000
1000
,
0010
0100
0200
0000
,
0301
1001
0000
1100
,
0000
1100
0000
1001
,
0000
0000
0010
1000
0010
1000
0010
1000
,
0001
0010
0001
0010
0001
0010
0001
1000
,
0010
0000
1000
0010
1000
0010
1000
0010
,
0100
0000
0000
0000
,
0002
0000
0100
0000
,
1000
0000
0100
0000
,
1003
0100
0010
0001
,
1000
0000
0001
0000
,
2000
0000
0100
0000
,
0001
0000
3100
0000
,
1100
0000
0000
1100
0000
0000
0101
0000
,
0000
1001
0000
0001
0100
0001
1000
0100
,
1000
0100
1000
0100
1000
0100
1000
0010
,
0100
0010
0100
0010
0100
0010
0100
0001
,
0010
0001
0010
0001
0010
0001
0010
0001
,
1000
0100
0010
0001
0100
0010
1000
0001
,
1000
0001
1000
0001
1000
0001
1000
0010
,
1000
0010
1000
0010
1000
0010
1000
0010
,
1000
0100
0010
0000
0001
0100
0010
0000
,
0000
0000
1000
0001
1000
0001
1000
0000
,
0001
0010
0100
0000
1000
0010
0100
0000
,
0000
0000
0001
0010
0100
1000
0010
0100
,
0002
0000
0000
0000
,
0000
0000
0003
0000
;

//---------------dance-single - ----------------
#NOTES:
     dance-single:
     :
     Beginner:
     2:
     0.091,0.225,0.090,0.000,0.000: // measure 1
0001
0000
0000
0000
,  // measure 2
0000
0000
0000
0000
,  // measure 3
0001
0000
0000
0000
,  // measure 4
0000
0000
0000
0000
,  // measure 5
1000
0000
0000
0000
,  // measure 6
0000
0000
0000
0000
,  // measure 7
1000
0000
0000
0000
,  // measure 8
0000
0000
0000
0000
,  // measure 9
1001
0000
0000
0000
,  // measure 10
0000
0000
0000
0000
,  // measure 11
0000
0000
0000
0000
,  // measure 12
0000
0000
0000
0000
,  // measure 13
0000
0000
0000
0000
,  // measure 14
0000
0000
0000
0000
,  // measure 15
0001
0000
0000
0000
,  // measure 16
0000
0000
0000
0000
,  // measure 17
0000
0000
0000
0000
,  // measure 18
0000
0000
0000
0000
,  // measure 19
0000
0000
0000
0000
,  // measure 20
0000
0000
0000
0000
,  // measure 21
0000
0000
0000
0000
,  // measure 22
0000
0000
0000
0000
,  // measure 23
1000
0000
0000
0000
,  // measure 24
0000
0000
0000
0000
,  // measure 25
1001
0000
0000
0000
,  // measure 26
0000
0000
0000
0000
,  // measure 27
1000
0000
0000
0000
,  // measure 28
0000
0000
0000
0000
,  // measure 29
0001
0000
0000
0000
,  // measure 30
0000
0000
0000
0000
,  // measure 31
1000
0000
0000
0000
,  // measure 32
0000
0000
0000
0000
,  // measure 33
0010
0000
0000
0000
,  // measure 34
0000
0000
0000
0000
,  // measure 35
0100
0000
0000
0000
,  // measure 36
0000
0000
0000
0000
,  // measure 37
0010
0000
0000
0000
,  // measure 38
0000
0000
0000
0000
,  // measure 39
0010
0000
0000
0000
,  // measure 40
0000
0000
0000
0000
,  // measure 41
1001
0000
0000
0000
,  // measure 42
0000
0000
0000
0000
,  // measure 43
1000
0000
0000
0000
,  // measure 44
1000
0000
0000
0000
,  // measure 45
1000
0000
0000
0000
,  // measure 46
0000
0000
0000
0000
,  // measure 47
0001
0000
0000
0000
,  // measure 48
0000
0000
0000
0000
,  // measure 49
1001
0000
0000
0000
,  // measure 50
0000
0000
0000
0000
,  // measure 51
0001
0000
0000
0000
,  // measure 52
0001
0000
0000
0000
,  // measure 53
0001
0000
0000
0000
,  // measure 54
0000
0000
0000
0000
,  // measure 55
1000
0000
0000
0000
,  // measure 56
0000
0000
0000
0000
,  // measure 57
1000
0000
0000
0000
,  // measure 58
0000
0000
0000
0000
,  // measure 59
0100
0000
0000
0000
,  // measure 60
0000
0000
0000
0000
,  // measure 61
0100
0000
0000
0000
,  // measure 62
0000
0000
0000
0000
,  // measure 63
0010
0000
0000
0000
,  // measure 64
0000
0000
0000
0000
,  // measure 65
0010
0000
0000
0000
,  // measure 66
0000
0000
0000
0000
,  // measure 67
0001
0000
0000
0000
,  // measure 68
0000
0000
0000
0000
,  // measure 69
0001
0000
0000
0000
,  // measure 70
0000
0000
0000
0000
,  // measure 71
1001
0000
0000
0000
,  // measure 72
0000
0000
0000
0000
,  // measure 73
0001
0000
0000
0000
,  // measure 74
0000
0000
0000
0000
,  // measure 75
0010
0000
0000
0000
,  // measure 76
0000
0000
0000
0000
,  // measure 77
0001
0000
0000
0000
,  // measure 78
0000
0000
0000
0000
,  // measure 79
0001
0000
0000
0000
,  // measure 80
0000
0000
0000
0000
,  // measure 81
1000
0000
0000
0000
,  // measure 82
0000
0000
0000
0000
,  // measure 83
0100
0000
0000
0000
,  // measure 84
0000
0000
0000
0000
,  // measure 85
1000
0000
0000
0000
,  // measure 86
0000
0000
0000
0000
,  // measure 87
1000
0000
0000
0000
,  // measure 88
0000
0000
0000
0000
,  // measure 89
1001
0000
0000
0000
,  // measure 90
0000
0000
0000
0000
,  // measure 91
0010
0000
0000
0000
,  // measure 92
0000
0000
0000
0000
,  // measure 93
0010
0000
0000
0000
,  // measure 94
0000
0000
0000
0000
,  // measure 95
0010
0000
0000
0000
,  // measure 96
0000
0000
0000
0000
,  // measure 97
0100
0000
0000
0000
,  // measure 98
0000
0000
0000
0000
,  // measure 99
0100
0000
0000
0000
,  // measure 100
0000
0000
0000
0000
,  // measure 101
0100
0000
0000
0000
,  // measure 102
0000
0000
0000
0000
,  // measure 103
0100
0000
0000
0000
,  // measure 104
0000
0000
0000
0000
,  // measure 105
1001
0000
0000
0000
,  // measure 106
0000
0000
0000
0000
,  // measure 107
0001
0000
0000
0000
,  // measure 108
0000
0000
0000
0000
,  // measure 109
0001
0000
0000
0000
,  // measure 110
0000
0000
0000
0000
,  // measure 111
1000
0000
0000
0000
,  // measure 112
0000
0000
0000
0000
,  // measure 113
1001
0000
0000
0000
,  // measure 114
0000
0000
0000
0000
,  // measure 115
1000
0000
0000
0000
,  // measure 116
0000
0000
0000
0000
,  // measure 117
0001
0000
0000
0000
,  // measure 118
0000
0000
0000
0000
,  // measure 119
0001
0000
0000
0000
,  // measure 120
0000
0000
0000
0000
,  // measure 121
0100
0000
0000
0000
,  // measure 122
0000
0000
0000
0000
,  // measure 123
0100
0000
0000
0000
,  // measure 124
0000
0000
0000
0000
,  // measure 125
0100
0000
0000
0000
,  // measure 126
0000
0000
0000
0000
,  // measure 127
0110
0000
0000
0000
,  // measure 128
0000
0000
0000
0000
,  // measure 129
1001
0000
0000
0000
,  // measure 130
0000
0000
0000
0000
,  // measure 131
0001
0000
0000
0000
,  // measure 132
0000
0000
0000
0000
,  // measure 133
1000
0000
0000
0000
,  // measure 134
0000
0000
0000
0000
,  // measure 135
0001
0000
0000
0000
,  // measure 136
0000
0000
0000
0000
,  // measure 137
0001
0000
0000
0000
,  // measure 138
0000
0000
0000
0000
,  // measure 139
1001
0000
0000
0000
;
