#TITLE:KOUYOU;
#SUBTITLE:;
#ARTIST:youhei;
#TITLETRANSLIT:;
#SUBTITLETRANSLIT:;
#ARTISTTRANSLIT:;
#CREDIT:DMAxel;
#BANNER:KOUYOU.png;
#BACKGROUND:KOUYOU-bg.png;
#LYRICSPATH:;
#CDTITLE:beatmania.png;
#MUSIC:KOUYOU.mp3;
#OFFSET:-6.160;
#SAMPLESTART:6.192;
#SAMPLELENGTH:12.000;
#SELECTABLE:YES;
#BPMS:0.000=118.550;
#STOPS:;
#BGCHANGES:;

//---------------dance-single - ----------------
#NOTES:
     dance-single:
     :
     Easy:
     1:
     0.095,0.108,0.074,0.037,0.000: // measure 1
1000
0000
0000
1000
,  // measure 2
0000
0000
1000
0000
,  // measure 3
0000
0001
0000
0000
,  // measure 4
0001
0000
0000
0010
,  // measure 5
0000
0000
0100
0000
,  // measure 6
0000
1000
0000
0000
,  // measure 7
0001
0000
0000
1000
,  // measure 8
0000
0000
0100
0000
,  // measure 9
0000
0010
0000
0000
,  // measure 10
0001
0000
0000
1000
,  // measure 11
0000
0000
0001
0000
,  // measure 12
0000
1000
0000
0000
,  // measure 13
1000
0000
0000
0000
,  // measure 14
0000
0000
1001
0000
,  // measure 15
0000
0010
0000
0000
,  // measure 16
1001
0000
0000
0100
,  // measure 17
0000
0000
1001
0000
,  // measure 18
0000
0010
0000
0000
,  // measure 19
1001
0000
0000
0100
,  // measure 20
0000
0000
1000
0000
,  // measure 21
0000
0001
0000
0000
,  // measure 22
1000
0000
0000
0001
,  // measure 23
0000
0000
0100
0000
,  // measure 24
0000
0010
0000
0000
,  // measure 25
0100
0000
0000
0001
,  // measure 26
0000
0000
0000
0000
,  // measure 27
0000
1000
0000
0000
,  // measure 28
1001
0000
0000
0001
,  // measure 29
0000
0000
1000
0000
,  // measure 30
0000
0001
0000
0000
,  // measure 31
0110
0000
0000
0100
,  // measure 32
0000
0000
0001
0000
,  // measure 33
0000
1000
0000
0000
,  // measure 34
0002
0000
0000
2003
,  // measure 35
0000
0000
3002
0000
,  // measure 36
0000
0003
0000
0000
;

//---------------dance-single - ----------------
#NOTES:
     dance-single:
     :
     Medium:
     4:
     0.294,0.324,0.209,0.221,0.000: // measure 1
0001
0001
0100
1000
,  // measure 2
1000
0000
0010
0100
0020
0000
0000
0000
,  // measure 3
1030
0001
1000
0001
,  // measure 4
0200
0000
0000
0010
0000
0000
0310
0000
,  // measure 5
0000
0000
0100
0010
0200
0000
0000
0000
,  // measure 6
0301
1000
0001
1000
,  // measure 7
0020
0000
0000
0130
,  // measure 8
0000
0000
1000
0100
0002
0000
0000
0000
,  // measure 9
1003
0100
0010
0001
,  // measure 10
2000
0000
0000
0001
0000
0000
3001
0000
,  // measure 11
0000
0000
0100
0001
0020
0000
0000
0031
,  // measure 12
1000
0100
0010
0001
,  // measure 13
0020
0000
0030
1001
,  // measure 14
0000
0000
1001
0100
,  // measure 15
0100
1000
0001
0000
0011
0000
0011
0000
,  // measure 16
1001
0000
0010
0000
0010
0001
2000
0000
,  // measure 17
0100
3100
1001
0010
,  // measure 18
0010
0001
1000
0000
1100
0000
1100
0000
,  // measure 19
1001
0000
0010
0000
0010
1000
0002
0000
,  // measure 20
0010
0000
0013
0000
1001
0000
0100
0001
,  // measure 21
0100
0001
1000
0000
1001
0000
1001
0000
,  // measure 22
1001
0000
0010
1000
0010
1000
0002
0000
,  // measure 23
1000
0000
1003
0000
1001
0000
0010
1000
,  // measure 24
0010
1000
0001
0000
1000
0000
1001
0000
,  // measure 25
0020
0000
0000
0032
0000
0000
2003
0000
,  // measure 26
0000
0000
3001
0010
0200
0000
0000
0000
,  // measure 27
0000
0000
0310
0000
0000
0010
0000
0000
,  // measure 28
0110
0010
1000
0100
,  // measure 29
0001
0010
1000
0100
,  // measure 30
0001
1000
0000
0000
,  // measure 31
0110
0100
0001
0010
,  // measure 32
1000
0100
0001
0010
,  // measure 33
1000
0001
0000
0000
,  // measure 34
1000
0100
0020
0000
0000
0000
0031
0010
,  // measure 35
0200
0000
0000
0000
1300
0100
0020
0000
,  // measure 36
0000
0030
0000
0000
;

//---------------dance-single - ----------------
#NOTES:
     dance-single:
     :
     Hard:
     6:
     0.389,0.368,0.221,0.209,0.000: // measure 1
1000
0010
1000
0000
0001
0001
1000
0010
,  // measure 2
1000
0000
0100
0010
0002
0000
1000
0000
,  // measure 3
1003
0200
0001
0001
,  // measure 4
0302
0000
0000
1000
0000
1003
0001
0000
,  // measure 5
0001
0000
0010
0100
2000
0000
0001
0000
,  // measure 6
3001
0020
1000
1000
,  // measure 7
1030
0000
0010
0100
0010
0000
1000
0100
,  // measure 8
0010
0000
0001
0010
0200
0000
1000
0000
,  // measure 9
1300
2000
0001
0001
,  // measure 10
3002
0000
0000
1000
0000
1003
0001
0000
,  // measure 11
0001
0000
0010
0100
2000
0000
0000
0001
,  // measure 12
3001
2002
0000
3003
,  // measure 13
0010
0001
0010
0000
0001
0010
0220
0000
,  // measure 14
0000
0000
0330
0000
1001
0000
1000
0001
,  // measure 15
0010
0100
1100
0000
0010
0000
0010
0000
,  // measure 16
1001
0000
0001
0100
0001
1000
0020
0000
,  // measure 17
0100
0000
0130
0000
1001
0000
0001
1000
,  // measure 18
0100
0010
0011
0000
0100
0000
0100
0000
,  // measure 19
1001
0000
1000
0010
1000
0001
0200
0000
,  // measure 20
0010
0000
0310
0000
1001
0000
0001
0100
,  // measure 21
0001
1000
1100
0000
0011
0000
0011
0000
,  // measure 22
1001
0000
0001
0010
0001
1000
0020
0000
,  // measure 23
0100
0000
0130
0000
1001
0000
1000
0100
,  // measure 24
1000
0001
0100
0000
0100
0000
0100
0001
,  // measure 25
1000
0000
0100
1000
0001
0000
1001
0000
,  // measure 26
0001
0000
0100
0001
2000
0000
0010
0000
,  // measure 27
3010
0000
1010
0000
0000
0010
0000
0000
,  // measure 28
1001
0001
1000
0100
0010
0000
0001
0100
,  // measure 29
0001
0100
0010
1000
0001
0001
1000
0010
,  // measure 30
1000
0100
0010
0000
0000
0000
0000
0000
,  // measure 31
1001
1000
0001
0010
0000
0100
1000
0010
,  // measure 32
1000
0010
0100
0001
1000
1000
0001
0100
,  // measure 33
0001
0010
0100
0000
0000
1000
0000
1000
,  // measure 34
0001
0010
0100
0000
1000
0100
1000
0001
,  // measure 35
0100
0001
0100
0001
0010
0100
1000
0100
,  // measure 36
1000
0010
0100
0000
0000
0000
0000
0000
;

//---------------dance-single - ----------------
#NOTES:
     dance-single:
     :
     Beginner:
     1:
     0.054,0.081,0.025,0.000,0.000: // measure 1
1000
0000
0000
0000
,  // measure 2
0000
0000
0001
0000
,  // measure 3
0000
0000
0000
0000
,  // measure 4
1000
0000
0000
0001
,  // measure 5
0000
0000
0000
0000
,  // measure 6
0000
0000
0000
0000
,  // measure 7
0100
0000
0000
0010
,  // measure 8
0000
0000
0100
0000
,  // measure 9
0000
0000
0000
0000
,  // measure 10
0001
0000
0000
1000
,  // measure 11
0000
0000
1000
0000
,  // measure 12
0000
1001
0000
0000
,  // measure 13
0010
0000
0000
0000
,  // measure 14
0000
0000
0010
0000
,  // measure 15
0000
0000
0000
0000
,  // measure 16
0100
0000
0000
0000
,  // measure 17
0000
0000
0100
0000
,  // measure 18
0000
0000
0000
0000
,  // measure 19
0010
0000
0000
0000
,  // measure 20
0000
0000
0010
0000
,  // measure 21
0000
0000
0000
0000
,  // measure 22
0100
0000
0000
0100
,  // measure 23
0000
0000
0100
0000
,  // measure 24
0000
0000
0000
0000
,  // measure 25
0001
0000
0000
1001
,  // measure 26
0000
0000
1000
0000
,  // measure 27
0000
1000
0000
0000
,  // measure 28
0001
0000
0000
0000
,  // measure 29
0000
0000
0001
0000
,  // measure 30
0000
0000
0000
0000
,  // measure 31
1000
0000
0000
0000
,  // measure 32
0000
0000
0010
0000
,  // measure 33
0000
0000
0000
0000
,  // measure 34
0010
0000
0000
0000
;
