#TITLE:コイノチカラ;
#SUBTITLE:;
#ARTIST:石阪久美子;
#TITLETRANSLIT:KOI NO CHIKARA;
#SUBTITLETRANSLIT:;
#ARTISTTRANSLIT:KUMIKO ISHIZAKA;
#CREDIT:DMAxel;
#BANNER:KOI NO CHIKARA.png;
#BACKGROUND:KOI NO CHIKARA-bg.png;
#LYRICSPATH:;
#CDTITLE:jubeat.png;
#MUSIC:KOI NO CHIKARA.mp3;
#OFFSET:-7.580;
#SAMPLESTART:25.334;
#SAMPLELENGTH:12.000;
#SELECTABLE:YES;
#BPMS:0.000=162.000,204.000=81.000,228.000=162.000;
#STOPS:228.000=0.370
;
#BGCHANGES:;

//---------------dance-single - ----------------
#NOTES:
     dance-single:
     :
     Hard:
     8:
     0.541,0.755,0.167,0.158,0.104: // measure 1
0002
0000
0000
1003
0020
0000
0000
0130
,  // measure 2
0002
0000
1000
0000
0000
1003
0100
1000
,  // measure 3
0001
0100
0000
0001
0000
1000
0100
0010
,  // measure 4
0001
1000
0100
0000
0000
1100
0000
1000
,  // measure 5
0001
0010
0001
0010
0001
1000
0100
0010
,  // measure 6
0001
0010
0100
1000
0100
0000
0000
0000
,  // measure 7
1001
0000
1000
0010
0100
0000
0010
0100
,  // measure 8
0010
0000
1000
0100
0010
0001
1000
0000
,  // measure 9
1000
0100
1000
0100
1000
0001
0010
0100
,  // measure 10
1000
0100
0010
0001
0010
0000
0000
0000
,  // measure 11
1001
0000
0001
0100
0010
0000
0100
0010
,  // measure 12
1000
1000
0000
0001
0000
1000
0000
0000
,  // measure 13
1002
0010
0010
0010
,  // measure 14
0203
0010
0010
0010
,  // measure 15
0320
1000
1000
1000
,  // measure 16
1030
0010
1000
0000
1100
0000
1001
0000
,  // measure 17
2001
0100
0100
0100
,  // measure 18
3020
0100
0100
0100
,  // measure 19
0230
0001
0001
0001
,  // measure 20
0301
0100
0001
0000
0011
0000
1001
0000
,  // measure 21
1000
0010
1000
0010
1000
0001
0010
0100
,  // measure 22
1000
0001
0010
0100
1000
0000
1010
0000
,  // measure 23
0110
0000
0001
0100
1000
0000
0001
0100
,  // measure 24
0001
0000
1000
0100
1000
0001
0100
0000
,  // measure 25
0001
0100
0001
0100
0001
1000
0100
0010
,  // measure 26
0001
1000
0100
0010
0001
0000
0011
0000
,  // measure 27
0110
0000
1000
0100
0001
0000
0100
0010
,  // measure 28
1000
1000
0000
0001
0000
1000
0000
0000
,  // measure 29
0010
0010
0010
0000
0100
0100
0000
0000
,  // measure 30
0001
0100
0010
1000
0000
0100
0010
0000
,  // measure 31
0001
0100
0010
1000
0000
0100
0010
0001
,  // measure 32
1000
0010
0100
0001
0000
0010
0100
0000
,  // measure 33
1000
0010
0100
0001
0010
0100
1000
0000
,  // measure 34
0001
0100
0001
0100
0010
1000
0100
0000
,  // measure 35
0010
0001
0100
0010
1000
0100
1000
0000
,  // measure 36
1000
0010
1000
0010
0100
0001
0010
0100
,  // measure 37
1000
0000
0000
0010
0100
0001
1001
0000
,  // measure 38
1020
1000
1000
1030
,  // measure 39
0201
0001
0001
0301
,  // measure 40
1200
1000
1000
1000
,  // measure 41
1300
0100
1000
0000
1010
0000
1001
0000
,  // measure 42
0001
0100
0010
2000
0000
0100
0000
0000
,  // measure 43
3001
0010
0001
1000
0010
1000
0100
1000
,  // measure 44
0001
0001
0100
0010
1000
0100
0010
0001
,  // measure 45
1000
1000
0010
0200
0000
0000
0000
0000
,  // measure 46
0301
0010
0001
0010
0001
1000
0100
0010
,  // measure 47
0200
1000
0001
1300
,  // measure 48
1000
0100
1000
0100
1000
0001
0010
0100
,  // measure 49
1000
0010
0100
0000
0010
0100
0010
0000
,  // measure 50
1000
0100
0010
0001
0100
0000
0000
0000
,  // measure 51
0001
0010
0001
0010
0001
1000
0100
0010
,  // measure 52
0001
0100
0020
0000
1000
0000
0000
0000
1030
0100
0010
0001
1000
0000
0000
0000
,  // measure 53
1000
0010
1000
0010
1000
0001
0010
0100
1000
0001
0100
0001
0100
0001
0010
0100
,  // measure 54
1000
0010
0200
0000
0001
0000
0000
0000
0301
0010
0100
1000
0001
0000
0000
0000
,  // measure 55
0001
0100
0001
0100
0020
0000
0000
0000
1000
0000
0000
0000
0001
0000
0000
0000
,  // measure 56
1030
0100
0010
0001
1000
0010
0100
0001
0020
0000
0000
0000
0000
0000
0000
0000
,  // measure 57
0031
0010
0100
1000
0001
0100
0010
0000
0000
1000
0100
0010
0001
0000
0000
0000
,  // measure 58
1000
0000
0000
0000
0000
0000
0001
0100
,  // measure 59
0001
0100
0001
1000
0100
1000
0010
0100
,  // measure 60
0001
0010
0001
0000
0001
1000
0001
0010
,  // measure 61
0001
0100
0000
0010
1000
0100
1000
0010
,  // measure 62
0100
0001
0010
0000
0010
0000
0001
1000
,  // measure 63
0001
1000
0100
0010
0000
0100
1000
0001
,  // measure 64
1000
0000
1000
0000
0100
0010
0001
0010
,  // measure 65
0100
1000
0001
0000
1000
0000
0001
1000
,  // measure 66
0100
1000
0001
0100
0000
0001
1000
0100
,  // measure 67
0000
1000
0100
1000
0001
1001
0000
0000
,  // measure 68
0001
1000
0000
0000
0000
0000
0000
0000
;

//---------------dance-single - ----------------
#NOTES:
     dance-single:
     :
     Challenge:
     9:
     0.652,0.867,0.092,0.000,0.237:
1000
0100
1000
0001
0100
0010
0000
0100
,
0001
0000
0010
0000
0001
0000
1000
0000
0010
0000
0100
0000
0010
0100
0010
0000
,
1000
0001
0000
0001
0000
0001
0010
0100
,
1000
0000
0001
0000
0100
0000
0010
0000
0000
0000
0100
0010
0100
0000
0001
0000
,
1000
0001
0010
0001
0010
0001
0010
1000
,
0010
0001
0010
0100
1000
0001
0100
1000
,
0001
0000
0100
0001
1000
0100
0000
0010
,
0100
1000
0001
0100
0101
0000
1001
0000
,
0001
1000
0100
1000
0100
1000
0100
0001
,
0100
1000
0100
0010
0001
1000
0100
0001
,
1000
0000
0010
1000
0001
0010
0000
0001
,
0100
0110
0000
0110
0000
0100
0001
1000
,
0010
0100
0010
0100
0000
0010
0100
0001
,
0100
0010
0100
0010
0000
0100
0010
1000
,
0010
0100
0010
0100
0000
0010
0100
0001
,
1000
0100
1000
0100
1000
0001
0100
0000
,
0010
0000
0100
0000
0010
0100
0010
0000
1000
0000
0001
0000
0000
0000
0001
0000
,
1000
0100
1000
0010
0100
0001
0010
0001
,
0000
0000
1000
0000
0010
0000
0100
0010
0100
0000
0001
0000
0010
0000
0001
0000
,
1000
0010
0100
0001
0010
0100
1000
0000
,
0001
1000
0010
1000
0010
1000
0010
0001
,
0010
1000
0100
0010
0001
1000
0010
0001
,
1000
0000
0100
0010
0001
1000
0000
0010
,
1000
0000
0001
0000
0100
0000
0010
0000
0100
0010
0100
0000
0001
0000
0001
0000
,
1000
0001
0100
0001
0100
0001
0100
1000
,
0100
0001
0010
0100
1000
0001
0100
1000
,
0001
0000
0010
0100
1000
0010
0010
1000
,
0010
0000
0100
0000
0001
0000
0100
0000
0010
0000
0100
0010
0100
0000
0001
0000
,
1000
1000
1000
0000
0001
0001
0000
0000
,
1000
0100
0010
0100
0000
1000
0100
0001
,
0000
0010
0100
1000
0000
0010
0100
0001
,
1000
0100
0010
0001
0000
0001
1000
0000
,
1000
0000
0010
0000
0100
0000
0001
0000
0100
0010
0100
0000
0010
0000
0100
0000
,
0001
0010
0100
1000
0100
0010
0001
0000
,
0010
0100
1000
0100
0001
0100
1000
0100
,
0000
0010
0001
0010
1000
0010
0001
0010
,
0100
0000
1000
0000
0010
0000
0100
0000
0000
0000
0010
0100
0010
0000
1000
0000
,
0001
0010
0001
1000
0000
1000
0010
0010
,
1000
0100
1000
0001
0010
0100
1000
0001
,
1000
0100
1000
0001
0000
0001
0100
0100
,
0001
0000
0010
0000
0001
0000
1000
0000
0010
1000
0010
1000
0010
0000
0000
0000
,
1000
0100
0010
0100
0000
1000
0001
0000
,
0100
0001
0100
0000
0001
0000
0001
0000
1000
0100
1000
0000
0001
0000
0001
0000
,
1000
0000
0100
0000
0010
0000
0001
1000
0001
0000
0010
0000
0001
0000
0010
0000
,
0001
0000
1000
0001
1000
0000
0010
0000
0000
0000
0100
0001
0100
0001
0100
0000
,
0001
0010
0100
1000
0100
0001
0100
1000
,
0001
0010
1000
0010
0100
1000
0001
0000
,
1000
0000
0010
0000
1000
0000
0010
0000
1000
0000
0010
1000
0001
0000
1000
0001
,
1000
0100
0010
0001
0100
0010
0000
1000
,
0100
0001
0100
0010
0001
1000
0000
0000
,
0001
0000
0100
0000
0001
0000
0100
0000
0001
0100
0001
1000
0000
0000
0000
0000
,
0001
0010
0001
1000
1010
0000
0010
0000
0010
1000
0001
0010
0011
0000
0010
0000
,
0010
0001
0010
0001
1000
0100
0001
0100
1000
0100
1000
0001
0010
1000
0010
0001
,
1000
0010
1000
0001
0011
0000
0010
0000
0010
0001
1000
0010
1010
0000
0010
0000
,
0010
1000
0001
0000
0100
0010
0100
0001
1000
0000
1010
0000
0010
0000
0110
0000
,
0001
0010
0100
1000
0100
0001
0100
1000
0000
0100
0010
0001
0010
1000
0010
0001
,
1000
0100
0010
0001
0010
1000
0010
0000
0000
0001
0100
0010
1000
0000
0000
0000
,
0001
0000
0000
0000
1000
0010
1000
0010
1000
0010
1000
0000
0001
0000
0010
0000
,
0100
1000
0010
0100
0010
1000
0100
0001
,
1000
0100
1000
0001
0000
1000
0001
0010
,
0100
1000
0000
0010
1000
0100
0010
0001
,
1000
0000
0010
0000
0100
0000
0010
0100
0010
0000
0000
0000
1000
0000
0100
0000
,
0010
0001
0010
1000
0000
0010
0100
0001
,
1000
0100
0000
0010
0100
1000
0001
0010
,
0100
1000
0001
0100
0000
0010
0100
0001
,
0010
0000
0001
0000
1000
0000
0010
0100
0010
0000
0100
0000
0010
0000
1000
0000
,
0000
0100
0010
0001
1000
1100
0000
0000
,
0001
1000
0000
0000
0000
0000
0000
0000
;

//---------------dance-single - ----------------
#NOTES:
     dance-single:
     :
     Medium:
     6:
     0.451,0.586,0.158,0.058,0.050: // measure 1
0100
0000
0100
0010
0100
0000
0010
0100
,  // measure 2
0010
0000
1000
0000
0001
0010
0001
0000
,  // measure 3
1000
0010
0000
1000
0000
0010
1000
0000
,  // measure 4
0001
0011
1000
0001
,  // measure 5
1000
0000
1000
0100
1000
0000
0001
0100
,  // measure 6
0001
0000
0001
0000
1000
0100
0010
0001
,  // measure 7
1000
1000
0001
0001
,  // measure 8
1000
0000
1000
0000
0010
0100
0010
0000
,  // measure 9
1000
0010
1000
0000
0001
0010
0001
0000
,  // measure 10
1000
0001
1000
0000
0001
0010
0100
0000
,  // measure 11
1000
0000
1000
0001
1000
0000
0001
0000
,  // measure 12
0001
0100
0000
0100
0000
0100
0000
0000
,  // measure 13
1001
0100
0010
0001
,  // measure 14
0010
0100
1000
0100
,  // measure 15
0010
0001
0100
0010
,  // measure 16
1000
1000
0001
1001
,  // measure 17
1001
0010
0100
1000
,  // measure 18
0100
0010
0001
0010
,  // measure 19
0100
1000
0010
0100
,  // measure 20
0001
1000
1001
1001
,  // measure 21
0001
0100
0001
0000
0001
0000
1000
0010
,  // measure 22
1000
0000
1000
0000
0001
0010
0100
1000
,  // measure 23
0001
0000
0001
0010
0001
0000
0100
0001
,  // measure 24
0100
0000
0010
1000
0010
1000
0001
0000
,  // measure 25
1000
0010
1000
0000
1000
0000
0001
0010
,  // measure 26
0001
0000
0001
0000
1000
0100
0010
0001
,  // measure 27
1000
0000
0001
0010
0001
0000
0001
0000
,  // measure 28
1000
0010
0000
0010
0000
0010
0000
0000
,  // measure 29
0110
0000
0110
0000
0001
1000
0000
0000
,  // measure 30
0002
0100
0100
0103
,  // measure 31
2000
0010
0010
3010
,  // measure 32
0002
1000
1000
1000
,  // measure 33
1000
0000
1003
0000
0010
0100
0010
1000
,  // measure 34
0002
0010
0010
0013
,  // measure 35
2000
0100
0100
3100
,  // measure 36
2000
0001
0001
0001
,  // measure 37
0001
0000
3001
0000
0100
0010
0100
0000
,  // measure 38
1001
0010
0100
0001
,  // measure 39
1000
0100
0010
0001
,  // measure 40
0010
1000
0010
0001
,  // measure 41
0100
0010
0100
0000
0001
0100
0010
0000
,  // measure 42
1001
0100
0010
1000
,  // measure 43
0001
0010
0001
0000
1000
0010
1000
0000
,  // measure 44
1001
0000
1000
0010
0100
0000
0001
0000
,  // measure 45
0010
0100
1000
0001
0000
0000
0000
0000
,  // measure 46
1000
0010
1000
0010
0100
0001
0100
0000
,  // measure 47
0001
2000
0000
0000
0001
0000
3001
0000
,  // measure 48
0001
0010
0001
0010
0100
1000
0100
0000
,  // measure 49
1000
0001
1000
1001
,  // measure 50
1000
0100
0010
0001
1000
0000
0000
0000
,  // measure 51
1000
0100
1000
0100
0010
0001
0010
0000
,  // measure 52
0001
0001
1001
0000
1000
0100
0010
0000
,  // measure 53
0001
0010
0001
0010
0001
0000
0001
0000
1000
0100
1000
0100
1000
0000
1000
0000
,  // measure 54
0001
0100
0110
0000
1000
0010
0110
0000
,  // measure 55
0001
1000
0001
0000
0001
0000
1000
0000
,  // measure 56
1000
0100
1000
0000
0001
0010
0001
0000
1000
0010
1000
0000
0001
0100
0001
0000
,  // measure 57
0100
0010
0100
0000
0010
0100
0010
0000
0000
1000
0001
1000
0001
0000
0000
0000
,  // measure 58
0000
0000
0000
0000
0000
0000
1000
0010
,  // measure 59
1000
0010
1000
0000
0001
0000
0011
0000
,  // measure 60
0011
0000
1001
0000
0000
1000
0001
1000
,  // measure 61
0001
1000
0000
0010
0100
0010
0100
0000
,  // measure 62
0010
0000
1000
0000
0001
0000
0001
0100
,  // measure 63
0001
0100
0001
1000
0000
0100
0010
0000
,  // measure 64
0001
0000
1000
0000
0010
0100
0010
0100
,  // measure 65
0001
0010
0001
0000
1000
0000
0001
0000
,  // measure 66
0010
0100
1000
0001
0000
1000
0001
1000
,  // measure 67
0000
0100
0010
0001
1000
1000
0000
0000
,  // measure 68
1001
0000
0000
0000
;

//---------------dance-single - ----------------
#NOTES:
     dance-single:
     :
     Easy:
     3:
     0.264,0.251,0.083,0.158,0.000: // measure 1
0020
0000
0100
0000
,  // measure 2
0130
0000
0001
1000
,  // measure 3
0001
0010
0001
1000
,  // measure 4
0010
0010
0000
0000
,  // measure 5
0100
0010
0100
0000
,  // measure 6
0010
0100
0010
0000
,  // measure 7
1000
0001
1000
0001
,  // measure 8
1000
0001
0100
0000
,  // measure 9
0010
1000
0010
1000
,  // measure 10
0001
1000
0001
0000
,  // measure 11
0100
0010
0100
0000
,  // measure 12
2002
0000
0000
3003
,  // measure 13
0002
0000
1000
0000
,  // measure 14
2003
0000
0001
0000
,  // measure 15
3002
0000
1000
0000
,  // measure 16
2003
0000
3001
0000
,  // measure 17
0210
0000
0010
0000
,  // measure 18
0320
0000
0100
0000
,  // measure 19
0230
0000
0010
0000
,  // measure 20
0320
0000
0130
0000
,  // measure 21
0001
0100
0001
0100
,  // measure 22
0001
1000
0100
0000
,  // measure 23
1000
0100
1000
0100
,  // measure 24
1000
0001
0100
0000
,  // measure 25
0001
0010
0001
0010
,  // measure 26
0001
1000
0010
0000
,  // measure 27
1000
0010
1000
0010
,  // measure 28
1000
0001
0010
0000
,  // measure 29
1001
0000
0110
0000
,  // measure 30
0002
0000
1000
0000
,  // measure 31
2003
0000
0100
0000
,  // measure 32
3200
0000
1000
0000
,  // measure 33
2300
0000
3001
0000
,  // measure 34
2001
0000
0001
0000
,  // measure 35
3002
0000
0010
0000
,  // measure 36
0023
0000
0001
0000
,  // measure 37
0032
0000
1003
0000
,  // measure 38
1000
0010
1000
0010
,  // measure 39
1000
0001
1000
0001
,  // measure 40
0100
0001
0100
0001
,  // measure 41
0100
0000
0100
0010
,  // measure 42
0100
0001
0100
0001
,  // measure 43
1000
0100
1000
0100
,  // measure 44
1000
0001
1000
0001
,  // measure 45
1000
0100
0010
0000
,  // measure 46
0001
0010
0001
1000
,  // measure 47
0100
0010
0001
0000
,  // measure 48
1100
0000
1001
0000
,  // measure 49
1000
0100
1000
0001
,  // measure 50
0010
0100
1000
0000
,  // measure 51
0011
0000
1001
0000
,  // measure 52
1000
1000
0000
0000
,  // measure 53
0001
0001
1000
1000
,  // measure 54
0001
0001
0000
0000
,  // measure 55
0100
0100
0010
0010
,  // measure 56
0100
0100
0100
0000
,  // measure 57
0010
0000
0100
0000
,  // measure 58
0000
0000
0000
0001
,  // measure 59
0100
0001
0010
0100
,  // measure 60
1000
0010
0000
1000
,  // measure 61
0100
1000
0001
0010
,  // measure 62
0100
1000
0000
0001
,  // measure 63
0100
0001
0010
0100
,  // measure 64
1000
0000
0010
1000
,  // measure 65
0100
1000
0000
0010
,  // measure 66
0100
0001
0010
0100
,  // measure 67
0000
1001
0000
0000
,  // measure 68
0010
0000
0000
0000
;

//---------------dance-single - ----------------
#NOTES:
     dance-single:
     :
     Beginner:
     1:
     0.081,0.112,0.008,0.000,0.000: // measure 1
1000
0000
0000
0000
,  // measure 2
0000
0000
0000
0000
,  // measure 3
0001
0000
0000
0000
,  // measure 4
0000
0000
0000
0000
,  // measure 5
1000
0000
0000
0000
,  // measure 6
0000
0000
0000
0000
,  // measure 7
1000
0000
0000
0000
,  // measure 8
0000
0000
0000
0000
,  // measure 9
0001
0000
0000
0000
,  // measure 10
0000
0000
0000
0000
,  // measure 11
0001
0000
0000
0000
,  // measure 12
0000
0000
0000
0000
,  // measure 13
1000
0000
0000
0000
,  // measure 14
0100
0000
0000
0000
,  // measure 15
1000
0000
0000
0000
,  // measure 16
0000
0000
0000
0000
,  // measure 17
0001
0000
0000
0000
,  // measure 18
0100
0000
0000
0000
,  // measure 19
0001
0000
0000
0000
,  // measure 20
0000
0000
0000
0000
,  // measure 21
0001
0000
0000
0000
,  // measure 22
1000
0000
0000
0000
,  // measure 23
0001
0000
0000
0000
,  // measure 24
0001
0000
0000
0000
,  // measure 25
1000
0000
0000
0000
,  // measure 26
0001
0000
0000
0000
,  // measure 27
1000
0000
0000
0000
,  // measure 28
1000
0000
0000
0000
,  // measure 29
1001
0000
0000
0000
,  // measure 30
1000
0000
0000
0000
,  // measure 31
0010
0000
0000
0000
,  // measure 32
1000
0000
0000
0000
,  // measure 33
0000
0000
0000
0000
,  // measure 34
0001
0000
0000
0000
,  // measure 35
0010
0000
0000
0000
,  // measure 36
0001
0000
0000
0000
,  // measure 37
1000
0000
0000
0000
,  // measure 38
0001
0000
0000
0000
,  // measure 39
0100
0000
0000
0000
,  // measure 40
0010
0000
0000
0000
,  // measure 41
0000
0000
0000
0000
,  // measure 42
1000
0000
0000
0000
,  // measure 43
0100
0000
0000
0000
,  // measure 44
0010
0000
0000
0000
,  // measure 45
0000
0000
0000
0000
,  // measure 46
0001
0000
1000
0000
,  // measure 47
0001
0000
0000
0000
,  // measure 48
1000
0000
1000
0000
,  // measure 49
1000
0000
0001
0000
,  // measure 50
1000
0000
0000
0000
,  // measure 51
0001
0000
0001
0000
,  // measure 52
0001
0000
0000
0000
,  // measure 53
1000
0000
0000
0000
,  // measure 54
0001
0000
0000
0000
,  // measure 55
1000
0000
0000
0000
,  // measure 56
0001
0000
0001
0000
,  // measure 57
0001
0000
0001
0000
,  // measure 58
0000
0000
0000
1000
,  // measure 59
0000
0001
0000
1000
,  // measure 60
0000
0000
0000
1000
,  // measure 61
0000
0000
0000
0001
,  // measure 62
0000
0000
0000
0100
,  // measure 63
0000
0010
0000
0100
,  // measure 64
0000
0000
0000
0010
,  // measure 65
0000
0100
0000
0010
,  // measure 66
0000
0100
0000
0010
,  // measure 67
0000
1000
0000
0000
,  // measure 68
0001
0000
0000
0000
;
