#TITLE:KAKATTEKONKAI;
#SUBTITLE:;
#ARTIST:BEBE;
#TITLETRANSLIT:;
#SUBTITLETRANSLIT:;
#ARTISTTRANSLIT:;
#CREDIT:DMAxel;
#BANNER:KAKATTEKONKAI.png;
#BACKGROUND:KAKATTEKONKAI-bg.png;
#LYRICSPATH:;
#CDTITLE:beatmania.png;
#MUSIC:KAKATTEKONKAI.mp3;
#OFFSET:-0.540;
#SAMPLESTART:37.072;
#SAMPLELENGTH:12.000;
#SELECTABLE:YES;
#BPMS:0.000=103.000;
#STOPS:30.000=0.500
;
#BGCHANGES:;

//---------------dance-single - ----------------
#NOTES:
     dance-single:
     :
     Easy:
     2:
     0.129,0.142,0.161,0.000,0.000: // measure 1
0000
0000
0000
0000
,  // measure 2
0000
0000
0000
0000
,  // measure 3
1000
0000
1001
0000
,  // measure 4
0001
0000
1000
0000
,  // measure 5
0001
0000
1001
0000
,  // measure 6
1000
0000
1001
0000
,  // measure 7
0001
0000
0100
0000
,  // measure 8
0010
0000
1001
0000
,  // measure 9
0010
0000
0001
0000
,  // measure 10
0010
0000
0100
0000
,  // measure 11
1000
0000
0100
0000
,  // measure 12
0010
0000
0001
0000
,  // measure 13
0100
0000
1000
0000
,  // measure 14
0100
0000
0010
0000
,  // measure 15
0001
0000
0010
0000
,  // measure 16
0000
0000
0000
1000
,  // measure 17
0100
1000
0000
0001
,  // measure 18
0010
0001
0000
0100
,  // measure 19
0001
0100
0000
0010
,  // measure 20
1000
0010
0000
0100
,  // measure 21
0010
0100
0000
0010
,  // measure 22
0100
0010
0000
1000
,  // measure 23
0001
1000
0000
0001
,  // measure 24
1000
0001
0000
0011
,  // measure 25
0000
0000
0000
1001
,  // measure 26
0000
0000
0000
1100
,  // measure 27
0000
0000
0000
1001
,  // measure 28
0000
0000
0000
0101
,  // measure 29
0000
0000
0000
0110
,  // measure 30
0000
0000
0000
1010
,  // measure 31
0000
0000
0000
0110
,  // measure 32
0000
0000
0000
1001
,  // measure 33
0000
0000
0000
0010
;

//---------------dance-single - ----------------
#NOTES:
     dance-single:
     :
     Challenge:
     8:
     0.500,0.414,0.745,0.000,0.428: // measure 1
0000
0000
0000
0000
,  // measure 2
0000
0000
0000
0000
,  // measure 3
1001
0000
0010
0001
0110
0000
1000
0100
,  // measure 4
1000
0010
0000
0100
0010
0000
0000
0000
0100
0001
0000
0100
0010
0000
0000
0000
,  // measure 5
1001
0010
0001
0010
0110
0000
1000
0000
,  // measure 6
0010
0100
0001
0100
0110
0000
1100
0000
,  // measure 7
0000
0010
0001
0000
0000
0010
0001
0000
0000
1000
0001
0000
1000
0000
0000
0000
,  // measure 8
1010
0000
0000
0000
0100
0001
0000
0000
0110
0000
0000
0000
1001
0000
0000
0011
,  // measure 9
0000
0000
0101
0000
0000
0011
0000
0000
0001
0000
0010
0000
1001
0000
0000
1100
,  // measure 10
0000
0000
1010
0000
0000
1100
0000
0000
1000
0000
0100
0000
1001
0000
0000
0101
,  // measure 11
0000
0000
0011
0000
0000
0101
0000
0000
0001
0000
0100
0000
1001
0000
0000
1010
,  // measure 12
0000
0000
1100
0000
0000
1010
0000
0000
1000
0000
0010
0000
1001
0000
0000
0101
,  // measure 13
0000
0000
0110
0000
0000
0101
0000
0000
0100
0000
0010
0000
1001
0000
0000
1010
,  // measure 14
0000
0000
0110
0000
0000
1010
0000
0000
0010
0000
0100
0000
1001
0000
0010
0001
,  // measure 15
0000
0010
0100
0000
1000
0010
0000
0100
0010
0000
0100
0000
0001
0000
0010
0100
,  // measure 16
0000
0000
1000
0000
0000
0000
0100
0000
0010
0000
0000
0000
0000
0000
0000
0000
0000
1001
0000
0000
0000
0000
0000
0000
0011
0000
0000
0000
0000
0000
0101
0000
,  // measure 17
0000
0000
0010
0000
1000
0000
0010
0000
0100
0000
0000
0000
1100
0000
0000
1010
,  // measure 18
0000
0000
0100
0000
0001
0000
0100
0000
0010
0000
0000
0000
0101
0000
0000
0011
,  // measure 19
0000
0000
0100
0000
1000
0000
0010
0000
0100
0000
0000
0000
1010
0000
0000
1100
,  // measure 20
0000
0000
0010
0000
0000
0001
0100
0010
0100
0000
0010
0000
0101
0000
0000
0110
,  // measure 21
0000
0000
1010
0000
0100
0000
0001
0000
0010
0000
0000
0000
1010
0000
0000
0110
,  // measure 22
0000
0000
0101
0000
0010
0000
1000
0000
0100
0000
0000
0000
0011
0000
0000
0110
,  // measure 23
0000
0000
1100
0000
0010
0000
0001
0000
0100
0000
0000
0000
1100
0000
0000
0110
,  // measure 24
0000
0000
0011
0000
0000
0100
1000
0010
1000
0000
0110
0000
0001
0000
0010
0100
,  // measure 25
0000
0000
1000
0100
0000
1010
0000
0000
0000
0000
0000
0000
1000
0000
0100
0010
,  // measure 26
0000
0000
0001
0010
0000
0101
0000
0000
0000
0000
0000
0000
1010
0000
0100
0010
,  // measure 27
0000
0000
0001
0100
0000
0011
0000
0000
0000
0000
0000
0000
0101
0000
0010
0100
,  // measure 28
0000
0000
1000
0010
0000
1000
0100
0010
0001
0000
0010
0000
0001
0000
0010
0100
,  // measure 29
0000
0000
1000
0100
0000
0100
0010
0000
0001
0000
0001
0000
1000
0000
0100
0010
,  // measure 30
0000
0000
0001
0010
0000
0010
0100
0000
1000
0000
1000
0000
0001
0000
0010
0100
,  // measure 31
0000
0000
1000
0100
0000
0100
0010
0000
0001
0000
0001
0000
1000
0000
0100
0010
,  // measure 32
0000
0000
0001
0000
0010
0000
0001
0000
0010
0000
0100
0000
1000
0000
0010
0100
,  // measure 33
0000
0000
0010
0010
0000
0100
0001
0000
0010
0000
0001
0000
0100
0000
0010
1000
,  // measure 34
0010
0000
0100
0100
0000
0010
0100
0000
0000
0000
0000
0000
0000
0000
0000
0000
;

//---------------dance-single - ----------------
#NOTES:
     dance-single:
     :
     Hard:
     7:
     0.341,0.350,0.149,0.025,0.267: // measure 1
0000
0000
0000
0000
,  // measure 2
0000
0000
0000
0000
,  // measure 3
1001
0000
1100
0000
,  // measure 4
0011
0100
1000
0010
,  // measure 5
0100
0001
0100
0000
0110
0000
1000
0000
,  // measure 6
0010
1000
0010
0000
0110
0000
0001
0000
,  // measure 7
0100
0001
0010
0100
,  // measure 8
1000
0000
0000
0000
0010
0000
0000
0000
0110
0000
0000
0000
1000
0000
0000
0100
,  // measure 9
0000
0000
0010
0000
0000
0100
0000
0000
1000
0000
0100
0000
1000
0000
0000
0100
,  // measure 10
0000
0000
0010
0000
0000
0100
0000
0000
1000
0000
0100
0000
0001
0000
0000
0010
,  // measure 11
0000
0000
0100
0000
0000
0010
0000
0000
0001
0000
0010
0000
0001
0000
0000
0010
,  // measure 12
0000
0000
0100
0000
0000
0010
0000
0000
0001
0000
0100
0000
1000
0000
0000
0010
,  // measure 13
0000
0000
0100
0000
0000
0001
0000
0000
0010
0000
0100
0000
1000
0000
0000
0010
,  // measure 14
0000
0000
0100
0000
0000
0001
0000
0000
0010
0000
0100
0000
1000
0000
0100
1000
,  // measure 15
0000
0100
1000
0000
0001
0010
0000
0001
0010
0000
0001
0000
1000
0000
0020
0000
,  // measure 16
0000
0130
0000
0020
0000
0000
0030
0000
0000
1001
0000
0000
0100
0000
0000
0100
,  // measure 17
0000
0000
0100
0000
0000
0000
1000
0000
0001
0000
0000
0000
0010
0000
0000
0010
,  // measure 18
0000
0000
0010
0000
0000
0000
0001
0000
1000
0000
0000
0000
0100
0000
0000
0100
,  // measure 19
0000
0000
0100
0000
0000
0000
1000
0000
0001
0000
0000
0000
0010
0000
0000
0010
,  // measure 20
0000
0000
0010
0000
0000
0001
0100
0000
0010
0000
0100
0000
0001
0000
0000
0001
,  // measure 21
0000
0000
0001
0000
0000
0000
0010
0000
0100
0000
0000
0000
1000
0000
0000
1000
,  // measure 22
0000
0000
1000
0000
0000
0000
0100
0000
0010
0000
0000
0000
0001
0000
0000
0001
,  // measure 23
0000
0000
0001
0000
0000
0000
0100
0000
0010
0000
0000
0000
1000
0000
0000
1000
,  // measure 24
0000
0000
1000
0000
0000
0010
0100
0000
0001
0000
0100
0000
0010
0000
0100
0010
,  // measure 25
0000
0000
1000
0000
0000
1001
0000
0000
0000
0000
0000
0000
0100
0000
0010
0100
,  // measure 26
0000
0000
0001
0000
0000
1001
0000
0000
0000
0000
0000
0000
0010
0000
0100
0010
,  // measure 27
0000
0000
1000
0000
0000
1001
0000
0000
0000
0000
0000
0000
0100
0000
0010
0100
,  // measure 28
0000
0000
0000
0000
0000
0010
1000
0000
0100
0000
0010
0000
0001
0000
0100
0010
,  // measure 29
0000
0000
0100
0000
0010
0000
0100
0000
0001
0000
0000
0000
0100
0000
0010
0100
,  // measure 30
0000
0000
0010
0000
0100
0000
0001
0000
1000
0000
0000
0000
0010
0000
0100
0010
,  // measure 31
0000
0000
0100
0000
0010
0000
1000
0000
0001
0000
0000
0000
0100
0000
0010
0100
,  // measure 32
0000
0000
0010
0000
0100
0000
0001
0000
0010
0000
0100
0000
1000
0000
0000
0010
,  // measure 33
0000
0000
0110
0000
0000
0000
0001
0000
0010
0000
0001
0000
0100
0000
0000
0010
,  // measure 34
0000
0110
0000
0000
0000
0000
0000
0000
;

//---------------dance-single - ----------------
#NOTES:
     dance-single:
     :
     Beginner:
     1:
     0.057,0.061,0.000,0.000,0.000:
0000
0000
0000
0000
,
0000
0000
0000
0000
,
1000
0000
0000
0000
,
1000
0000
0000
0000
,
0001
0000
0000
0000
,
0001
0000
0000
0000
,
1000
0000
0000
0000
,
0001
0000
0000
0000
,
1000
0000
0000
0000
,
0001
0000
0000
0000
,
1000
0000
0000
0000
,
0001
0000
0000
0000
,
0100
0000
0000
0000
,
0010
0000
0000
0000
,
0100
0000
0000
0010
,
0000
0000
0000
0000
,
0010
0000
0000
0000
,
0100
0000
0000
0000
,
0010
0000
0000
0000
,
1000
0000
0000
0000
,
0010
0000
0000
0000
,
0100
0000
0000
0000
,
0001
0000
0000
0000
,
0010
0000
0000
0000
,
0001
0000
0000
0000
,
1000
0000
0000
0000
,
0100
0000
0000
0000
,
1000
0000
0000
0000
,
0001
0000
0000
0000
,
1000
0000
0000
0000
,
0001
0000
0000
0000
,
0100
0000
0000
0010
,
0000
0000
0000
0010
;

//---------------dance-single - ----------------
#NOTES:
     dance-single:
     :
     Medium:
     5:
     0.293,0.311,0.248,0.099,0.031: // measure 1
0000
0000
0000
0000
,  // measure 2
0000
0000
0000
0000
,  // measure 3
1001
1000
1001
0001
,  // measure 4
0010
0100
1000
0100
,  // measure 5
0010
0001
1001
0010
,  // measure 6
1000
0010
1001
0100
,  // measure 7
0001
0100
0010
0100
,  // measure 8
0010
0000
0010
0000
1001
0000
0010
0001
,  // measure 9
0010
0000
0001
0000
0010
0100
2000
0000
,  // measure 10
0000
0000
3010
0100
0010
0000
1001
0000
,  // measure 11
0100
0000
0010
0000
0001
0010
0100
0000
,  // measure 12
1000
0000
0010
0000
0100
0001
0010
0000
,  // measure 13
0100
0000
1000
0000
0010
1000
0100
0000
,  // measure 14
1000
0000
0000
0000
0010
0000
0000
0000
0100
0000
0001
0000
0010
0000
0000
0001
,  // measure 15
0000
0000
1000
0000
0000
0001
0000
0000
0010
0000
0000
0000
2002
0000
0000
0000
,  // measure 16
0000
3003
0000
0100
,  // measure 17
1000
0000
0100
0000
1000
0001
0010
0000
,  // measure 18
0001
0000
0010
0100
1000
0100
0010
0000
,  // measure 19
0001
0100
0010
0100
,  // measure 20
0001
0000
0010
0100
1000
0010
0200
0000
,  // measure 21
0000
0310
1000
0001
,  // measure 22
0010
0000
0001
0010
0100
0010
0001
0000
,  // measure 23
0010
0100
1000
0010
,  // measure 24
0100
0000
0010
0000
1000
0010
0110
0000
,  // measure 25
0000
0000
1001
0000
0000
0010
0000
0000
0000
0000
0000
0000
1001
0000
0000
0000
,  // measure 26
0000
0000
0110
0000
0000
0010
0000
0000
0000
0000
0000
0000
1100
0000
0000
0000
,  // measure 27
0000
0000
0011
0000
0000
0001
0000
0000
0000
0000
0000
0000
1001
0000
0000
0000
,  // measure 28
0000
0000
0010
0001
0010
0100
1010
0000
,  // measure 29
0100
0000
0001
0000
0010
0000
0110
1000
,  // measure 30
0100
0000
0010
0000
0001
0000
1010
1000
,  // measure 31
0100
0000
0010
0001
0010
0001
0110
1000
,  // measure 32
0010
1000
0010
1000
0010
0000
2002
0000
,  // measure 33
0000
0000
3003
0220
,  // measure 34
0000
0000
0000
0330
0000
0000
0000
0000
;
