#TITLE:Junk plant;
#SUBTITLE:;
#ARTIST:sampling masters AYA;
#TITLETRANSLIT:;
#SUBTITLETRANSLIT:;
#ARTISTTRANSLIT:;
#CREDIT:DMAxel;
#BANNER:Junk plant.png;
#BACKGROUND:Junk plant-bg.png;
#LYRICSPATH:;
#CDTITLE:DMAxel original simfile.png;
#MUSIC:Junk plant.mp3;
#OFFSET:-13.680;
#SAMPLESTART:74.758;
#SAMPLELENGTH:12.000;
#SELECTABLE:YES;
#BPMS:0.000=220.151,32.000=219.258,92.000=235.012,96.000=220.151,192.000=219.003,224.000=220.151,256.000=219.003,288.000=220.151,320.000=219.003,352.000=220.151;
#STOPS:;
#BGCHANGES:-48.000=Junk plant.avi=1.000=1=0=1,
99999=-nosongbg-=1.000=0=0=0 // don't automatically add -songbackground-
;

//---------------dance-single - ----------------
#NOTES:
     dance-single:
     :
     Easy:
     4:
     0.311,0.474,0.150,0.090,0.000:
1001
0000
0000
0000
,
0000
0000
0000
0000
,
1001
0000
0000
0000
,
0000
0000
0000
0000
,
1001
0000
0000
0000
,
0000
0000
0000
0000
,
1001
0000
0000
0000
,
1000
1000
1000
1000
,
0001
0100
0001
0000
,
1000
0100
1000
0000
,
0010
0100
0010
0000
,
1000
0001
1000
0000
,
0010
1000
0010
0000
,
0100
0001
0100
0000
,
0001
1000
0100
0000
,
1001
0000
1001
0000
,
0001
0100
0010
0000
,
0100
0010
1000
0000
,
0001
1000
0001
0000
,
1000
0001
1000
0000
,
0100
1000
0001
0000
,
0100
0001
1000
0000
,
0010
1000
0001
0000
,
0100
0000
0000
0000
0100
0010
0100
0010
,
0001
0200
0000
0001
,
0000
1300
0000
0000
,
1000
0200
0000
0001
,
0000
0301
0000
0000
,
0001
0200
0000
1000
,
0000
0301
0000
0000
,
2002
0000
0000
3003
,
0001
0000
0001
1000
0001
1000
0001
1000
,
0001
0000
0000
0000
,
0000
0000
0000
0000
,
1000
0000
0000
0000
,
0000
0000
0000
0000
,
1001
0000
0000
0000
,
0000
0000
0001
0001
,
1001
0000
0000
0000
,
0000
0000
0000
0000
,
0100
0000
0010
0000
,
0100
0000
0010
0000
,
1000
0000
0001
0000
,
1000
0000
0001
0000
,
0100
0000
0010
0000
,
0100
0000
0010
0000
,
1000
0000
0100
0000
,
0010
0000
0001
0000
,
1000
1000
1000
0000
,
0001
0001
0001
0000
,
1000
1000
1000
0000
,
0001
0001
0001
0000
,
0100
0100
0100
0000
,
0010
0010
0010
0100
,
0001
0001
0001
0000
,
1000
1000
1000
0000
,
0010
1000
0010
1000
,
0001
1000
0001
1000
,
0001
0100
0001
0100
,
0010
0100
0010
1000
,
0001
0010
0001
0010
,
0001
1000
0001
1000
,
0100
1000
0100
1000
,
0010
0000
0000
0000
,
1000
0001
1000
0000
,
0001
1000
0001
0000
,
1000
0001
1000
0000
,
0001
1000
0001
0000
,
0100
0010
0100
0000
,
0010
0100
0010
0000
,
0100
0010
0100
0000
,
0010
0100
0010
0000
,
1000
0000
0001
0000
,
1001
0000
0000
0000
,
0001
0000
1000
0000
,
1001
0000
0000
0000
,
1000
0000
0001
0000
,
1001
0000
0000
0000
,
0001
0000
1000
0000
,
1001
0000
0000
0000
,
0220
0000
0000
0000
,
0000
0000
0000
0330
,
0002
0000
0000
0000
,
0003
0000
0000
0101
,
2002
0000
0000
0000
,
0000
0000
0000
3003
,
0200
0000
0000
0000
,
0000
0000
0300
1100
,
1001
0001
1000
0001
,
1000
0010
1000
0010
,
0100
0001
0100
0001
,
1000
0100
1000
1001
,
0001
0100
0001
0100
,
0010
0100
0010
1000
,
0001
0100
0010
1000
,
0001
0000
0000
0000
,
1000
0100
0010
0001
,
0100
0010
0100
0001
,
1000
0100
1000
0001
,
0100
0001
1000
1001
,
0001
0100
0001
0100
,
0010
1000
0010
1000
,
0100
1000
0100
1000
,
0001
0010
0100
1000
,
0002
0000
0000
0000
,
0003
0000
0000
0000
;

//---------------dance-single - ----------------
#NOTES:
     dance-single:
     :
     Challenge:
     8:
     0.651,0.711,0.451,0.323,0.000: // measure 1
0220
0000
0000
0000
,  // measure 2
0000
0000
0000
0330
,  // measure 3
0202
0000
0000
0000
,  // measure 4
0000
0000
0000
0303
,  // measure 5
2020
0000
0000
0000
,  // measure 6
0000
0000
0000
3030
,  // measure 7
2002
0000
0000
3003
,  // measure 8
1000
0000
1000
0000
1000
0001
1000
0001
,  // measure 9
1000
0000
0001
0100
0001
1000
0100
0000
,  // measure 10
1000
0000
1000
0100
1000
0001
0100
0000
,  // measure 11
0001
0000
0001
0010
0001
1000
0010
0000
,  // measure 12
1000
0000
1000
0010
1000
0001
0010
0000
,  // measure 13
0001
0000
0001
1000
0001
1000
0010
0000
,  // measure 14
1000
0000
1000
0001
1000
0001
0100
0000
,  // measure 15
0001
0000
0001
1000
0001
1000
0010
0000
,  // measure 16
1001
1001
0110
0110
,  // measure 17
0001
0010
0100
0000
0010
0001
1000
0000
,  // measure 18
1000
0100
0010
0000
0100
1000
0001
0000
,  // measure 19
0001
0010
0100
0000
0010
0001
1000
0000
,  // measure 20
1000
0100
0010
0000
0100
1000
0001
0000
,  // measure 21
0100
0010
0100
0000
0101
0000
0101
0000
,  // measure 22
0100
0001
1000
0000
1010
0000
1010
0000
,  // measure 23
0010
1000
0001
0000
1001
0000
1001
0000
,  // measure 24
2000
0000
0000
0000
3010
0100
0010
0100
,  // measure 25
0010
0000
1000
0100
0001
0000
0100
1000
,  // measure 26
0001
0010
0100
1000
0001
0000
1001
0000
,  // measure 27
1000
0000
0001
0100
1000
0000
0100
0001
,  // measure 28
1000
0100
0010
0001
1000
0000
1001
0000
,  // measure 29
0001
0000
1000
0100
0001
0000
0100
1000
,  // measure 30
0001
0100
0010
1000
0001
0000
1001
0000
,  // measure 31
0220
0000
0000
0330
,  // measure 32
0010
0000
0010
0100
0010
1000
0010
0100
,  // measure 33
0002
0000
0000
0000
,  // measure 34
0000
0000
0000
0003
,  // measure 35
0200
0000
0000
0000
,  // measure 36
0000
0000
0000
0300
,  // measure 37
2002
0000
0000
0000
,  // measure 38
0000
3003
0110
0110
,  // measure 39
2002
0000
0000
0000
,  // measure 40
0000
3003
0100
0100
,  // measure 41
1001
0000
0001
0010
0002
0000
0100
0000
,  // measure 42
1003
0000
1000
0100
1000
0000
1100
0000
,  // measure 43
1001
0000
0001
0100
0002
0000
0100
0000
,  // measure 44
1003
0000
1000
0010
1000
0000
1010
0000
,  // measure 45
1001
0000
0001
0010
0002
0000
0100
0000
,  // measure 46
1003
0000
1000
0100
1000
0000
1100
0000
,  // measure 47
1001
0000
0001
0100
0001
0000
1000
0000
,  // measure 48
0001
0000
1000
0010
1000
0001
1000
0001
,  // measure 49
1000
0000
0100
0010
0001
0000
0100
0001
,  // measure 50
2000
0100
0100
3100
,  // measure 51
1001
0000
0010
0100
1000
0000
0010
1000
,  // measure 52
0002
0010
0010
0013
,  // measure 53
1001
0000
0001
0100
0001
0100
0001
1000
,  // measure 54
0100
0010
0001
0000
0011
0000
1100
0000
,  // measure 55
1001
0000
1000
0010
1000
0010
1000
0001
,  // measure 56
0010
0100
1000
0000
0010
0100
0010
0100
,  // measure 57
0010
0000
1000
0010
1000
0001
0020
0000
,  // measure 58
0031
1000
0100
0010
0100
0000
1001
0000
,  // measure 59
0101
0000
0001
0100
0001
1000
0200
0000
,  // measure 60
1300
0001
0010
0100
0010
0000
1001
0000
,  // measure 61
1100
0000
1000
0100
1000
0001
0200
0000
,  // measure 62
0301
0010
0100
1000
0010
0000
1001
0000
,  // measure 63
0011
0000
0001
0010
0001
1000
0020
0000
,  // measure 64
1030
0000
0000
0000
1000
0001
1000
0001
,  // measure 65
2000
0000
0010
0000
0010
0000
3010
1000
,  // measure 66
0002
0000
0100
0000
0100
0000
0103
0001
,  // measure 67
2000
0000
0100
0000
0100
0000
3100
1000
,  // measure 68
0002
0000
0010
0000
0013
0001
1000
0100
,  // measure 69
0020
0000
0001
0000
0001
0000
0031
0010
,  // measure 70
0200
0000
1000
0000
1000
0000
1300
0010
,  // measure 71
0200
0000
0001
0000
0001
0000
0301
0100
,  // measure 72
0020
0000
1000
0000
1030
0010
1000
0001
,  // measure 73
0010
0100
0010
0000
0001
1000
0010
0000
,  // measure 74
1000
0100
0010
0001
0000
0001
1000
0000
,  // measure 75
0100
0010
0100
0000
1000
0001
0100
0000
,  // measure 76
0001
0010
0100
1000
0000
1000
0001
0000
,  // measure 77
0010
0100
0010
0000
0001
1000
0100
0000
,  // measure 78
1000
0001
0010
0100
0000
0100
0010
0000
,  // measure 79
0100
0010
0100
0000
1000
0001
0010
0000
,  // measure 80
0001
1000
0100
0010
0000
0010
0100
0000
,  // measure 81
2001
0100
0000
0100
,  // measure 82
0000
0100
0000
3100
,  // measure 83
0020
0001
0000
0001
,  // measure 84
0000
0001
0030
0110
,  // measure 85
1002
0100
0000
0100
,  // measure 86
0000
0100
0000
0103
,  // measure 87
0020
1000
0000
1000
,  // measure 88
0000
1000
0030
0110
,  // measure 89
1001
0000
0001
0100
0001
1000
0200
0000
,  // measure 90
0310
0100
1000
0001
0101
0000
0101
0000
,  // measure 91
1001
0000
1000
0010
1000
0001
0020
0000
,  // measure 92
0130
0010
0001
1000
1010
0000
1010
0000
,  // measure 93
1001
0000
0010
1000
0001
0010
0200
0000
,  // measure 94
0310
0001
1000
0100
1100
0000
1100
0000
,  // measure 95
1001
0000
0100
0001
1000
0100
0020
0000
,  // measure 96
0130
0000
0000
0000
1000
0001
1000
0001
,  // measure 97
1000
0100
1000
0001
0010
0100
0010
0001
,  // measure 98
1000
0100
0001
0100
1100
0000
1001
0000
,  // measure 99
0001
0010
0001
1000
0100
0010
0100
1000
,  // measure 100
0001
0100
1000
0100
0101
0000
1001
0000
,  // measure 101
1000
0010
0100
0001
1000
0100
0010
0100
,  // measure 102
1000
0100
0001
0100
1100
0000
1001
0000
,  // measure 103
0001
0100
0010
1000
0001
0010
0100
0010
,  // measure 104
0001
1000
0100
0001
0100
1000
0001
0010
,  // measure 105
0200
0000
0000
0000
,  // measure 106
0300
0000
0000
0000
;

//---------------dance-single - ----------------
#NOTES:
     dance-single:
     :
     Hard:
     7:
     0.561,0.632,0.369,0.301,0.000: // measure 1
1100
0000
0000
0000
,  // measure 2
0000
0000
0000
0000
,  // measure 3
0011
0000
0000
0000
,  // measure 4
0000
0000
0000
0000
,  // measure 5
1001
0000
0000
0000
,  // measure 6
0000
0000
0000
0000
,  // measure 7
0110
0000
0000
0000
,  // measure 8
1000
1000
0100
0010
,  // measure 9
1001
0100
0001
0100
,  // measure 10
1000
0001
1000
0000
0001
0100
0001
0000
,  // measure 11
1000
0100
0001
0100
,  // measure 12
1000
0001
1000
0000
0001
0100
0001
0000
,  // measure 13
0100
1000
0100
0001
,  // measure 14
0100
0010
0100
0000
0001
0100
0010
0000
,  // measure 15
1000
0100
0001
0100
,  // measure 16
1001
0001
1001
1000
,  // measure 17
1001
0010
0100
1000
,  // measure 18
0100
0010
0100
0000
1000
0001
0100
0000
,  // measure 19
0001
1000
0001
0000
1000
0000
0001
0000
,  // measure 20
0010
0100
0010
0000
0001
1000
0010
0000
,  // measure 21
1000
0001
1000
0000
0100
0000
0010
0000
,  // measure 22
0001
0100
0010
0000
1000
0100
1000
0000
,  // measure 23
0001
1000
0001
0000
0010
0000
0100
0000
,  // measure 24
2000
0000
0000
0000
,  // measure 25
3001
0000
0100
0002
0000
0000
1003
0200
,  // measure 26
0000
0000
0310
0100
1000
0000
0001
1000
,  // measure 27
0001
0000
0100
0002
0000
0000
1003
0200
,  // measure 28
0000
0000
0310
0100
1000
0001
1000
0001
,  // measure 29
1000
0000
0010
2000
0000
0000
3001
0020
,  // measure 30
0000
0000
0130
0010
0001
0000
1000
0001
,  // measure 31
0200
0000
0000
0000
,  // measure 32
0310
0000
0010
0100
0010
0100
0001
0010
,  // measure 33
0200
0000
0000
0000
,  // measure 34
0000
0000
0000
0300
,  // measure 35
2000
0000
0000
0000
,  // measure 36
0000
0000
0000
3000
,  // measure 37
2002
0000
0000
0000
,  // measure 38
0000
3003
0110
0110
,  // measure 39
2002
0000
0000
0000
,  // measure 40
0000
3003
0001
1000
,  // measure 41
0002
0100
0103
0001
,  // measure 42
2000
0010
3010
1010
,  // measure 43
1002
0010
0013
0001
,  // measure 44
2000
0100
3100
1100
,  // measure 45
1002
0100
0103
0001
,  // measure 46
2000
0010
3010
0110
,  // measure 47
2001
0010
3010
0100
,  // measure 48
0002
0000
0100
0000
0103
0001
1000
0100
,  // measure 49
1000
0000
0001
0100
0002
0000
0100
0000
,  // measure 50
2003
0010
0010
3010
,  // measure 51
1001
0000
1000
0010
2000
0000
0010
0000
,  // measure 52
3002
0010
0010
0013
,  // measure 53
1001
0000
0001
0010
0002
0000
0010
0000
,  // measure 54
1000
1003
1010
1010
,  // measure 55
1001
0000
1000
0100
2000
0000
0100
0000
,  // measure 56
0001
0000
3001
0000
0001
1000
0001
1000
,  // measure 57
0001
0000
1000
0100
0001
0000
0200
0000
,  // measure 58
0310
0000
1000
0100
0001
0000
1001
0000
,  // measure 59
1001
0000
0001
0100
1000
0000
0200
0000
,  // measure 60
0310
0000
0001
0100
1000
0000
1001
0000
,  // measure 61
1001
0000
0001
0010
1000
0000
0020
0000
,  // measure 62
0130
0000
0001
0010
1000
0000
0110
0000
,  // measure 63
1001
0000
1000
0010
0001
0000
0020
0000
,  // measure 64
0130
0000
0000
0000
1000
0001
1000
0001
,  // measure 65
1000
0000
1000
0000
1000
0000
1000
0100
,  // measure 66
0001
0000
0001
0000
0001
0000
0001
0100
,  // measure 67
1000
0000
1000
0000
1000
0000
1000
0100
,  // measure 68
0001
0000
0001
0000
0001
1000
0100
0010
,  // measure 69
0001
0000
0001
0000
0001
0000
0001
0010
,  // measure 70
1000
0000
1000
0000
1000
0000
1000
0010
,  // measure 71
0001
0000
0001
0000
0001
0000
0001
0010
,  // measure 72
1000
0000
1000
0000
1000
0001
0010
0100
,  // measure 73
1000
0010
1000
0000
0010
1000
0001
0000
,  // measure 74
0100
0010
0100
0001
0000
0001
1000
0000
,  // measure 75
0001
0100
0001
0000
0100
0001
1000
0000
,  // measure 76
0010
0100
0010
1000
0000
1000
0001
0000
,  // measure 77
1000
0100
1000
0000
0100
1000
0001
0000
,  // measure 78
0100
0010
0100
0001
0000
0001
1000
0000
,  // measure 79
0001
0010
0001
0000
0010
0001
1000
0000
,  // measure 80
0010
0100
0010
1000
0000
1000
0001
0000
,  // measure 81
2002
0000
0000
0000
,  // measure 82
0000
0000
0000
3003
,  // measure 83
0200
0000
0000
0000
,  // measure 84
0000
0000
0300
0110
,  // measure 85
2002
0000
0000
0000
,  // measure 86
0000
0000
0000
3003
,  // measure 87
0020
0000
0000
0000
,  // measure 88
0000
0000
0030
0110
,  // measure 89
1001
0000
0101
0000
1000
0100
0010
0000
,  // measure 90
0001
0010
0100
1000
0001
0000
0101
0000
,  // measure 91
1001
0000
1010
0000
0001
0010
0100
0000
,  // measure 92
1000
0100
0010
0001
1000
0000
1100
0000
,  // measure 93
1001
0000
0011
0000
1000
0100
0010
0000
,  // measure 94
0001
0100
0010
1000
0001
0000
0011
0000
,  // measure 95
1001
0000
1100
0000
0001
0010
0100
0000
,  // measure 96
0200
0000
0010
0310
,  // measure 97
0001
0100
0001
0100
0010
1000
0010
0000
,  // measure 98
1000
0100
0010
0001
1000
0000
1001
0000
,  // measure 99
1000
0010
1000
0010
0100
0001
0100
0000
,  // measure 100
0001
0010
0100
1000
0001
0000
1001
0000
,  // measure 101
1000
0100
1000
0100
0010
0001
0010
0000
,  // measure 102
0001
0100
0010
1000
0001
0000
1001
0000
,  // measure 103
0001
0010
0001
0010
0100
1000
0100
0000
,  // measure 104
1000
0010
0100
0001
1001
0000
0110
0000
,  // measure 105
2000
0000
0000
0000
,  // measure 106
3000
0000
0000
0000
;

//---------------dance-single - ----------------
#NOTES:
     dance-single:
     :
     Medium:
     6:
     0.478,0.592,0.451,0.301,0.000:
1001
0000
0000
0000
,
0000
0000
0000
0000
,
0110
0000
0000
0000
,
0000
0000
0000
0000
,
1001
0000
0000
0000
,
0000
0000
0000
0000
,
0110
0000
0000
0000
,
0001
0001
1000
1000
,
0001
0100
0010
0100
,
0001
0100
1000
0100
,
0001
0100
0010
0100
,
0001
0100
1000
0100
,
0010
0001
0010
1000
,
0010
0100
0001
1000
,
0001
0010
1000
0010
,
1001
0000
1001
0000
,
1001
1000
0001
0001
,
0200
0310
0020
0130
,
1001
0001
1000
1000
,
0020
0130
0200
0310
,
0001
1000
0001
0000
1000
0000
1000
0000
,
1000
0001
1000
0000
0001
0000
0001
0000
,
0001
1000
0001
0000
0100
0000
0010
0000
,
0100
0000
0000
0000
,
0001
0000
0100
0010
0000
0000
1000
0001
,
0000
0000
0100
0010
0000
0000
1000
0001
,
1000
0000
0010
0100
0000
0000
0001
1000
,
0000
0000
0010
0100
0000
0001
1000
0001
,
1000
0000
0010
0100
0000
0000
0001
1000
,
0000
0000
0010
0100
0000
0000
0001
1000
,
0002
0000
0000
0000
,
1003
0000
0100
0000
0010
0000
0001
1000
,
0010
0000
0000
0000
,
0000
0000
0000
0000
,
0110
0000
0000
0000
,
0000
0000
0000
0000
,
2002
0000
0000
0000
,
0000
3003
0110
0110
,
2002
0000
0000
0000
,
0000
3003
1000
0001
,
2000
0000
3100
1000
,
0002
0000
0013
1001
,
2001
0000
3010
1000
,
0002
0000
0103
1001
,
2001
0000
3100
1000
,
0002
0000
0013
1001
,
1002
0000
0103
0001
,
2000
0000
0000
0000
3010
0000
0100
0010
,
0200
0001
0301
0010
,
0100
1000
0100
0001
,
0200
0001
0301
0010
,
0100
1000
0100
0001
,
1001
1000
1000
0100
,
0001
0100
0110
0110
,
1001
0001
0001
0100
,
1000
0000
0100
0000
0001
1000
0001
0000
,
1000
0100
1000
0002
,
0103
0010
0100
0000
0001
0000
1001
0000
,
0001
0010
0001
2000
,
3010
0100
0010
0000
1000
0000
1001
0000
,
0001
0000
0100
0001
0100
0000
0020
0000
,
1030
0000
0001
1000
0001
0000
1001
0000
,
1000
0000
0010
1000
0010
0000
0200
0000
,
0301
0000
0000
0000
0001
1000
0001
0000
,
1001
1000
0001
1000
,
0001
1000
0001
1000
,
0010
0100
0010
0100
,
0010
0100
0010
0100
,
0001
1000
0001
1000
,
0001
1000
0001
1000
,
0010
0100
0010
0100
,
0010
0100
0010
0100
,
0101
0001
1100
1000
,
0220
0000
0000
0330
,
1010
1000
0011
0001
,
0220
0000
0000
0330
,
0011
0001
1010
1000
,
0220
0000
0000
0330
,
1100
1000
0101
0001
,
0220
0000
0000
0330
,
1002
0000
0000
0000
,
0000
0000
0000
0000
,
0203
0000
0000
0000
,
0000
0000
0300
0100
,
2001
0000
0000
0000
,
0000
0000
0000
0000
,
3020
0000
0000
0000
,
0000
0000
0030
0010
,
1001
0000
1000
0010
2000
0000
3001
0000
,
0100
0010
0100
0000
0100
0000
0110
0000
,
1001
0000
0001
0100
0002
0000
1003
0000
,
0010
0100
0010
0000
0010
0000
0110
0000
,
1001
0000
1000
0100
2000
0000
3001
0000
,
0010
0100
0010
0000
0010
0000
0110
0000
,
1001
0000
0001
0010
0002
0000
1003
0000
,
0100
0000
0000
0000
0100
0010
0100
0000
,
1000
0010
1000
0000
0001
0100
0001
0000
,
0100
0101
1100
1001
,
0001
0100
0001
0000
1000
0010
1000
0000
,
0010
1010
0011
1001
,
0001
0010
0001
0000
1000
0100
1000
0000
,
0001
0101
1100
1001
,
1000
0100
1000
0000
0001
0010
0001
0000
,
1000
1100
0101
0110
,
0002
0000
0000
0000
,
0003
0000
0000
0000
;

//---------------dance-single - ----------------
#NOTES:
     dance-single:
     :
     Beginner:
     2:
     0.117,0.196,0.090,0.000,0.000:
1000
0000
0000
0000
,
0000
0000
0000
0000
,
1000
0000
0000
0000
,
0000
0000
0000
0000
,
1000
0000
0000
0000
,
0000
0000
0000
0000
,
1000
0000
0000
0000
,
0001
0000
0000
0000
,
1001
0000
0000
0000
,
0001
0000
0000
0000
,
1000
0000
0000
0000
,
0001
0000
0000
0000
,
0100
0000
0000
0000
,
0010
0000
0000
0000
,
0100
0000
0000
0000
,
0010
0000
0000
0000
,
1000
0000
0000
0000
,
1000
0000
0000
0000
,
0001
0000
0000
0000
,
0001
0000
0000
0000
,
0100
0000
0000
0000
,
0100
0000
0000
0000
,
0010
0000
0000
0000
,
0010
0000
0000
0000
,
1000
0000
0000
0000
,
0000
0000
0000
0000
,
0100
0000
0000
0000
,
0000
0000
0000
0000
,
0010
0000
0000
0000
,
0000
0000
0000
0000
,
0001
0000
0000
0000
,
0000
0000
0000
0000
,
1001
0000
0000
0000
,
0000
0000
0000
0000
,
0001
0000
0000
0000
,
0000
0000
0000
0000
,
1001
0000
0000
0000
,
0000
0000
0000
0000
,
1001
0000
0000
0000
,
0000
0000
0000
0000
,
1001
0000
0000
0000
,
0001
0000
0000
0000
,
1000
0000
0000
0000
,
0001
0000
0000
0000
,
0100
0000
0000
0000
,
0100
0000
0000
0000
,
0010
0000
0000
0000
,
0010
0000
0000
0000
,
1000
0000
0000
0000
,
0000
0000
0000
0000
,
1000
0000
0000
0000
,
0000
0000
0000
0000
,
0001
0000
0000
0000
,
0000
0000
0000
0000
,
0001
0000
0000
0000
,
0000
0000
0000
0000
,
1001
0000
0001
0000
,
0001
0000
0000
0000
,
1000
0000
1000
0000
,
1000
0000
0000
0000
,
0001
0000
0001
0000
,
0001
0000
0000
0000
,
1000
0000
0001
0000
,
1000
0000
0000
0000
,
1001
0000
0001
0000
,
0001
0000
0000
0000
,
0001
0000
0001
0000
,
0001
0000
0000
0000
,
1000
0000
1000
0000
,
1000
0000
0000
0000
,
0001
0000
0001
0000
,
0001
0000
0000
0000
,
1001
0000
0000
0000
,
0000
0000
0000
0000
,
1000
0000
0000
0000
,
0000
0000
0000
0000
,
1001
0000
0000
0000
,
0000
0000
0000
0000
,
0001
0000
0000
0000
,
0000
0000
0000
0000
,
0100
0000
0000
0000
,
0000
0000
0000
0000
,
0000
0000
0000
0000
,
0000
0000
0000
0000
,
0110
0000
0000
0000
,
0000
0000
0000
0000
,
0000
0000
0000
0000
,
0000
0000
0000
0000
,
1001
0000
0001
0000
,
0001
0000
0000
0000
,
1000
0000
1000
0000
,
1000
0000
0000
0000
,
0010
0000
0100
0000
,
0010
0000
0000
0000
,
0100
0000
0010
0000
,
0100
0000
0000
0000
,
1001
0000
1000
0000
,
0001
0000
0000
0000
,
1000
0000
0001
0000
,
1000
0000
0000
0000
,
0010
0000
0100
0000
,
0010
0000
0000
0000
,
0100
0000
0010
0000
,
0100
0000
0001
0000
,
1000
0000
0000
0000
;
