#TITLE:純愛ホスト☆午前5時;
#SUBTITLE:;
#ARTIST:上野圭市郎とEIICHI;
#TITLETRANSLIT:JUNAI HOST☆GOZEN 5 JI;
#SUBTITLETRANSLIT:;
#ARTISTTRANSLIT:UENO KEIICHIROU TO EIICHI;
#CREDIT:DMAxel;
#BANNER:JUNAI HOST GOZEN 5 JI.png;
#BACKGROUND:JUNAI HOST GOZEN 5 JI-bg.png;
#LYRICSPATH:JUNAI HOST GOZEN 5 JI.lrc;
#CDTITLE:pop'n music.png;
#MUSIC:JUNAI HOST GOZEN 5 JI.mp3;
#OFFSET:-4.140;
#SAMPLESTART:88.664;
#SAMPLELENGTH:12.000;
#SELECTABLE:YES;
#BPMS:0.000=135.000,102.000=138.000,106.000=141.000,110.000=143.000,114.000=145.000;
#STOPS:11.500=1.320
,41.000=1.340
,152.000=0.420
;
#BGCHANGES:;

//---------------dance-single - ----------------
#NOTES:
     dance-single:
     :
     Easy:
     3:
     0.251,0.271,0.167,0.217,0.000:
1000
0000
0000
0000
,
0001
0000
0000
0000
,
0200
0000
0000
0000
0000
0000
0000
0310
,
0000
1000
0000
0100
,
0000
1000
0000
0001
,
0000
0010
0000
0001
,
0000
1000
0000
0001
,
0000
1000
0000
0010
,
0000
0100
0000
0010
,
1000
0100
0010
0001
,
1000
0001
0010
0000
,
0001
0000
0010
0000
,
0001
0000
1000
0000
,
0001
0000
1000
0000
,
0010
0000
0100
0000
,
0010
0000
1000
0000
,
0001
0000
1001
0000
,
0000
0000
0100
0000
,
0010
0000
1000
0000
,
0100
0000
1000
0000
,
0001
0000
0010
0000
,
0001
0000
0100
0000
,
0010
0000
0100
0000
,
0001
0000
2000
0000
,
3002
0000
0103
0100
,
0100
0000
1001
0000
,
0000
0000
0011
0000
,
0000
0000
1100
0000
,
1001
0000
0010
0100
,
0010
1000
2002
0000
,
0000
3003
0022
0000
,
0000
0033
2200
0000
,
0000
3300
2002
0000
,
0000
3003
1000
0100
,
1000
0000
0010
0100
,
0001
0000
0010
0001
,
0010
0100
2000
0000
,
3020
0000
0000
0000
,
0130
0001
1000
0010
,
0100
1001
0001
0010
,
0001
1001
1000
0100
,
1000
0020
0000
0230
,
0000
0310
1000
0010
,
1000
1001
0010
0100
,
0010
1001
0010
0001
,
0100
0002
0000
0203
,
0000
0310
1001
0000
,
0000
0001
0010
0100
,
1000
0100
0010
0001
,
0000
1000
0010
0100
,
0001
0220
0000
0000
,
0330
0010
0100
0001
,
0000
0010
0100
1000
,
0001
1001
0010
0100
,
1000
0002
0000
2003
,
0000
3020
0000
0000
,
0000
0130
0100
0100
,
0100
1001
0010
0010
,
0010
1001
1000
1000
,
0001
0200
0000
0320
,
0000
1030
1000
1000
,
1000
1001
0001
0001
,
0001
1001
1000
1000
,
1000
0020
0000
0230
,
0000
0301
0100
1000
,
0001
0000
0000
0000
;

//---------------dance-single - ----------------
#NOTES:
     dance-single:
     :
     Hard:
     7:
     0.468,0.435,0.609,0.042,0.029:
1001
0000
0000
0001
0100
0000
0000
0000
,
0100
0000
0000
0100
0010
0000
0000
0000
,
0010
0000
0000
0010
1000
0100
0000
1001
,
0000
0000
0010
0000
0000
0100
0010
0000
,
0100
0000
0001
0000
0000
1000
0001
0000
,
1000
0000
0010
0000
0000
0100
0010
0000
,
1000
0000
0001
0000
0000
0100
0001
0000
,
0100
0000
0010
0000
0000
1000
0010
0000
,
0100
0000
0001
0000
0000
0010
0100
0000
,
1000
0000
0001
0010
0001
0100
0010
1000
,
0100
1000
1001
0000
1001
0000
0000
1000
,
0010
0000
0110
0000
0001
0000
0000
0100
,
0010
0000
1000
0000
0001
0000
0000
0010
,
0100
0000
0110
0000
1000
0000
0000
1000
,
0001
0000
0100
0000
0010
0000
0000
0100
,
0001
0000
0010
0100
2000
0000
0000
0000
,
3100
0010
1001
0000
,
0100
0000
0000
0000
1001
0000
0001
0100
,
0010
0000
0100
0100
0010
0000
1000
0010
,
0100
0000
0010
0010
0100
0000
0001
1000
,
0001
0000
0100
0010
0100
0001
0010
0100
,
1000
0001
0010
0100
1000
0010
0100
0000
,
0010
0010
0100
0000
0001
0100
0010
0000
,
0100
0100
0001
1000
1000
0000
0001
1000
,
1000
0000
0001
0100
0010
0100
0010
0100
,
0001
1001
2002
0000
,
0000
3003
2200
0000
,
0000
3300
0011
0000
,
1001
0000
1100
1100
,
0011
0011
1001
0000
,
0000
0101
0000
0000
1001
0000
0000
0000
,
0000
1010
0000
0000
1001
0000
0000
0000
,
0000
0000
0110
0000
0000
0000
0000
0000
1001
0000
0000
1001
0000
0000
1001
0000
,
0000
0000
1001
0011
,
1001
0000
1000
0100
0001
0100
1000
0100
,
0010
0000
0001
0000
0100
0000
0000
0000
0001
0000
0010
0000
0100
0000
1000
0001
,
0000
1000
0100
1000
0001
0100
0001
1000
,
0100
0000
1000
0000
0010
0000
0100
0000
0001
0000
0000
0001
0000
0000
0001
0000
,
1000
1001
1100
1001
,
0001
1000
0001
0000
0011
0000
1001
0000
,
1000
0001
1000
0000
1010
0000
1001
0000
,
0001
1000
0001
0000
0101
0000
0101
0000
,
1010
1001
0101
1001
,
1000
0001
1000
0000
1010
0000
1001
0000
,
0001
1000
0001
0000
0101
0000
1001
0000
,
1000
0001
1000
0100
1000
0100
1000
0001
,
0100
0001
1000
0000
1001
0000
0000
0000
,
0000
1001
1100
1001
,
0001
0010
1000
0001
1000
0001
1000
0001
,
0010
0100
1000
0000
1010
0000
1001
0000
,
0001
0000
0100
0000
0010
0000
0000
0010
0000
0000
0110
0000
0000
0000
0000
0000
,
0000
1001
0011
1001
,
1000
0100
0001
1000
0001
1000
0001
1000
,
0100
0010
0001
0000
0101
0000
1001
0000
,
0100
0010
1000
0000
1000
0000
1001
0000
,
0010
0000
0100
0000
0001
0000
0000
0000
1001
0000
0000
0000
0100
0000
0000
0100
,
0000
0100
1000
0000
1010
0000
1001
0000
,
1000
0001
1000
0000
0101
0000
1001
0000
,
0001
1000
0001
0000
1100
0000
1001
0000
,
1000
0001
1000
0100
1000
0100
1000
0001
,
0100
1001
0011
1001
,
0001
1000
0001
0000
1100
0000
1001
0000
,
1000
0001
1000
0000
0011
0000
1001
0000
,
0001
1000
0001
0010
0001
0010
0001
1000
,
0010
0000
1000
0000
0001
0000
0000
0001
0000
0000
0001
0000
1000
0000
0000
0000
,
0010
0000
0010
0100
0000
0000
0000
0000
0000
0000
0000
0000
0000
0000
0000
0000
;

//---------------dance-single - ----------------
#NOTES:
     dance-single:
     :
     Challenge:
     8:
     0.556,0.598,0.375,0.100,0.167: // measure 1
1001
0000
1000
0100
1000
0000
0001
0100
,  // measure 2
0000
0010
0000
0010
0000
0100
0000
0001
,  // measure 3
1000
0100
0010
0001
0100
1000
0000
1001
,  // measure 4
0000
0000
1001
0000
0100
0001
0100
0000
,  // measure 5
0100
0000
0010
0000
0010
1000
0010
0000
,  // measure 6
0010
0000
1000
0000
1000
0100
1000
0000
,  // measure 7
1000
0000
0001
0000
0001
0010
0001
0000
,  // measure 8
0001
0000
1000
0000
1000
0010
0100
0000
,  // measure 9
0100
0000
0001
0000
0001
0100
0010
0000
,  // measure 10
0010
0000
1000
0100
0010
0001
1000
0100
,  // measure 11
0010
0000
0001
1000
0001
0000
0000
0000
1001
0000
0000
0000
1000
0000
0100
0000
,  // measure 12
0010
0100
1000
0000
0001
0010
0001
1000
,  // measure 13
0010
1000
0001
0000
1000
0000
0001
0010
,  // measure 14
0100
0010
0001
0000
1000
0010
1000
0001
,  // measure 15
0010
0001
1000
0000
0001
0000
1000
0100
,  // measure 16
0010
0100
1000
0001
0100
0000
0001
0010
,  // measure 17
0100
1000
0001
0100
0101
0000
0000
0000
,  // measure 18
0100
0000
0000
0100
0000
0000
0100
0000
1001
0000
0000
0000
0010
0000
0100
0000
,  // measure 19
1000
0000
0010
0010
0100
0000
0001
0100
,  // measure 20
0010
1000
0010
0010
0100
0000
0001
0100
,  // measure 21
0010
0000
1000
0100
0010
0100
1000
0010
,  // measure 22
0100
0001
0010
0100
1000
0000
0010
0100
,  // measure 23
0010
1000
0100
0001
0100
1000
0001
0010
,  // measure 24
0100
0000
1000
0100
0002
0000
0000
0103
,  // measure 25
2000
0000
0000
3010
0100
0010
1000
0100
,  // measure 26
0010
0101
2002
0000
,  // measure 27
0000
3003
0022
0000
,  // measure 28
0000
0033
1100
0000
,  // measure 29
1001
0000
0110
1001
,  // measure 30
0110
0000
1001
0000
0202
0000
0000
0303
,  // measure 31
0000
1100
0000
0000
2020
0000
0000
3030
,  // measure 32
0000
0011
0000
0000
0220
0000
0000
0330
,  // measure 33
0000
0000
1001
0000
0000
0000
0000
0000
1001
0000
0000
1001
0000
0000
1001
0000
,  // measure 34
0000
0000
0000
0010
0100
0000
0100
0000
0001
0000
0010
0000
0100
0000
0010
0000
,  // measure 35
0001
0000
1000
0000
0000
0100
0000
0000
1000
0000
0100
0000
0010
0000
0100
0000
,  // measure 36
1000
0000
0001
0000
0000
0010
0000
0000
0001
0000
0100
0000
0010
0000
1000
0001
,  // measure 37
0000
0000
0010
0000
0100
0000
1000
0000
0001
0000
0000
0100
0001
0000
1000
0000
,  // measure 38
0100
0000
0000
0010
0001
0000
1000
0000
0010
0100
0000
0010
0100
0000
0001
0000
,  // measure 39
0001
0000
1001
0000
1000
0100
0010
0000
,  // measure 40
0100
1000
0001
0100
0001
0010
0100
0000
,  // measure 41
0010
0001
1000
0010
1000
0100
0010
0000
,  // measure 42
0100
0000
1000
0000
0001
0000
0000
0000
1001
0000
0000
0000
1001
0000
0000
0100
,  // measure 43
0010
0010
1000
0000
0001
0010
0100
0000
,  // measure 44
0010
0001
1001
0000
0001
0010
0100
1000
,  // measure 45
0001
0000
1001
0000
1000
0100
0010
0000
,  // measure 46
0100
0000
1000
0000
0001
0000
0100
0000
0001
0000
0100
0010
0100
0010
0100
0010
,  // measure 47
0100
0010
0100
0010
0100
0000
0000
0000
1001
0000
0000
0000
0001
1000
0001
1000
,  // measure 48
0001
1000
0001
1000
0001
0000
0010
0000
0100
0000
0010
0000
0001
0000
1000
0000
,  // measure 49
0100
0010
0001
1000
0100
0010
0100
1000
,  // measure 50
0001
0000
0010
0000
0100
1000
0100
1000
0100
0000
1000
0001
0000
0000
0010
0000
,  // measure 51
0100
0000
1000
0000
1001
0000
0000
1001
0000
0000
1001
0000
0000
0000
0000
0100
,  // measure 52
0010
0010
1000
0100
0010
0100
1000
0001
,  // measure 53
0100
0000
0010
1000
0010
0000
1000
0000
0100
0000
0010
0100
0000
0000
1000
0000
,  // measure 54
0100
0000
0010
0000
0001
0000
1000
0000
0100
0000
1000
0001
0000
0000
0010
0000
,  // measure 55
0100
1000
0110
0000
0010
0001
0110
0000
,  // measure 56
1000
0000
0100
0000
1000
0000
0001
0000
0100
0001
0000
0100
0001
0000
0000
1001
,  // measure 57
0000
1010
1001
0000
0010
0100
0010
0001
,  // measure 58
1000
0000
1001
0000
0100
0010
0100
1000
,  // measure 59
0001
0000
1001
0000
0100
0010
0100
1000
,  // measure 60
0001
0000
0100
0000
0101
0000
0000
0000
0110
0000
0000
0000
1001
0000
0000
0010
,  // measure 61
0100
0100
0001
0010
0100
0010
0001
1000
,  // measure 62
0010
1000
1001
0000
0010
0100
0010
0001
,  // measure 63
1000
0000
1001
0000
0100
0010
0100
1000
,  // measure 64
0001
0000
0100
0000
0010
1000
0000
0010
1000
0000
0001
0010
0000
0001
0010
0000
,  // measure 65
0100
0000
0000
0000
1000
0001
0000
1000
0001
0000
0010
0000
0100
0000
0000
0000
,  // measure 66
1000
0000
1000
0001
0000
0000
0000
0000
0000
0000
0000
0000
0000
0000
0000
0000
;

//---------------dance-single - ----------------
#NOTES:
     dance-single:
     :
     Beginner:
     1:
     0.076,0.108,0.050,0.000,0.000:
1000
0000
0000
0000
,
0000
0000
0000
0000
,
0001
0000
0000
0000
,
0000
0010
0000
0000
,
0000
0000
0000
0000
,
0000
0100
0000
0000
,
0000
0000
0000
0000
,
0000
0010
0000
0000
,
0000
0000
0000
0000
,
0000
1000
0000
0000
,
0000
0000
0001
0000
,
0000
0000
0000
0000
,
0000
0000
0001
0000
,
0000
0000
0000
0000
,
0000
0000
1000
0000
,
0000
0000
0000
0000
,
0000
0000
0100
0000
,
0000
0000
1000
0000
,
0000
0000
0000
0000
,
0000
0000
0010
0000
,
0000
0000
0000
0000
,
0000
0000
1000
0000
,
0000
0000
0000
0000
,
0000
0000
0001
0000
,
1000
0000
0001
0000
,
0000
0000
1001
0000
,
0000
0000
0001
0000
,
0000
0000
1001
0000
,
1000
0000
0001
0000
,
0000
0000
0110
0000
,
0000
0000
1001
0000
,
0000
0000
1001
0000
,
0000
0000
0001
0000
,
0000
0000
1000
0000
,
0000
0000
0100
0000
,
0000
0000
1000
0000
,
0000
0000
0001
0000
,
0000
0000
1000
0000
,
0000
0001
0000
0000
,
0000
0010
0000
0000
,
0000
0001
0000
0000
,
0000
1000
0000
0000
,
0000
0010
0000
0000
,
0000
0100
0000
0000
,
0000
0010
0000
0000
,
0000
0100
0000
0000
,
0000
0000
1001
0000
,
0000
1000
0000
0000
,
0000
0001
0000
0000
,
0000
1000
0000
0000
,
0000
0001
0000
0000
,
0000
0100
0000
0000
,
0000
0010
0000
0000
,
0000
0100
0000
0000
,
0000
0001
0000
0000
,
0000
1000
0000
0000
,
0000
0001
0000
0000
,
0000
0100
0000
0000
,
0000
0010
0000
0000
,
0000
0100
0000
0000
,
0000
0001
0000
0000
,
0000
1000
0000
0000
,
0000
0001
0000
0000
,
0000
1000
0000
0000
,
0000
0010
0000
0000
,
0010
0000
0000
0000
;

//---------------dance-single - ----------------
#NOTES:
     dance-single:
     :
     Medium:
     5:
     0.341,0.408,0.400,0.067,0.008:
1001
0000
1000
0000
,
0001
0000
1000
0000
,
0010
0000
0000
0000
0100
0000
0000
1001
,
0000
0100
0000
0010
,
0000
1000
0000
0100
,
0000
1000
0000
0001
,
0000
0100
0000
0010
,
0000
1000
0000
0001
,
0010
0001
0000
1000
,
0100
1000
0100
0010
,
0001
1001
1001
0010
,
0001
0100
0000
0010
,
1000
0100
0000
1000
,
0001
0100
0000
0010
,
1000
0001
0000
0100
,
0001
0000
0100
0010
0200
0000
0000
0000
,
0000
0300
1001
0000
,
0000
0000
0010
1000
,
0010
1000
0010
0100
,
0010
0100
0001
0100
,
0001
0010
0001
0010
,
0100
1000
0020
0000
,
0000
0000
1030
0001
,
0100
0010
1010
0000
,
0110
0000
0101
0001
,
1000
0001
2002
0000
,
0000
3003
0022
0000
,
0000
0033
1100
0000
,
1001
0000
0101
0101
,
1010
1010
1001
0000
,
0000
1000
0000
0000
1001
0000
0000
0000
,
0000
0001
0000
0000
1001
0000
0000
0000
,
0000
0000
0100
0000
0000
0000
0000
0000
0001
0000
0000
1000
0000
0000
1001
0000
,
0000
0000
1000
0100
,
1000
0000
0100
0010
0001
0000
0100
0000
,
0001
0000
0100
0000
0001
0000
0010
0100
,
1000
0001
0110
1000
,
0110
0000
0001
0000
0100
0010
0100
0010
,
0100
1001
0100
0001
,
0100
0110
1000
0010
,
1000
0110
1000
0001
,
0010
1001
0010
0100
,
1000
0110
0100
0010
,
0100
1001
1000
0010
,
1000
1001
0010
0100
,
1000
1100
1100
0011
,
0011
0100
1001
0000
,
0000
0000
0010
0001
0010
0000
0001
0000
,
0100
0000
0010
1000
0010
0000
0100
0000
,
0010
0000
1000
0100
1000
0000
0001
0010
,
0001
2002
0000
0000
,
3003
0000
0100
1000
0100
0000
1000
0000
,
0010
0000
0100
0001
0100
0000
0001
0000
,
0010
0000
0001
0100
0010
0000
1000
0000
,
0010
0100
0010
0000
1000
0001
1000
0000
,
0010
0100
0010
0000
1001
0000
1100
0000
,
0011
1001
0010
0001
,
0100
0110
1000
0100
,
1000
0110
0100
0001
,
0100
1010
1010
0101
,
0101
1001
0100
0010
,
1000
0110
0010
0100
,
0001
1001
0010
0100
,
1000
0000
0100
0010
0001
0000
0100
0010
,
0100
0000
0001
0010
0100
1000
1000
0000
,
0010
0000
0000
0010
0000
0000
0000
0000
0000
0000
0000
0000
0000
0000
0000
0000
;

//---------------dance-double - ----------------
#NOTES:
     dance-double:
     :
     Easy:
     4:
     0.257,0.298,0.175,0.067,0.000:
00000001
00001000
00000001
00000000
,
00000010
00000001
00000010
00000000
,
00000001
00000010
00000100
00001000
,
00000000
00010000
00000000
00001000
,
00000000
00010000
00000000
00100000
,
00000000
01000000
00000000
00100000
,
00000000
00010000
00000000
00100000
,
00000000
01000000
00000000
10000000
,
00000000
01000000
00000000
00100000
,
00000000
00010000
00010000
00001000
,
00001000
00011000
00001000
00000000
,
00001000
00000000
00000100
00000000
,
00000100
00000000
00000010
00000000
,
00000010
00000000
00000001
00000000
,
00000001
00000000
00000010
00000000
,
00000100
00000000
00001000
00000000
,
00010000
00000000
00011000
00000000
,
00000000
00000000
00001000
00000000
,
00001000
00000000
00010000
00000000
,
00010000
00000000
00100000
00000000
,
00100000
00000000
00010000
00000000
,
00001000
00000000
00000100
00000000
,
00000100
00000000
00000010
00000000
,
00000010
00000000
00000100
00000000
,
00001000
00000000
00010000
00010000
,
00001000
00001000
00011000
00000000
,
00000000
00000000
00110000
00000000
,
00000000
00000000
01100000
00000000
,
11000000
00000000
10000000
00010000
,
10000000
00010000
20020000
00000000
,
00000000
30030000
00220000
00000000
,
00000000
00330000
22000000
00000000
,
00000000
33000000
20020000
00000000
,
00000000
30030000
00100000
00010000
,
00100000
00010000
00001000
00010000
,
00001000
00010000
00001000
00000100
,
00000010
00000001
00001000
00001000
,
00000001
00000001
00000010
00000100
,
00000011
00000010
00000010
00000001
,
00000001
00000010
00000010
00000100
,
00000100
00001000
00001000
00010000
,
00010000
00011000
00000000
00010000
,
00000000
01100000
00100000
00100000
,
00100000
01000000
01000000
01000000
,
01000000
10000000
10000000
10000000
,
01000000
00100000
00010000
00001000
,
00010000
00001000
00000110
00000000
,
00000000
00000001
00000001
00000001
,
00000010
00000001
00000001
00000001
,
00001000
00000100
00000100
00001000
,
00000001
00001001
00000000
00000000
,
00000000
00000010
00000100
00000010
,
00000100
00001000
00010000
00001000
,
00010000
00001000
00010000
00100000
,
01000000
11000000
00000000
10010000
,
00000000
01100000
01100000
10010000
,
00000000
01100000
01000000
01000000
,
01000000
00010000
00010000
00010000
,
00010000
00100000
00100000
00100000
,
00100000
00001000
00000100
00000010
,
00000001
00001000
00001000
00001000
,
00001000
00000001
00000001
00000001
,
00000001
00000010
00000010
00000100
,
00001000
00010000
00010000
00001000
,
00001000
00010000
00100000
10000000
,
00100000
00000000
00000000
00000000
;
