#TITLE:Infinite;
#SUBTITLE:(Spectrum Mix);
#ARTIST:PARALLEL FLOATERS;
#TITLETRANSLIT:;
#SUBTITLETRANSLIT:;
#ARTISTTRANSLIT:;
#CREDIT:DMAxel;
#BANNER:Infinite (Spectrum Mix).png;
#BACKGROUND:Infinite (Spectrum Mix)-bg.png;
#LYRICSPATH:Infinite (Spectrum Mix).lrc;
#CDTITLE:Konami original REMIX.png;
#MUSIC:Infinite (Spectrum Mix).mp3;
#OFFSET:-6.480;
#SAMPLESTART:34.354;
#SAMPLELENGTH:12.000;
#SELECTABLE:YES;
#BPMS:0.000=168.000;
#STOPS:;
#BGCHANGES:;

//---------------dance-single - ----------------
#NOTES:
     dance-single:
     :
     Easy:
     4:
     0.312,0.334,0.157,0.157,0.000:
1000
0000
0010
0000
,
1000
0010
1000
0001
,
0001
0000
0100
0000
,
0001
0100
0001
1000
,
1001
0000
0010
0001
,
0010
0001
0010
0100
,
0000
1000
0010
1000
,
0000
0100
1000
0100
,
1000
0100
0010
0001
,
0000
0100
0001
0100
,
0000
0010
0100
0010
,
1000
0100
1000
0010
,
0000
1000
0001
1000
,
0000
0010
0100
0001
,
0000
0010
0001
0010
,
0000
0001
0100
0010
,
0000
0100
0010
0100
,
0000
0010
1000
0100
,
0000
1000
0001
1000
,
0010
0100
0010
0100
,
1002
0000
1000
0000
1000
0000
0000
2003
,
0000
0000
0010
0000
0010
0000
0000
3020
,
0000
0100
0100
0130
,
0001
0010
0100
1000
,
1002
0000
0010
0000
0010
0000
0000
2003
,
0000
0000
0100
0000
0100
0000
0000
3020
,
0000
0100
0130
0001
,
0010
1001
0100
0001
,
0110
1000
0110
0001
,
2002
0000
0000
3003
,
0100
1000
0100
1000
,
0100
0010
0001
0000
,
0010
0001
0010
0001
,
0010
0100
1000
0000
,
0010
1000
0010
1000
,
0100
0010
0001
0000
,
0100
0001
0100
0001
,
0010
0100
1000
1000
,
1001
0010
0001
0010
,
0100
1000
0100
1000
,
0001
1000
0001
1000
,
0010
0000
0100
0000
0010
0000
0000
1001
,
0000
0000
0100
0000
0010
0000
0000
1001
,
0000
0010
0100
0010
,
1001
0000
0000
1000
0000
0000
0001
0000
,
0000
1000
0000
0000
0010
0000
0010
0000
,
0110
1000
0100
1000
,
0001
0010
0001
0010
,
0100
1000
0100
1000
,
0010
0000
1000
0000
0010
0000
0000
1001
,
0000
0000
0010
0000
0100
0000
0000
1001
,
0000
0100
0010
1000
,
1001
0000
0000
0001
0000
0000
1000
0000
,
0000
0001
0000
0000
0100
0000
0100
0000
,
0120
0000
0000
0000
,
2030
0000
0000
0000
,
3002
0000
0000
0000
,
0203
0000
0000
0000
,
0320
0000
0000
0000
,
0230
0000
0000
0000
,
0302
0000
0000
0000
,
2003
0000
0000
0000
,
3001
0000
0000
0000
;

//---------------dance-single - ----------------
#NOTES:
     dance-single:
     :
     Hard:
     9:
     0.663,0.759,0.392,0.206,0.201: // measure 1
1000
0000
1000
0010
1000
0001
0010
0002
,  // measure 2
0000
1000
1003
0000
1100
0000
1001
0000
,  // measure 3
0001
0000
0001
0100
0001
1000
0100
2000
,  // measure 4
0000
0001
3001
0000
0011
0000
1000
0000
,  // measure 5
1001
0000
0100
0010
0100
0001
0010
0200
,  // measure 6
0000
1000
1300
0000
0010
0001
1000
0000
,  // measure 7
1001
0000
0010
0100
0010
1000
0100
0020
,  // measure 8
0000
0001
0031
0000
0100
1000
0001
0000
,  // measure 9
1001
0000
0100
0001
0100
0001
0010
0200
,  // measure 10
0000
1000
1300
0000
0010
0001
1000
0000
,  // measure 11
1001
0000
0010
1000
0010
1000
0100
0020
,  // measure 12
0000
0001
0031
0000
0100
1000
0001
0000
,  // measure 13
1001
0000
0001
0100
0010
1000
0100
2000
,  // measure 14
0000
0000
0001
0000
3001
0000
0000
1000
0001
0000
0000
0000
0101
0000
0000
0000
,  // measure 15
1001
0000
1000
0010
0100
0001
0010
0002
,  // measure 16
0000
0000
1000
0000
1003
0000
0000
0001
1000
0000
0000
0000
1100
0000
0000
0000
,  // measure 17
1001
0000
0001
0010
0001
0100
0010
2000
,  // measure 18
0000
0000
0001
0000
3001
0000
0000
1000
0001
0000
0000
0000
0011
0000
0000
0000
,  // measure 19
1001
0000
1000
0100
1000
0001
0100
0001
,  // measure 20
0000
1000
0001
0010
0100
1000
0100
0010
,  // measure 21
1001
0000
1000
0001
0100
0001
1000
1100
,  // measure 22
0000
0010
0001
1000
0010
1000
0001
1002
,  // measure 23
0000
0000
1000
0000
1003
1000
0010
1000
,  // measure 24
0000
0000
0100
0000
0010
0000
0001
0000
1000
0000
0010
0000
1000
0010
1000
0010
,  // measure 25
1000
0000
0001
1000
0010
1000
0001
0011
,  // measure 26
0000
0100
1000
0001
0100
0001
1000
2001
,  // measure 27
0000
0000
0001
0000
3001
1000
0010
1010
,  // measure 28
0000
0000
1000
0000
0001
0100
0001
0100
0001
0000
1000
0000
0100
0000
1100
0000
,  // measure 29
0000
0001
0100
0101
0000
1000
0001
2002
,  // measure 30
0000
0000
0000
3003
,  // measure 31
1020
0000
1000
0000
1030
0001
0010
0010
,  // measure 32
0000
0000
0001
0000
0010
0000
0000
0001
1000
0000
0100
0000
0010
0000
0000
0000
,  // measure 33
0201
0000
0001
0000
0301
1000
0100
0100
,  // measure 34
0000
1000
0100
1000
0001
0010
0100
1000
,  // measure 35
0201
0000
0001
0000
0301
1000
0100
0100
,  // measure 36
0000
0000
1000
0000
0100
0000
0000
1000
0001
0000
0010
0000
0100
0000
0000
0000
,  // measure 37
1020
0000
1000
0000
1030
0001
0010
0010
,  // measure 38
0000
0000
0001
0000
0100
0000
0001
0000
1000
0001
1000
0001
1000
0001
1000
0001
,  // measure 39
1000
0000
1001
0000
1000
0010
1000
0001
,  // measure 40
0010
0100
1000
0100
0010
0001
1000
0000
,  // measure 41
0001
0100
0001
1000
0100
0010
0001
0010
,  // measure 42
0100
0000
1000
0000
0001
0000
0100
0000
0001
0100
0001
0100
0001
0000
1001
0000
,  // measure 43
0000
0000
1010
0000
1000
0001
0100
0101
,  // measure 44
0000
0101
0101
1000
,  // measure 45
0001
0100
0001
0100
0000
0000
0010
1000
0010
1000
0000
0000
0001
0010
0001
0010
,  // measure 46
0000
0000
0100
1000
0100
1000
0000
0000
0001
1000
0001
1000
0001
1000
0001
1000
,  // measure 47
0001
0000
1001
0000
0001
0100
0001
1000
,  // measure 48
0100
0010
0001
0010
1000
0100
0010
0001
,  // measure 49
1000
0100
1000
0001
0010
0100
1000
0100
,  // measure 50
0001
0000
0010
0000
0100
0000
1000
0000
0010
1000
0010
1000
0010
0000
1001
0000
,  // measure 51
0000
0000
0101
0000
0001
1000
0010
1010
,  // measure 52
0000
0000
1010
0000
1010
0000
0100
0001
,  // measure 53
1000
0010
1000
0010
0000
0000
0100
0001
0100
0001
0000
0000
1000
0100
1000
0100
,  // measure 54
0000
0000
0010
0001
0010
0001
0000
0000
1000
0001
1000
0001
1000
0001
1000
0001
,  // measure 55
1000
0010
0100
0000
0010
0100
0002
0000
,  // measure 56
0000
0103
0001
0010
0100
1000
0001
0100
,  // measure 57
0000
0010
1000
0000
0010
1000
0002
0000
,  // measure 58
0000
1003
0100
0010
0001
1000
0010
0100
,  // measure 59
0000
0001
0010
0000
0001
1000
0020
0000
,  // measure 60
0000
1030
0100
0010
0001
1000
0010
0100
,  // measure 61
0000
0010
0100
0000
0010
1000
0002
0000
,  // measure 62
0000
1003
0100
0010
0001
1000
0100
0000
,  // measure 63
0101
0000
0000
0000
;

//---------------dance-single - ----------------
#NOTES:
     dance-single:
     :
     Medium:
     6:
     0.441,0.425,0.333,0.039,0.000:
1000
0001
1000
0100
,
1000
0100
0010
1001
,
0001
1000
0001
0010
,
0001
0010
0100
1001
,
1000
0010
1000
0001
,
0000
0010
0100
1000
,
0001
0100
0001
1000
,
0000
0100
0010
0001
,
1000
0000
0001
0000
1000
0100
1000
0100
,
0000
1000
0000
0001
0000
1000
0001
0000
,
0001
0000
1000
0000
0001
0010
0001
0010
,
0000
0001
0000
1000
0000
0001
1000
0000
,
0010
0000
0100
0000
0010
1000
0001
0010
,
0000
0001
0000
0001
0000
1000
0001
0000
,
0100
0000
0010
0000
0100
0001
1000
0100
,
0000
1000
0000
1000
0000
0001
1000
0000
,
0010
0000
0100
0000
0010
1000
0001
0010
,
0000
0001
0000
0001
0000
1000
0001
0000
,
0100
0000
0010
0000
0100
0001
1000
0100
,
0000
1000
0001
0000
0001
0000
0001
0000
,
1001
0000
1000
0000
1010
0000
0100
1001
,
0000
0000
0001
0000
0101
0000
0010
1001
,
0000
1000
1000
0100
,
0010
0000
0001
0000
1000
0000
0001
1000
,
0001
0000
0001
0000
0011
0000
0100
1001
,
0000
0000
1000
0000
1100
0000
0010
1001
,
0000
0000
0001
0000
0001
0000
1000
1010
,
0000
0000
0100
0010
0100
0000
0001
0101
,
0000
0000
0000
1100
0000
0000
0000
1001
,
0000
0000
0000
0010
,
0020
0000
0031
0010
,
0100
1000
0010
0100
,
0002
0000
0000
0000
1003
0000
0100
0010
,
0000
0001
0000
1000
0000
0001
1000
0000
,
2001
0000
3001
0010
,
0100
1000
0001
1000
,
0200
0000
0000
0000
1300
0000
0100
0010
,
0000
0001
0000
0100
0001
1000
0001
1000
,
1001
0001
1100
1100
,
0001
0101
1000
1100
,
0001
0101
1000
1100
,
0001
0000
0010
0000
0100
1000
0001
1001
,
0000
0000
0010
0000
0010
0001
1000
1001
,
0000
0100
0100
1000
,
0001
0100
0000
0010
1000
0000
0100
0010
,
0000
0001
1000
0000
0010
0100
0010
0100
,
0010
1000
0011
0011
,
1000
1010
0001
0011
,
1000
1010
0001
0011
,
1000
0000
0100
0000
0010
0001
1000
1001
,
0000
0000
0100
0000
0100
1000
0001
1001
,
0000
0010
0010
0001
,
1000
0010
0000
0100
0001
0000
0010
0100
,
0000
1000
0001
0000
0100
0010
0100
0010
,
0100
0000
0100
0000
0100
0001
1000
0000
,
0010
0000
0010
0000
0010
1000
0001
0000
,
0100
0000
0100
0000
0100
0001
1000
0000
,
0010
0000
0010
0000
0010
1000
0001
0000
,
0100
0000
0100
0000
0100
0001
0010
0000
,
0010
0000
0010
0000
0010
1000
0100
0000
,
0100
0000
0100
0000
0100
0001
0010
0000
,
0010
0000
0010
0000
0010
1000
0100
0000
,
1001
0000
0000
0000
;

//---------------dance-single - ----------------
#NOTES:
     dance-single:
     :
     Beginner:
     1:
     0.081,0.152,0.098,0.000,0.000:
1000
0000
0000
0000
,
0000
0000
0000
0000
,
0001
0000
0000
0000
,
0000
0000
0000
0000
,
1001
0000
0000
0000
,
0000
0000
0000
0000
,
0001
0000
0000
0000
,
0000
0000
0000
0000
,
1000
0000
0000
0000
,
0000
0000
0000
0000
,
0001
0000
0000
0000
,
0000
0000
0000
0000
,
1000
0000
0000
0000
,
1000
0000
0000
0000
,
1000
0000
0000
0000
,
0000
0000
0000
0000
,
0001
0000
0000
0000
,
0001
0000
0000
0000
,
0001
0000
0000
0000
,
0000
0000
0000
0000
,
1001
0000
0000
0000
,
1000
0000
0000
0000
,
0001
0000
0000
0000
,
0000
0000
0000
0000
,
1001
0000
0000
0000
,
0001
0000
0000
0000
,
1000
0000
0000
0000
,
1000
0000
0000
0000
,
0001
0000
0000
0000
,
1000
0000
0000
0000
,
1001
0000
0000
0000
,
0000
0000
0000
0000
,
0010
0000
0000
0000
,
0000
0000
0000
0000
,
0001
0000
0000
0000
,
0000
0000
0000
0000
,
0010
0000
0000
0000
,
0000
0000
0000
0000
,
0100
0000
0000
0000
,
1000
0000
0000
0000
,
0100
0000
0000
0000
,
1000
0000
0000
0000
,
1001
0000
0000
0000
,
1001
0000
0000
0000
,
1000
0000
0000
0000
,
0000
0000
0000
0000
,
1000
0000
0000
0000
,
0010
0000
0000
0000
,
1000
0000
0000
0000
,
0001
0000
0000
0000
,
0100
0000
0000
0000
,
1001
0000
0000
0000
,
1001
0000
0000
0000
,
0000
0000
0000
0000
,
1001
0000
0000
0000
,
1000
0000
0000
0000
,
0001
0000
0000
0000
,
0010
0000
0000
0000
,
0100
0000
0000
0000
,
1000
0000
0000
0000
,
0100
0000
0000
0000
,
0010
0000
0000
0000
,
1001
0000
0000
0000
;
