#TITLE:In the Shadows;
#SUBTITLE:;
#ARTIST:The Rasmus;
#TITLETRANSLIT:;
#SUBTITLETRANSLIT:;
#ARTISTTRANSLIT:;
#CREDIT:DMAxel;
#BANNER:In the Shadows.png;
#BACKGROUND:In the Shadows-bg.png;
#LYRICSPATH:In the Shadows.lrc;
#CDTITLE:DMAxel Original Simfile.png;
#MUSIC:In the Shadows.mp3;
#OFFSET:-0.400;
#SAMPLESTART:54.366;
#SAMPLELENGTH:12.000;
#SELECTABLE:YES;
#BPMS:0.000=106.050;
#STOPS:;
#BGCHANGES:;

//---------------dance-single - ----------------
#NOTES:
     dance-single:
     :
     Challenge:
     7:
     0.431,0.486,0.317,0.129,0.163: // measure 1
0000
0000
0000
0000
,  // measure 2
0000
0000
0000
0000
,  // measure 3
0000
0000
0000
0000
,  // measure 4
0000
0000
0000
0000
,  // measure 5
0000
0000
0000
0000
0011
0000
0000
0000
1001
0000
0000
0010
0000
1000
0100
0000
,  // measure 6
1000
0000
0100
0000
1001
0000
0000
0000
1100
0000
0000
0001
0000
0100
0001
0000
,  // measure 7
0010
0000
0100
0000
1001
0000
0000
0000
1010
0000
0000
0100
0000
0001
0100
0000
,  // measure 8
0001
0000
0010
0000
1001
0000
0000
0000
0101
0000
0000
0010
0000
1000
0010
0000
,  // measure 9
1000
0100
1001
0000
0011
0000
0100
0001
,  // measure 10
0010
0100
1000
0000
0010
0000
0100
0010
,  // measure 11
1000
0100
0010
0000
0001
0010
0000
0100
,  // measure 12
0010
0001
0000
0010
0100
0000
1000
0010
,  // measure 13
0100
0010
0100
0000
0001
0000
0010
0100
,  // measure 14
1000
0100
1000
0000
0010
0000
0100
0001
,  // measure 15
0010
0100
1000
0000
1000
0010
0000
0100
,  // measure 16
1000
0100
0000
0010
0001
0000
0100
0010
,  // measure 17
0100
0000
0001
0010
0002
0000
0000
0023
0000
0000
0000
0000
0230
0000
0000
2300
,  // measure 18
0000
0000
0000
0000
3010
0010
0100
0001
,  // measure 19
0010
0100
1000
0000
0010
0100
0000
0100
,  // measure 20
0001
0010
0100
0000
1000
0010
1000
0000
,  // measure 21
0010
0000
0100
0000
0002
0000
0000
0203
0000
0000
0000
0000
0320
0000
0000
2030
,  // measure 22
0000
0000
0000
0000
3001
0001
0010
0100
,  // measure 23
1000
0010
0100
0000
0011
0000
1001
0001
,  // measure 24
0010
0000
0100
0000
0000
0000
1100
0000
0000
1001
0000
0000
0011
0000
0000
0000
,  // measure 25
0000
0000
1001
1000
0100
0010
0001
0010
,  // measure 26
0010
0001
0010
0100
1000
0010
1000
0100
,  // measure 27
0100
0010
0001
0100
0001
0010
0100
1000
,  // measure 28
1000
0010
0100
0001
0100
0001
0010
0001
,  // measure 29
0010
1000
0010
0100
0100
0001
0100
0001
,  // measure 30
0010
1000
0010
0001
0001
0010
0100
1000
,  // measure 31
0100
0001
0010
0010
0001
0100
0001
1000
,  // measure 32
0100
0000
1000
0000
0010
0100
0010
0100
0001
0100
0001
0100
0010
1000
0010
1000
,  // measure 33
0010
0100
0011
0100
2000
0000
0010
0000
,  // measure 34
3010
0000
0200
0000
0001
0301
0000
0010
,  // measure 35
0100
1000
0020
0000
1000
0000
1030
0000
,  // measure 36
0002
0000
0100
0000
0000
0103
0010
0100
,  // measure 37
0001
0010
1100
1000
0100
0010
0001
0100
,  // measure 38
0001
0010
0002
0000
0000
0103
0000
0010
,  // measure 39
1000
0100
0011
0001
0100
0000
0010
1000
,  // measure 40
0100
0000
0010
0000
1001
0000
0010
0000
0001
0100
0000
0100
0010
0000
0000
0000
,  // measure 41
0000
0000
0000
0000
1001
0000
0000
0000
1010
0000
0100
0001
0000
0010
0001
0000
,  // measure 42
0010
0000
0100
0000
1001
0000
0000
0000
0101
0000
0010
1000
0000
0100
1000
0000
,  // measure 43
0100
0000
0010
0000
1001
0000
0000
0000
1100
0000
0010
0001
0000
0100
0001
0000
,  // measure 44
0010
0000
0100
0000
1001
0000
0000
0000
0011
0000
0100
1000
0000
0010
1000
0000
,  // measure 45
0100
0000
0010
0000
0011
0000
0000
0000
1001
0000
0100
1000
0000
0100
0010
0000
,  // measure 46
0001
0000
0010
0000
1100
0000
0000
0000
1001
0000
0010
0001
0000
0010
0100
0000
,  // measure 47
1000
0000
0010
0000
0101
0000
0000
0000
1001
0000
0010
1000
0000
0100
0010
0000
,  // measure 48
0001
0000
0100
0000
1010
0000
0000
0000
1001
0000
0100
0001
0000
0010
0100
0000
,  // measure 49
1000
0010
0220
0000
0000
0000
0000
0000
,  // measure 50
0000
0330
0000
0000
;

//---------------dance-single - ----------------
#NOTES:
     dance-single:
     :
     Easy:
     3:
     0.189,0.232,0.206,0.017,0.000: // measure 1
0000
0000
0000
0000
,  // measure 2
0000
0000
0000
0000
,  // measure 3
0000
0000
0000
0000
,  // measure 4
0000
0000
0000
0000
,  // measure 5
0000
1000
1000
1000
,  // measure 6
0000
0001
0001
0001
,  // measure 7
0000
1000
1000
1000
,  // measure 8
0000
0001
0001
0001
,  // measure 9
0000
0100
0000
0000
,  // measure 10
0000
0100
0000
0000
,  // measure 11
0000
0100
0000
0000
,  // measure 12
0000
0010
0000
0000
,  // measure 13
0000
0010
0000
0000
,  // measure 14
0000
0010
0000
0000
,  // measure 15
0000
1000
0000
0000
,  // measure 16
0000
0001
0000
0000
,  // measure 17
0000
1001
0000
1001
,  // measure 18
0000
0000
0000
0010
,  // measure 19
0000
0010
0000
0010
,  // measure 20
0000
0010
0000
0000
,  // measure 21
0000
1001
0000
1001
,  // measure 22
0000
0000
0000
0100
,  // measure 23
0000
0100
0000
0100
,  // measure 24
0000
0100
0000
0000
,  // measure 25
0000
1001
0010
0010
,  // measure 26
0010
1001
0100
0100
,  // measure 27
0100
1001
0010
0010
,  // measure 28
0010
1001
0100
0100
,  // measure 29
0100
1001
0010
0001
,  // measure 30
0010
1001
0100
1000
,  // measure 31
0100
1001
0100
0001
,  // measure 32
0100
1001
0010
0010
,  // measure 33
0010
1001
0100
1000
,  // measure 34
0100
0010
0001
1000
,  // measure 35
0001
1000
0010
0100
,  // measure 36
0010
1000
0100
0010
,  // measure 37
0001
1001
0010
0001
,  // measure 38
0100
0001
0010
0100
,  // measure 39
1000
1001
0100
1000
,  // measure 40
0010
1000
0100
1000
,  // measure 41
0000
1001
0011
0100
,  // measure 42
1000
0010
0100
0010
,  // measure 43
1000
1001
1100
0010
,  // measure 44
0001
0100
0010
1000
,  // measure 45
0010
1001
1010
0100
,  // measure 46
0001
0100
0100
0010
,  // measure 47
1000
1001
0101
0010
,  // measure 48
0010
1000
0010
0100
,  // measure 49
0001
2002
0000
0000
,  // measure 50
0000
3003
0000
0000
;

//---------------dance-single - ----------------
#NOTES:
     dance-single:
     :
     Beginner:
     1:
     0.054,0.062,0.060,0.000,0.000:
0000
0000
0000
0000
,
0000
0000
0000
0000
,
0000
0000
0000
0000
,
0000
0000
0000
0000
,
0000
1000
0000
0000
,
0000
0001
0000
0000
,
0000
1000
0000
0000
,
0000
0001
0000
0000
,
0000
1000
0000
0000
,
0000
0000
0000
0000
,
0000
0001
0000
0000
,
0000
0000
0000
0000
,
0000
1000
0000
0000
,
0000
0000
0000
0000
,
0000
0010
0000
0000
,
0000
0000
0000
0000
,
0000
1001
0000
0000
,
0000
0000
0000
0000
,
0000
0001
0000
0000
,
0000
0000
0000
0000
,
0000
1000
0000
0000
,
0000
0000
0000
0000
,
0000
0010
0000
0000
,
0000
0000
0000
0000
,
0000
1001
0000
0000
,
0000
1000
0000
0000
,
0000
0100
0000
0000
,
0000
0010
0000
0000
,
0000
1001
0000
0000
,
0000
0001
0000
0000
,
0000
0010
0000
0000
,
0000
0100
0000
0000
,
0000
1001
0000
0000
,
0000
1000
0000
0000
,
0000
0001
0000
0000
,
0000
1000
0000
0000
,
0000
0010
0000
0000
,
0000
0100
0000
0000
,
0000
0010
0000
0000
,
0000
1000
0000
0000
,
0000
1001
0000
0000
,
0000
0001
0000
0000
,
0000
1000
0000
0000
,
0000
0001
0000
0000
,
0000
1001
0000
0000
,
0000
0100
0000
0000
,
0000
0010
0000
0000
,
0000
0100
0000
0000
,
0000
1001
0000
0000
;

//---------------dance-single - ----------------
#NOTES:
     dance-single:
     :
     Hard:
     6:
     0.326,0.359,0.309,0.077,0.030: // measure 1
0000
0000
0000
0000
,  // measure 2
0000
0000
0000
0000
,  // measure 3
0000
0000
0000
0000
,  // measure 4
0000
0000
0000
0000
,  // measure 5
0000
1001
1000
0010
,  // measure 6
0010
1001
0101
0010
,  // measure 7
0010
1001
1010
0100
,  // measure 8
0100
1001
0011
0100
,  // measure 9
0100
0000
0000
0000
0002
0000
0000
0000
0000
0000
0000
0000
1003
0000
0000
0010
,  // measure 10
0000
1000
0000
0000
0000
0001
0010
0100
,  // measure 11
1000
0000
0010
0000
0100
0001
0000
0010
,  // measure 12
0100
1000
0000
0010
0000
0000
0000
0000
,  // measure 13
0100
0000
0000
0000
0002
0000
0000
0000
0000
0000
0000
0000
0103
0000
0000
0010
,  // measure 14
0000
0100
0000
0000
0000
0001
0010
0100
,  // measure 15
1000
0010
1000
0000
0100
0010
0000
0001
,  // measure 16
1000
0001
0000
0100
0000
0000
0010
0000
,  // measure 17
0010
0000
0010
0000
1001
0000
0000
2000
0000
0000
0000
0000
0001
0000
0000
3001
,  // measure 18
0000
0000
0000
0000
0000
0010
0100
1000
,  // measure 19
0010
0100
0010
0000
1000
0000
0001
0000
,  // measure 20
0010
0000
0001
0010
0100
0000
1000
0100
,  // measure 21
0010
0000
0000
0000
1001
0000
0000
0002
0000
0000
0000
0000
1000
0000
0000
1003
,  // measure 22
0000
0000
0000
0000
0000
0100
0010
0001
,  // measure 23
0010
0100
1000
0000
0010
0000
1000
0010
,  // measure 24
0100
0000
0010
0000
0000
0000
0100
0000
0000
0100
0000
0000
0110
0000
0000
0000
,  // measure 25
0000
0000
1001
0000
0011
0000
0100
1000
,  // measure 26
0010
0100
1001
0000
1100
0000
0010
0001
,  // measure 27
0100
0010
1001
0000
0101
0000
0010
1000
,  // measure 28
0100
0010
1001
0000
1100
0000
0010
0001
,  // measure 29
0010
0100
2000
0000
0001
0000
3001
0001
,  // measure 30
0010
0100
2000
0000
0001
0000
3001
0010
,  // measure 31
0100
1000
0020
0000
0100
0000
0130
0001
,  // measure 32
0010
0100
1000
0000
1010
0000
0101
0000
,  // measure 33
0110
0000
1001
0010
0100
1000
0010
0000
,  // measure 34
0100
0000
0010
0000
1000
0000
0100
0010
,  // measure 35
0001
0010
0100
0000
1000
0000
0001
0000
,  // measure 36
1000
0000
0010
0000
0100
0001
0000
0010
,  // measure 37
0100
1000
0010
0000
0100
0000
0010
0000
,  // measure 38
1000
0000
0010
0000
0100
0001
0000
0010
,  // measure 39
0100
1000
0010
0000
0100
0000
0001
0010
,  // measure 40
1000
0100
1000
0000
0010
0000
1001
0000
,  // measure 41
0000
0000
0011
0000
1100
0000
0010
0001
,  // measure 42
0010
0000
0101
0000
1010
0000
0100
0001
,  // measure 43
0100
0000
0110
0000
1001
0000
0100
1000
,  // measure 44
0100
0000
1001
0000
0110
0000
0001
0100
,  // measure 45
0001
0010
1001
0000
0110
0000
1000
0010
,  // measure 46
0100
0010
1001
0000
0110
0000
0001
0010
,  // measure 47
0100
1000
0010
0000
1000
0000
0100
0010
,  // measure 48
0001
0010
0001
0000
0100
0000
0010
1000
,  // measure 49
0100
0010
2002
0000
0000
0000
0000
0000
,  // measure 50
0000
3003
0000
0000
;

//---------------dance-single - ----------------
#NOTES:
     dance-single:
     :
     Medium:
     5:
     0.320,0.359,0.394,0.154,0.000: // measure 1
0000
0000
0000
0000
,  // measure 2
0000
0000
0000
0000
,  // measure 3
0000
0000
0000
0000
,  // measure 4
0000
0000
0000
0000
,  // measure 5
0000
1001
1001
0001
,  // measure 6
0010
1001
1001
1000
,  // measure 7
0100
1001
1001
0001
,  // measure 8
0100
1001
1001
1000
,  // measure 9
0100
0010
0001
0010
,  // measure 10
0100
1000
1000
1000
,  // measure 11
0010
0100
0001
0001
,  // measure 12
0001
0100
0010
1000
,  // measure 13
1000
1002
0100
0100
,  // measure 14
0103
0010
1000
0100
,  // measure 15
0010
0001
0100
0001
,  // measure 16
0010
0001
1000
0100
,  // measure 17
1000
1000
2002
0000
3003
0000
0220
0000
,  // measure 18
0000
0330
1000
0100
,  // measure 19
0010
0000
0010
0000
0001
0100
0000
0100
,  // measure 20
0010
0000
1000
0010
1000
0000
0001
0000
,  // measure 21
0100
2002
3003
0220
,  // measure 22
0000
0330
0001
0010
,  // measure 23
0010
0000
0100
0000
1000
0000
0010
0100
,  // measure 24
0010
0000
1000
2002
0000
0000
3003
0000
,  // measure 25
0000
1001
0100
0100
,  // measure 26
0110
0000
1001
0000
0010
0000
0010
0100
,  // measure 27
0010
0000
1001
0000
0100
0000
0100
0010
,  // measure 28
0100
0000
1001
0000
0010
0000
0010
0100
,  // measure 29
0010
0000
1001
0000
0100
0000
1000
0100
,  // measure 30
0010
0000
1001
0000
0010
0000
0001
0010
,  // measure 31
0100
0000
1001
0000
0010
0000
1000
0100
,  // measure 32
0010
1001
0110
1001
,  // measure 33
0110
1001
0010
0001
,  // measure 34
0010
0000
0200
0000
0000
1000
0000
0000
,  // measure 35
1300
0100
0020
0000
0000
0001
0000
0000
,  // measure 36
0031
0010
0200
0000
0000
1000
0000
0000
,  // measure 37
1300
0000
1001
0000
0100
0001
0010
0000
,  // measure 38
0001
0000
2000
0000
0000
3100
0000
1000
,  // measure 39
0100
0010
1001
0000
0010
1000
0100
0000
,  // measure 40
1000
0000
0002
0000
0000
0013
0000
0001
,  // measure 41
0010
0100
1001
0000
1001
0000
1000
0100
,  // measure 42
0010
0001
1001
0000
1001
0000
0001
0010
,  // measure 43
0100
1000
1001
0000
1001
0000
1000
0010
,  // measure 44
0100
0001
1001
0000
1001
0000
0001
0100
,  // measure 45
0010
1000
1001
0000
1001
0000
1000
0100
,  // measure 46
0010
0001
0110
0000
1001
0000
0001
0010
,  // measure 47
0100
1000
0110
0000
1001
0000
0100
0010
,  // measure 48
0100
0001
0110
0000
1001
0000
0010
0010
,  // measure 49
0010
2002
0000
0000
,  // measure 50
0000
3003
0000
0000
;
