#TITLE:いままでのあらすじ;
#SUBTITLE:;
#ARTIST:えすおーえす団;
#TITLETRANSLIT:Ima made no Arasuji;
#SUBTITLETRANSLIT:;
#ARTISTTRANSLIT:SOS-DAN;
#CREDIT:DMAxel;
#BANNER:Ima made no Arasuji.png;
#BACKGROUND:Ima made no Arasuji-bg.png;
#LYRICSPATH:;
#CDTITLE:DMAxel Original Simfile.png;
#MUSIC:Ima made no Arasuji.mp3;
#OFFSET:1.480;
#SAMPLESTART:33.760;
#SAMPLELENGTH:12.000;
#SELECTABLE:YES;
#BPMS:0.000=150.000,52.000=106.000,64.000=115.000,65.000=125.000,66.000=135.000,67.000=140.000,68.000=150.000;
#STOPS:;
#BGCHANGES:3.625=Ima made no Arasuji.avi=1.000=0=0=1,
99999=-nosongbg-=1.000=0=0=0 // don't automatically add -songbackground-
;

//---------------dance-single - ----------------
#NOTES:
     dance-single:
     :
     Hard:
     7:
     0.552,0.533,0.403,0.290,0.024: // measure 1
0000
0000
0000
0000
,  // measure 2
0000
0000
0000
0000
,  // measure 3
0000
0000
0000
0000
,  // measure 4
0001
0010
0100
1000
0100
0010
0001
1000
,  // measure 5
0010
0001
0100
0010
1000
0010
0001
0100
,  // measure 6
2002
3003
0022
0033
,  // measure 7
2002
3003
2020
3030
,  // measure 8
2002
3003
2200
3300
,  // measure 9
1001
0010
0100
1000
,  // measure 10
0001
0001
0010
0100
1000
0100
0001
0000
,  // measure 11
1000
1000
0100
0010
0001
0010
1000
0000
,  // measure 12
0010
0010
1000
0010
0100
0001
1000
0100
,  // measure 13
0001
0010
1000
0010
0200
0000
0000
0000
,  // measure 14
0301
0000
0001
0000
0001
0000
0000
1000
0000
0000
0100
0000
1000
0000
0010
0000
,  // measure 15
0100
0000
0100
0000
0100
0000
0000
0001
0000
0000
0010
0000
0100
0000
1000
0000
,  // measure 16
0010
0000
0010
0000
0010
0000
0000
1000
0000
0000
0001
0000
0100
0000
0010
0000
,  // measure 17
1100
0011
1010
0101
,  // measure 18
1000
0100
0001
0000
0100
0010
0100
0000
,  // measure 19
0001
0100
1000
0000
0010
0100
0010
0000
,  // measure 20
1000
0010
0001
0000
0100
0010
1000
0100
,  // measure 21
1000
0001
1000
0001
1001
0000
0010
0000
,  // measure 22
0101
0000
0100
0000
1010
0000
0010
0100
,  // measure 23
0001
0010
0100
1000
0010
0000
1000
0010
,  // measure 24
0001
0000
0100
0000
1001
0000
0001
0100
,  // measure 25
1000
0000
0010
0000
0011
0000
1000
0010
,  // measure 26
0001
0000
0100
0010
0100
0000
0010
0100
,  // measure 27
0001
0010
0100
1000
0010
0000
0100
0000
,  // measure 28
1001
0000
0010
0000
1000
0100
0010
0001
,  // measure 29
0100
0000
1001
0000
1001
0000
0001
0100
,  // measure 30
1000
0010
1000
0100
0001
0010
0001
0100
,  // measure 31
0001
0010
0100
1000
0100
0010
0001
0010
,  // measure 32
1000
0010
0100
0000
0001
0010
0100
1000
,  // measure 33
0020
0000
0130
0000
1001
0000
1000
0100
,  // measure 34
0001
0100
0010
1000
0100
1000
0001
0010
,  // measure 35
0100
1000
0100
0010
0001
0000
0010
0001
,  // measure 36
2200
3300
0022
0033
,  // measure 37
1001
0110
1001
0001
;

//---------------dance-single - ----------------
#NOTES:
     dance-single:
     :
     Challenge:
     9:
     0.614,0.592,0.322,0.097,0.169: // measure 1
0000
0000
0000
0000
,  // measure 2
0000
0000
0000
0000
,  // measure 3
0000
0000
0000
0000
,  // measure 4
1000
0000
0010
0100
0010
0000
0100
0000
0001
0000
0010
0000
0100
0000
1000
0000
,  // measure 5
0010
0000
0100
0001
0100
0000
0010
1000
0010
0000
0100
0000
0002
0000
0000
0000
,  // measure 6
1003
0000
0100
0000
0010
0000
0010
0000
0001
0100
0000
0100
0000
0000
0000
0000
,  // measure 7
0001
0000
0010
0000
0100
0000
0100
0000
1000
0010
0000
0010
0000
0000
0000
0000
,  // measure 8
1000
0000
0010
0000
0100
0000
0100
0000
0001
0010
0000
0010
0000
0000
0001
0000
,  // measure 9
0010
0100
1000
0010
0100
0100
0010
0000
,  // measure 10
1000
0100
1000
0001
0010
0100
1000
0000
,  // measure 11
0001
0100
0001
0010
0001
1000
0100
0010
,  // measure 12
0001
0000
0100
0000
0001
0000
0010
0000
0001
0000
0100
0000
0010
0100
0010
0000
,  // measure 13
1000
0001
0010
0100
2000
0000
0010
0000
,  // measure 14
3001
0010
0100
1000
0100
0000
0000
1000
0000
0000
0001
0000
0100
0000
0010
0000
,  // measure 15
1000
0010
0100
0001
1000
0000
0000
0001
0000
0000
0100
0000
0010
0000
1000
0000
,  // measure 16
0001
0100
0001
1000
0010
0000
0000
1000
0000
0000
0100
0000
0010
0000
0001
0000
,  // measure 17
1001
0110
1001
0110
,  // measure 18
1000
0010
0001
0000
0100
0010
0100
0000
,  // measure 19
0001
0100
1000
0000
0010
0100
0010
1000
,  // measure 20
0001
0010
1000
0000
0010
0100
0010
1000
,  // measure 21
0001
0000
0010
0000
1000
0000
0100
0000
1001
0000
0000
0010
0100
0000
0001
0000
,  // measure 22
1001
0000
0000
0100
0010
0000
1000
0000
1001
0000
0000
0000
0010
0000
0100
0000
,  // measure 23
0001
0100
1000
0010
0001
0000
1000
0010
,  // measure 24
0001
0000
0110
0000
1001
0010
0100
1000
,  // measure 25
0010
0100
0010
1000
0100
0000
1000
0010
,  // measure 26
1010
0000
0001
0100
0101
0000
1000
0100
,  // measure 27
0001
0010
1000
0010
0100
0000
0001
0010
,  // measure 28
1000
0000
0110
0000
1001
0100
0010
0001
,  // measure 29
0100
0001
0010
0000
1001
0000
0001
0100
,  // measure 30
1000
0010
1000
0010
0001
0010
0001
0010
,  // measure 31
0100
1000
0100
0010
0001
0100
0001
0010
,  // measure 32
1000
0010
1000
0001
0010
0100
1000
0010
,  // measure 33
1000
0100
0001
0010
1000
0000
0001
0100
,  // measure 34
0010
1000
0100
0010
0001
0010
0100
1000
,  // measure 35
0001
0100
1000
0010
0001
1000
0010
1000
,  // measure 36
2002
3003
0220
0330
,  // measure 37
0011
0110
1100
1001
;

//---------------dance-single - ----------------
#NOTES:
     dance-single:
     :
     Easy:
     4:
     0.375,0.414,0.547,0.161,0.000: // measure 1
0000
0000
0000
0000
,  // measure 2
0000
0000
0000
0000
,  // measure 3
0000
0000
0000
0000
,  // measure 4
1000
1000
0010
0010
,  // measure 5
0100
0001
0010
0100
,  // measure 6
1001
0000
0011
0000
,  // measure 7
1001
0000
1100
0000
,  // measure 8
1001
0000
0101
0000
,  // measure 9
1001
0000
1010
0000
,  // measure 10
0001
1000
0010
0100
,  // measure 11
0010
1000
1000
0010
,  // measure 12
0100
0001
0010
0010
,  // measure 13
0001
0010
0100
1000
,  // measure 14
0020
0000
0130
0001
,  // measure 15
2000
0000
3010
0100
,  // measure 16
0002
0000
0013
0100
,  // measure 17
1000
1001
0010
1001
,  // measure 18
0200
0000
0301
0010
,  // measure 19
0002
0000
0103
0010
,  // measure 20
2000
0000
3010
0100
,  // measure 21
1001
0010
1001
0000
,  // measure 22
1100
0010
1100
0010
,  // measure 23
0100
0001
0100
0100
,  // measure 24
0011
0100
0011
0100
,  // measure 25
0010
1000
1000
0010
,  // measure 26
1010
0010
1010
0100
,  // measure 27
0010
1000
0100
0010
,  // measure 28
0101
0010
0101
0010
,  // measure 29
1001
0110
1001
0010
,  // measure 30
0101
0010
0101
0010
,  // measure 31
1000
0100
0010
0001
,  // measure 32
0110
1000
0110
0001
,  // measure 33
0010
0100
1000
0010
,  // measure 34
1001
0100
1001
0010
,  // measure 35
0001
0010
0100
1000
,  // measure 36
0022
0033
2200
3300
,  // measure 37
1001
0110
1001
1000
;

//---------------dance-single - ----------------
#NOTES:
     dance-single:
     :
     Medium:
     6:
     0.504,0.473,0.419,0.209,0.000: // measure 1
0000
0000
0000
0000
,  // measure 2
0000
0000
0000
0000
,  // measure 3
0000
0000
0000
0000
,  // measure 4
0001
0010
0001
1000
0010
1000
0001
0000
,  // measure 5
1000
0100
1000
0001
0100
0001
1000
0000
,  // measure 6
2002
3003
1000
0100
,  // measure 7
0022
0033
0100
1000
,  // measure 8
0202
0303
0010
0100
,  // measure 9
2020
3030
0100
0001
,  // measure 10
0000
0100
0010
0100
0001
0000
0010
0000
,  // measure 11
0001
0100
0001
0100
0010
0000
1000
0000
,  // measure 12
0100
1000
0010
0000
0100
0000
0001
0100
,  // measure 13
1000
0010
0100
0001
2000
0000
0000
0000
,  // measure 14
3001
0000
0001
0000
0100
0010
0100
0000
,  // measure 15
1001
0000
1000
0000
0010
0100
0010
0000
,  // measure 16
1001
0000
0001
0000
0100
0010
1000
0100
,  // measure 17
0011
1100
0011
1100
,  // measure 18
0001
0010
0001
0000
1000
0010
0100
0001
,  // measure 19
1000
0100
1000
0000
0001
0010
0100
1000
,  // measure 20
0001
0100
0001
0000
1000
0100
0010
0001
,  // measure 21
0100
0010
0100
0010
1001
0000
0110
0000
,  // measure 22
1001
1000
1001
0001
,  // measure 23
0100
0010
0100
0010
1000
0000
0010
0000
,  // measure 24
1001
0000
1000
0000
0010
0100
0010
0100
,  // measure 25
0001
1001
1000
0010
,  // measure 26
1010
0000
0100
0000
0101
0000
0001
0010
,  // measure 27
0100
1000
0100
0010
0001
0000
0100
0000
,  // measure 28
0101
0000
0010
0000
1000
0010
0100
0001
,  // measure 29
0100
0000
0010
0000
1001
0000
0010
0001
,  // measure 30
0010
0000
0100
1000
0100
0000
1000
0100
,  // measure 31
0010
0001
0010
0100
1000
0000
0100
1000
,  // measure 32
0010
0000
1001
0000
1000
0100
0010
0001
,  // measure 33
0100
0000
1001
0000
0010
0000
1000
0010
,  // measure 34
1000
0000
0001
0010
0001
0000
1000
0100
,  // measure 35
0010
0001
0010
0100
1000
0000
0010
0100
,  // measure 36
0022
0033
2200
3300
,  // measure 37
0010
0110
1001
0001
;

//---------------dance-single - ----------------
#NOTES:
     dance-single:
     :
     Beginner:
     2:
     0.147,0.235,0.161,0.000,0.000:
0000
0000
0000
0000
,
0000
0000
0000
0000
,
0000
0000
0000
0000
,
1000
0000
0000
0000
,
0001
0000
0000
0000
,
1001
0000
0010
0000
,
1001
0000
0100
0000
,
1001
0000
0000
0000
,
0010
0000
0000
0000
,
0100
0000
0000
0000
,
0100
0000
0000
0000
,
0001
0000
0000
0000
,
0001
0000
0000
0000
,
1001
0000
0000
0000
,
0010
0000
0000
0000
,
0100
0000
0000
0000
,
0010
0000
0010
0000
,
1000
0000
0000
0000
,
0001
0000
0000
0000
,
1000
0000
0000
0000
,
1001
0000
1001
0000
,
0010
0000
0010
0000
,
0100
0000
0100
0000
,
0001
0000
0001
0000
,
1000
0000
1000
0000
,
0001
0000
0001
0000
,
1000
0000
1000
0000
,
0010
0000
0010
0000
,
0100
0000
0100
0000
,
0001
0000
1000
0000
,
0001
0000
1000
0000
,
0010
0000
0100
0000
,
0010
0000
0100
0000
,
0001
0000
1000
0000
,
0001
0000
1000
0000
,
1001
0000
0110
0000
,
1001
0000
1001
0000
;
