#TITLE:いつか帰るところ;
#SUBTITLE:(「まほろば」 hidden track ver.);
#ARTIST:植松伸夫;
#TITLETRANSLIT:ITSUKA KAERU TOKORO;
#SUBTITLETRANSLIT:('MAHOROBA' hidden track ver.);
#ARTISTTRANSLIT:NOBUO UEMATSU;
#CREDIT:DMAxel;
#BANNER:ITSUKA KAERU TOKORO ('MAHOROBA' hidden track ver.).png;
#BACKGROUND:ITSUKA KAERU TOKORO ('MAHOROBA' hidden track ver.)-bg.png;
#LYRICSPATH:;
#CDTITLE:DMAxel original simfile.png;
#MUSIC:ITSUKA KAERU TOKORO ('MAHOROBA' hidden track ver.).mp3;
#OFFSET:-0.420;
#SAMPLESTART:43.572;
#SAMPLELENGTH:12.000;
#SELECTABLE:YES;
#BPMS:0.000=88.940,44.000=88.950,48.000=88.850,63.000=88.840,64.000=88.950;
#STOPS:;
#BGCHANGES:;

//---------------dance-single - ----------------
#NOTES:
     dance-single:
     :
     Easy:
     2:
     0.171,0.197,0.114,0.114,0.000:
0000
0000
0000
0000
,
0000
0000
0000
0000
,
2000
0000
0000
0000
,
3002
0000
0000
0000
,
1003
1000
1000
1000
,
0100
0010
0001
1000
,
0001
0001
0001
0001
,
0010
0100
1000
0000
,
1001
0001
0001
0001
,
0010
0100
1000
0001
,
1000
0100
0001
0100
,
1000
0001
1001
0000
,
0002
0000
1003
0100
,
1000
1000
1000
0000
,
2000
0000
3001
0010
,
0001
0001
1000
0000
,
1001
1000
0001
0001
,
1000
0100
0002
0003
,
1001
0001
0001
1000
,
0001
0010
2000
3000
,
1002
0000
2003
0000
,
3200
0000
0320
0000
,
0032
0000
2003
0000
,
3002
0000
1003
0000
,
1001
1000
1000
0001
,
0010
0010
0100
0100
,
1000
0001
0100
0100
,
0001
1000
0010
0000
,
0110
1000
1000
0001
,
0010
0010
0110
0000
,
0110
0001
0001
1000
,
0100
0100
0110
0000
,
1001
0001
1000
0100
,
0010
0001
1000
0000
,
1001
1000
0001
0010
,
0100
1000
0001
1001
,
0000
0000
0000
0000
,
0000
0000
0000
0000
,
0000
0000
0000
0000
,
0000
0000
0000
0000
,
0000
0000
0000
0000
,
0010
0000
0000
0000
;

//---------------dance-single - ----------------
#NOTES:
     dance-single:
     :
     Medium:
     4:
     0.272,0.287,0.472,0.131,0.000:
0000
0000
0000
0000
,
0000
0000
0000
0000
,
0022
0000
0000
0033
,
2002
0000
0000
3003
,
1100
0000
1000
0001
1000
0000
1000
0000
,
0011
0010
1100
0100
,
0011
0000
0001
1000
0001
0000
0001
0000
,
1100
0100
0011
0010
,
1001
0000
0001
0100
0020
0000
1030
0000
,
1010
0001
1010
0001
,
1001
0000
1000
0010
0200
0000
0301
0000
,
0101
1010
1001
0000
,
2000
0000
0001
0001
3001
0000
0010
0000
,
1100
0001
1100
1001
,
0002
0000
1000
1000
1003
0000
0100
0000
,
0011
1000
0011
1001
,
0110
0000
1000
0100
0002
0000
1003
0010
,
0010
0110
1001
0000
,
1001
0000
0110
0000
0001
0010
2000
0000
,
3001
0100
0100
0000
0110
0000
0000
0000
,
1001
0000
0001
0010
0200
0000
0000
1000
,
1300
0001
0100
0110
,
1001
0000
1000
0100
0020
0000
0000
0001
,
0031
1000
0010
0110
,
1001
0000
0001
0010
2000
0000
0000
0001
,
3001
0100
0110
0110
,
1001
0000
1000
0010
0100
0001
0001
0000
,
1001
0100
1001
0000
,
0110
0000
0001
0010
1000
0001
0001
0000
,
0101
1100
1001
0000
,
0110
0000
1000
0100
0001
1000
1000
0000
,
1010
0011
1001
0000
,
1001
0000
0001
0100
1000
0001
0001
0000
,
0011
1010
1001
0001
,
1001
0000
1000
0010
0001
1000
1000
0000
,
1100
0101
1001
2002
,
0000
0000
0000
0000
,
0000
0000
0000
0000
,
0000
0000
0000
0000
,
0000
0000
3003
0000
,
0000
0000
0000
0000
0000
0000
0000
0100
,
0010
0000
0000
0000
;

//---------------dance-single - ----------------
#NOTES:
     dance-single:
     :
     Hard:
     7:
     0.395,0.430,0.227,0.201,0.241: // measure 1
0000
0000
0000
0000
,  // measure 2
0000
0000
0000
0000
,  // measure 3
2020
0000
0000
3030
,  // measure 4
2002
0000
0000
3003
,  // measure 5
0011
0000
0000
0001
0010
0000
0001
0000
2000
0000
0000
0000
3001
0000
1000
0000
,  // measure 6
1000
0010
0100
0000
0001
0010
1000
0000
,  // measure 7
1100
0000
0000
0100
1000
0000
0001
0000
2000
0000
0000
0000
3001
0000
0100
0000
,  // measure 8
0100
0001
0001
1000
1001
0000
0001
0000
,  // measure 9
1010
0000
0000
1000
0001
0000
0010
0000
0200
0000
0000
0000
0310
0000
0000
0000
,  // measure 10
1000
0000
0100
0000
0001
0000
0000
1000
0001
0000
0010
0000
0100
0000
0000
0000
,  // measure 11
1001
0000
0000
1000
0100
1000
0100
1000
0001
0000
0010
0000
0100
0000
0000
1000
,  // measure 12
0001
0001
1000
0100
0020
0000
0031
0000
,  // measure 13
0012
0000
1000
1000
1003
0100
0001
1000
,  // measure 14
1000
0000
0001
0010
0001
0000
0100
0000
0110
0000
0000
0000
1001
0000
0000
0000
,  // measure 15
2100
0000
0001
0001
3001
0010
1000
0001
,  // measure 16
0001
0000
1000
0000
1000
0000
0010
0100
0010
0000
0000
0000
0110
0000
0000
0000
,  // measure 17
1001
0000
0000
1000
0001
0000
0001
0000
0100
0000
0001
0010
0100
0000
1000
0000
,  // measure 18
0001
0000
1000
0100
1000
0000
0001
0000
0101
0000
0000
0000
1001
0000
0000
0000
,  // measure 19
1001
0000
0000
0001
1000
0000
1000
0000
0010
0000
1000
0100
0010
0000
0001
0000
,  // measure 20
1000
0000
1000
0000
0001
0000
0100
0010
2000
0000
0000
0000
3001
0010
0001
0010
,  // measure 21
0002
0000
0000
1003
0010
0000
0100
0000
0002
0000
0000
0000
1000
0000
1003
0100
,  // measure 22
0010
0000
0001
0000
1000
0000
0000
0001
0100
0000
0001
0000
1000
0000
0100
0000
,  // measure 23
2000
0000
0000
3001
0100
0000
0010
0000
2000
0000
0000
0000
0001
0000
3001
0010
,  // measure 24
0100
0000
1000
0000
0001
0000
0001
0000
2000
0000
0000
0000
3001
0010
0001
0010
,  // measure 25
0001
0000
0000
1000
0001
0000
0100
0000
0020
0000
0000
0000
1030
0000
0001
0010
,  // measure 26
0001
0000
1000
0000
1100
0000
0000
0001
1000
0000
0100
0010
0001
0000
1000
0000
,  // measure 27
1100
0000
0000
0001
1000
0001
1000
0100
1000
0000
0010
0000
0100
0000
0000
0001
,  // measure 28
1000
0000
0010
0000
1010
0000
1000
0000
0002
0000
0000
0000
1003
0010
1000
0001
,  // measure 29
0100
0000
0001
0010
0100
0000
0010
0000
0001
0000
1000
0010
0100
0001
0100
0010
,  // measure 30
1000
0000
0010
1000
0001
0000
1000
0000
2000
0000
0000
0000
3001
0100
0001
1000
,  // measure 31
0010
0000
1000
0100
0010
0000
0100
0000
1000
0000
0001
0100
0010
0100
0010
1000
,  // measure 32
0100
0000
0100
0000
1000
0000
1000
0100
0020
0000
0000
0000
0031
0000
0000
0000
,  // measure 33
1001
0000
0000
1000
0001
0000
0010
0000
1000
0000
0100
0010
0001
0000
0100
0000
,  // measure 34
0101
0000
0001
1000
0100
0000
1000
0000
2010
0000
0000
0000
3001
0010
0001
0010
,  // measure 35
0001
0000
0000
1000
0001
0000
0010
0000
1000
0000
0010
0100
0001
0000
1000
0000
,  // measure 36
1100
0000
0001
0000
0011
0000
1000
0100
0010
0000
0000
0000
2002
0000
0000
0000
,  // measure 37
0000
0000
0000
0000
,  // measure 38
0000
0000
0000
0000
,  // measure 39
0000
0000
0000
0000
,  // measure 40
0000
0000
3003
0000
,  // measure 41
0000
0000
0000
0000
0000
0000
0000
0100
,  // measure 42
0110
0000
0000
0000
;

//---------------dance-single - ----------------
#NOTES:
     dance-single:
     :
     Beginner:
     1:
     0.085,0.126,0.105,0.000,0.000:
0000
0000
0000
0000
,
0000
0000
0000
0000
,
0000
0000
0000
0000
,
0000
0000
0000
0000
,
1000
0000
0000
0000
,
0001
0000
0001
0000
,
0001
0000
0000
0000
,
1000
0000
1000
0000
,
1001
0000
0010
0000
,
0010
0000
0010
0000
,
1001
0000
0100
0000
,
0100
0000
0000
0000
,
1001
0000
0001
0000
,
1000
0000
0000
0000
,
1001
0000
1000
0000
,
0001
0000
0000
0000
,
1000
0000
0001
0000
,
1000
0000
0000
0000
,
0001
0000
1000
0000
,
0001
0000
0001
0000
,
1001
0000
1000
0000
,
1000
0000
0010
0000
,
0110
0000
0100
0000
,
0100
0000
0000
0000
,
1001
0000
0001
0000
,
0001
0000
0010
0000
,
0110
0000
0100
0000
,
0100
0000
0000
0000
,
1001
0000
1000
0000
,
1000
0000
0000
0000
,
1001
0000
0001
0000
,
0001
0000
1000
0000
,
0001
0000
0010
0000
,
0100
0000
1000
0000
,
1001
0000
0100
0000
,
0010
0000
0000
1001
,
0000
0000
0000
0000
,
0000
0000
0000
0000
,
0000
0000
0000
0000
,
0000
0000
0000
0000
,
0000
0000
0000
0000
,
0001
0000
0000
0000
;
