#TITLE:とんでもクライシス! THEME #2;
#SUBTITLE:;
#ARTIST:東京スカパラダイスオーケストラ;
#TITLETRANSLIT:INCREDIBLE CRISIS! THEME #2;
#SUBTITLETRANSLIT:;
#ARTISTTRANSLIT:TOKYO SKA PARADISE ORCHESTRA;
#CREDIT:DMAxel;
#BANNER:INCREDIBLE CRISIS! THEME #2.png;
#BACKGROUND:INCREDIBLE CRISIS! THEME #2-bg.png;
#LYRICSPATH:;
#CDTITLE:DMAxel Original Simfile.png;
#MUSIC:INCREDIBLE CRISIS! THEME #2.mp3;
#OFFSET:6.940;
#SAMPLESTART:10.240;
#SAMPLELENGTH:12.000;
#SELECTABLE:YES;
#DISPLAYBPM:188.000;
#BPMS:0.000=94.200,25.000=188.400;
#STOPS:;
#BGCHANGES:0.940=INCREDIBLE CRISIS! THEME #2.avi=1.000=1=1=0,
99999=-nosongbg-=1.000=0=0=0 // don't automatically add -songbackground-
;

//---------------dance-single - ----------------
#NOTES:
     dance-single:
     :
     Hard:
     7:
     0.490,0.486,0.471,0.135,0.007:
0000
0000
0000
0000
,
0000
0000
0000
0000
,
0000
0000
0000
0000
,
0000
0000
0000
0000
,
0000
0000
0002
0000
,
0000
0000
2003
0000
,
0000
3001
0001
1001
,
0000
1000
0000
0100
0000
0010
0000
0001
,
0100
0010
1000
0010
0100
0000
0010
0000
,
0000
1000
0000
0010
0000
0100
0000
0001
,
0010
0100
1000
0001
1000
0000
0010
0000
,
0000
1001
0000
0010
0000
0100
0000
0001
,
0010
0100
1000
0010
0100
0000
0010
0000
,
0000
1001
0000
0100
0000
0010
0000
1000
,
0100
0010
0001
0100
0010
0000
0100
0000
,
0000
1001
0000
1000
0100
0010
0000
0010
,
0100
0001
2000
0000
0000
3010
0000
0000
,
0000
0000
0000
0100
0000
0010
0000
1000
,
0010
0000
0200
0000
0000
0301
0010
0000
,
0000
1001
0000
0100
0000
0010
1000
0100
,
0000
1000
0001
0100
0000
0001
0000
0010
,
0001
0010
0001
0100
0000
0010
0000
0100
,
0000
0000
0001
0000
0000
0000
1000
0000
0000
0000
0001
0000
0100
0000
0000
0010
,
0000
1001
0000
1000
0010
0100
0000
0100
,
0010
1000
0001
1000
0000
1001
0000
0000
,
0000
0010
0000
0100
0010
1000
0000
0010
,
0100
0001
0010
0100
0000
1000
0000
0000
,
0000
1001
0000
0010
0000
0100
0000
0001
,
0010
0000
0001
0000
0100
0000
0010
1000
,
0000
0001
1000
0001
0000
0100
0000
0010
,
0000
1000
0000
0100
0000
1000
0000
0001
,
0000
0100
0001
0000
1010
0000
1100
0000
,
0101
0000
1001
0000
0000
2002
0000
0000
,
0000
3003
0000
1000
0100
1000
0000
0001
,
0010
0100
1000
0000
0000
2002
0000
0000
,
0000
3003
1100
0101
,
1010
0000
1001
0000
0000
1001
0000
0000
,
0000
0011
0000
0010
,
0000
1100
0000
0100
,
0000
0011
0000
0100
,
0000
1010
0000
0100
,
0000
0101
0000
0110
,
0000
1100
0000
0011
,
0000
0011
0011
1100
,
1100
0101
1010
1001
,
0010
0100
0000
0001
0000
0010
0000
0100
,
0000
1000
0001
0100
0010
1000
0010
0000
,
0100
0000
0010
1000
0000
0100
0000
0010
,
0000
0001
1000
0010
0100
0001
0100
0000
,
0010
0000
1000
0001
0000
0010
0000
0100
,
0000
1000
0001
0100
0010
1000
0010
0000
,
0100
0000
0001
1000
0000
0100
0000
0010
,
0000
0001
0010
0001
0010
0001
0000
0000
,
1000
0100
1000
0100
0000
0000
1000
0100
,
0010
2002
0000
0000
0000
0000
0000
0000
,
0000
0000
3003
0000
;

//---------------dance-single - ----------------
#NOTES:
     dance-single:
     :
     Medium:
     5:
     0.315,0.448,0.175,0.027,0.000:
0000
0000
0000
0000
,
0000
0000
0000
0000
,
0000
0000
0000
0000
,
0000
0000
0000
0000
,
0000
0000
0000
0000
,
0000
0000
0000
0000
,
0000
0000
1001
1001
,
1001
0000
0010
0100
,
0010
0100
0010
0000
,
0000
0000
1000
0100
,
1000
0010
1000
0000
,
0000
0000
0001
0010
,
0001
0010
0001
0000
,
0000
0000
1000
0100
,
1000
0100
1000
0000
,
0000
0000
0001
0100
,
0001
0100
0010
1000
,
0100
1000
0100
0010
,
0001
0100
0010
0100
,
0010
1000
0001
0010
,
0100
1000
0100
1000
,
0010
1000
0001
0000
,
1000
0000
0001
0000
,
0000
1001
0000
0000
1000
0000
0100
0000
,
1000
0010
1000
0000
,
0000
0000
0001
0010
,
0001
1000
0001
0000
,
0000
0000
0100
0010
,
0100
0010
1000
0001
,
0010
0001
0001
0001
,
1000
1000
0001
0000
,
1001
0000
0010
0100
,
0001
0010
0001
1000
,
0100
0000
0001
0010
,
0100
1000
0100
1000
,
0010
0100
0001
1000
,
0100
1000
0010
0100
,
0001
0010
0000
1001
,
0000
0100
0000
1001
,
0000
0010
0000
1001
,
0000
0100
0000
0000
,
0000
0011
0000
0100
,
0000
1100
0000
0010
,
0000
0100
0010
1000
,
0100
1000
1001
1001
,
1001
0000
0010
0100
,
0001
0010
0001
0000
,
1000
0000
0001
1000
,
0100
1000
0010
0000
,
0100
0000
0010
0100
,
0010
1000
0001
0000
,
1000
0000
0001
0010
,
0001
0000
1000
0100
1000
0100
0000
0000
,
0010
0001
0010
0001
0000
0000
1000
0001
,
2000
0002
0000
0000
0000
0000
0000
0000
,
0000
0000
3003
0000
;

//---------------dance-single - ----------------
#NOTES:
     dance-single:
     :
     Easy:
     3:
     0.225,0.336,0.188,0.027,0.000:
0000
0000
0000
0000
,
0000
0000
0000
0000
,
0000
0000
0000
0000
,
0000
0000
0000
0000
,
0000
0000
0000
0000
,
0000
0000
0000
0000
,
0000
0000
0000
0000
,
0000
0000
0001
0000
,
0001
0000
1000
0000
,
1000
0000
0010
0000
,
0010
0000
0100
0000
,
0100
0000
0001
0000
,
0001
0000
1000
0000
,
1000
0000
0010
0000
,
0100
0000
0010
0000
,
0000
0000
1000
0000
,
0001
0000
1000
0000
,
0001
0000
0010
0000
,
0001
0000
0100
0000
,
0010
0000
1000
0000
,
0001
0000
0010
0000
,
0001
0000
1000
0000
,
0100
0000
1000
0000
,
0000
1001
0000
0000
0010
0000
0000
0000
,
0100
0000
0010
0000
,
0100
0000
0000
0010
,
1000
0000
0100
0000
,
1000
0000
0001
0000
,
0010
0000
0001
0000
,
0100
0000
0000
0000
,
0000
0000
0000
0000
,
0000
0000
0010
0100
,
0010
1000
0000
0000
,
0000
0000
0001
0010
,
0001
0100
0010
1000
,
0001
1000
0100
1000
,
0010
0100
0001
0010
,
0001
1000
0000
1001
,
0000
0100
0000
0011
,
0000
0100
0000
1100
,
0000
1001
0000
0000
,
0000
1010
0000
0100
,
0000
0101
0000
0010
,
0000
1100
0000
0011
,
0000
1000
1000
1001
,
0000
0000
0010
0100
,
0010
0100
0001
0000
,
0000
0000
0100
0010
,
1000
0100
1000
0000
,
0000
0000
0010
0100
,
0010
0100
0001
0000
,
0000
1000
0010
0100
,
0010
1010
0000
0000
,
1001
0000
0000
0101
,
0000
2002
0000
0000
0000
0000
0000
0000
,
0000
0000
3003
0000
;

//---------------dance-single - ----------------
#NOTES:
     dance-single:
     :
     Challenge:
     9:
     0.648,0.635,0.458,0.067,0.114: // measure 1
0000
0000
0000
0000
,  // measure 2
0000
0000
0000
0000
,  // measure 3
0000
0000
0000
0000
,  // measure 4
0000
0000
0000
0000
,  // measure 5
0000
0000
0000
0000
0000
0000
1000
0100
,  // measure 6
0001
0000
0000
0100
0000
0010
1000
0000
1100
0000
0000
0000
0001
0000
0010
0000
,  // measure 7
1000
0000
0000
0000
1001
0000
0000
0000
0011
0000
0000
0000
1100
0000
0000
0001
,  // measure 8
0010
1001
0000
1000
0100
1000
0010
1000
,  // measure 9
0001
0000
1000
0000
0001
0000
0010
0000
0100
0000
1000
0000
0010
0000
0000
0100
,  // measure 10
0000
1001
0000
0001
0010
0001
0100
0001
,  // measure 11
1000
0000
0001
0000
1000
0000
0100
0000
0010
0000
0001
0000
0100
0000
0000
0010
,  // measure 12
0000
1001
0000
1000
0100
1000
0010
1000
,  // measure 13
0100
0000
1000
0000
0001
0000
0010
0000
0100
0000
1000
0000
0010
0000
0000
0100
,  // measure 14
0000
1001
0000
0001
0010
0001
0100
0001
,  // measure 15
1000
0000
0100
0000
1000
0000
0100
0000
0010
0000
0001
0000
0100
0000
0000
0010
,  // measure 16
0100
1001
0000
1000
0100
0010
0000
0010
,  // measure 17
0100
0000
0000
0000
1001
0000
0000
0001
0100
0000
0000
0001
0100
0000
0000
0001
,  // measure 18
0100
0010
0000
0100
0000
0010
0000
1000
,  // measure 19
0010
0000
0010
0100
0001
0000
0010
0100
,  // measure 20
1000
1001
0000
0100
0000
0001
0010
0100
,  // measure 21
0000
0100
0010
0001
0000
1001
0000
1000
,  // measure 22
0100
1000
0010
0100
0000
0001
0000
0010
,  // measure 23
0000
0000
0100
0000
0000
0000
1000
0000
0001
0000
0100
0000
0010
0000
0000
0100
,  // measure 24
0010
1001
0000
0001
0010
0100
0000
0100
,  // measure 25
0010
1000
0001
1100
0000
0011
0000
1000
,  // measure 26
0100
0010
0000
0010
0100
1000
0000
1000
,  // measure 27
0100
0000
0010
0000
0001
0000
0000
1000
0010
0000
0000
1000
0010
0000
0000
1000
,  // measure 28
0010
1000
0000
0010
0000
0100
0000
0001
,  // measure 29
0010
0000
0101
0000
1010
0000
1000
0010
,  // measure 30
0100
0010
1000
0100
0000
1000
0000
0001
,  // measure 31
0000
0100
0000
0001
0000
0100
0010
0100
,  // measure 32
0001
0100
1000
0000
0011
0000
1100
0000
,  // measure 33
0011
0000
2001
0000
0000
3001
0000
0100
,  // measure 34
0010
0000
1000
0100
0010
0001
0000
0001
,  // measure 35
0100
0010
1002
0000
0000
1003
0000
0010
,  // measure 36
0100
1001
0011
1100
,  // measure 37
0011
0000
2001
0000
0000
3001
0000
0100
,  // measure 38
0010
0000
0010
0100
0000
0000
1001
0000
,  // measure 39
0000
0000
0100
0010
0000
0000
1001
0000
,  // measure 40
0000
0000
0010
0100
0000
0000
1001
0000
,  // measure 41
0000
0000
0100
0010
0000
0000
1001
0000
,  // measure 42
0000
0000
0010
0100
0001
0000
0001
0010
,  // measure 43
1000
0000
0100
1000
0010
0000
1000
0010
,  // measure 44
0001
0000
1000
0100
0010
0001
1000
0100
,  // measure 45
0010
0001
0010
0100
1000
0001
0010
0100
,  // measure 46
1000
0001
0000
1000
0100
1000
0010
1000
,  // measure 47
0001
0000
1000
0000
0100
0000
0010
0000
0001
0000
0100
0000
0010
0000
0000
0100
,  // measure 48
0010
1000
0000
0001
0010
0001
0100
0001
,  // measure 49
1000
0000
0001
0000
0010
0000
0100
0000
1000
0000
0010
0000
0100
0000
0000
0010
,  // measure 50
0100
1001
0000
1000
0001
1000
0010
1000
,  // measure 51
0100
0000
1000
0000
0100
0000
0010
0000
0001
0000
0100
0000
0010
0000
0000
0100
,  // measure 52
0010
1001
0000
0001
1000
0001
0100
0001
,  // measure 53
0010
0001
1000
0100
0010
0001
0000
0000
,  // measure 54
0001
0100
0010
1000
0000
0000
1000
0010
,  // measure 55
0100
2002
0000
0000
0000
0000
0000
0000
,  // measure 56
0000
0000
3003
0000
;

//---------------dance-single - ----------------
#NOTES:
     dance-single:
     :
     Beginner:
     2:
     0.146,0.146,0.081,0.000,0.000:
0000
0000
0000
0000
,
0000
0000
0000
0000
,
0000
0000
0000
0000
,
0000
0000
0000
0000
,
0000
0000
0000
0000
,
0000
0000
0000
0000
,
0000
0000
0000
0000
,
0000
0000
0010
0000
,
0010
0000
0100
0000
,
0000
0000
0100
0000
,
0100
0000
0010
0000
,
0000
0000
1000
0000
,
1000
0000
0001
0000
,
0000
0000
0001
0000
,
0001
0000
1000
0000
,
0000
0000
0010
0000
,
0010
0000
0010
0000
,
0000
0000
0100
0000
,
0100
0000
0100
0000
,
0000
0000
0001
0000
,
0001
0000
0001
0000
,
0000
0000
1000
0000
,
1000
0000
1000
0000
,
0000
0000
0010
0000
,
0010
0000
0010
0000
,
0000
0000
0100
0000
,
0100
0000
0100
0000
,
0000
0000
0001
0000
,
0001
0000
0001
0000
,
0000
0000
1000
0000
,
0001
0000
1000
0000
,
0000
0000
0010
0000
,
0100
0000
0010
0000
,
0000
0000
1000
0000
,
0001
0000
1000
0000
,
0000
0000
0010
0000
,
0100
0000
0010
0000
,
0000
1001
0000
0000
,
0000
1001
0000
0000
,
0000
1001
0000
0000
,
0000
1001
0000
0000
,
0000
0010
0000
0100
,
0000
0010
0000
0100
,
0000
0010
0000
1000
,
0000
0001
0000
0000
,
0000
0000
1000
0000
,
0001
0000
1000
0000
,
0000
0000
0001
0000
,
1000
0000
0001
0000
,
0000
0000
0100
0000
,
0010
0000
0100
0000
,
0000
0000
0010
0000
,
0000
1001
0000
0000
,
0010
0000
0000
0100
,
0000
1001
0000
0000
0000
0000
0000
0000
;
