#TITLE:IMPLANTATION;
#SUBTITLE:;
#ARTIST:TOMOSUKE;
#TITLETRANSLIT:;
#SUBTITLETRANSLIT:;
#ARTISTTRANSLIT:;
#CREDIT:DMAxel;
#BANNER:IMPLANTATION.png;
#BACKGROUND:IMPLANTATION-bg.png;
#LYRICSPATH:;
#CDTITLE:GUITAR FREAKS & drummania.png;
#MUSIC:IMPLANTATION.mp3;
#OFFSET:-10.280;
#SAMPLESTART:23.500;
#SAMPLELENGTH:15.000;
#SELECTABLE:YES;
#BPMS:0.000=145.000;
#STOPS:;
#BGCHANGES:;

//---------------dance-single - ----------------
#NOTES:
     dance-single:
     :
     Beginner:
     2:
     0.105,0.208,0.110,0.000,0.000: // measure 1
1000
0000
0000
0000
,  // measure 2
0001
0000
0000
0000
,  // measure 3
1000
0000
0000
0000
,  // measure 4
0001
0000
0000
0000
,  // measure 5
0100
0000
0000
0000
,  // measure 6
0010
0000
0000
0000
,  // measure 7
0100
0000
0000
0000
,  // measure 8
0100
0000
0000
0000
,  // measure 9
0110
0000
0000
0000
,  // measure 10
0000
0000
0000
0000
,  // measure 11
0001
0000
0000
0000
,  // measure 12
0000
0000
0000
0000
,  // measure 13
1000
0000
0000
0000
,  // measure 14
0000
0000
0000
0000
,  // measure 15
0001
0000
0000
0000
,  // measure 16
0000
0000
0000
0000
,  // measure 17
1001
0000
0000
0000
,  // measure 18
0000
0000
0000
0000
,  // measure 19
1001
0000
0000
0000
,  // measure 20
0000
0000
0000
0000
,  // measure 21
0001
0000
0000
0000
,  // measure 22
1000
0000
0000
0000
,  // measure 23
1001
0000
0000
0000
,  // measure 24
0001
0000
0001
0000
,  // measure 25
0001
0000
1000
0000
,  // measure 26
0001
0000
0000
0000
,  // measure 27
1000
0000
0001
0000
,  // measure 28
1000
0000
0000
0000
,  // measure 29
0010
0000
0100
0000
,  // measure 30
0010
0000
0000
0000
,  // measure 31
0100
0000
0010
0000
,  // measure 32
0100
0000
0000
0000
,  // measure 33
0110
0000
0000
0000
,  // measure 34
0000
0000
0000
0000
,  // measure 35
1001
0000
0000
0000
,  // measure 36
0000
0000
0000
0000
,  // measure 37
1001
0000
0001
0000
,  // measure 38
0001
0000
0001
0000
,  // measure 39
1001
0000
1000
0000
,  // measure 40
1001
0000
1001
0000
,  // measure 41
0001
0000
1000
0000
,  // measure 42
0001
0000
1000
0000
,  // measure 43
0010
0000
0100
0000
,  // measure 44
0010
0000
0100
0000
,  // measure 45
0001
0000
1000
0000
,  // measure 46
0001
0000
1000
0000
,  // measure 47
0010
0000
0100
0000
,  // measure 48
0001
0000
1000
0000
;

//---------------dance-single - ----------------
#NOTES:
     dance-single:
     :
     Easy:
     3:
     0.241,0.262,0.143,0.121,0.000: // measure 1
1001
0001
0000
1000
,  // measure 2
0000
0001
0000
0100
,  // measure 3
0000
0010
0000
1000
,  // measure 4
0000
0010
0100
0010
,  // measure 5
0000
1000
0000
0001
,  // measure 6
0000
0100
0000
0010
,  // measure 7
0000
1000
0000
0001
,  // measure 8
0000
0100
0010
0100
,  // measure 9
1001
0100
1000
0000
,  // measure 10
0100
1000
0001
0000
,  // measure 11
0100
0001
1000
0000
,  // measure 12
0100
1000
0001
0000
,  // measure 13
0010
0001
0100
0000
,  // measure 14
0010
1000
0100
0000
,  // measure 15
1000
0001
0100
0000
,  // measure 16
0001
0100
1000
0100
,  // measure 17
1002
0000
0000
0003
,  // measure 18
0200
0000
0000
0300
,  // measure 19
2001
0000
0000
3000
,  // measure 20
0020
0000
0000
0030
,  // measure 21
1000
0002
0000
0003
,  // measure 22
1000
0002
0000
0003
,  // measure 23
1001
2000
0000
3000
,  // measure 24
0001
1000
0001
1000
,  // measure 25
1001
0001
0001
0001
,  // measure 26
1000
0100
0010
0001
,  // measure 27
1000
1000
1000
1000
,  // measure 28
0001
0010
0100
1000
,  // measure 29
0001
0001
0001
0001
,  // measure 30
1000
0010
0100
0001
,  // measure 31
1000
1000
1000
1000
,  // measure 32
0001
0100
0010
1000
,  // measure 33
2002
0000
0000
0000
,  // measure 34
0000
0000
0000
3003
,  // measure 35
0220
0000
0000
0000
,  // measure 36
0000
0000
0000
0330
,  // measure 37
1001
0000
1000
0000
,  // measure 38
0001
0000
1000
0000
,  // measure 39
0110
0000
0001
0000
,  // measure 40
1001
0110
1001
0000
,  // measure 41
0010
0100
0010
1000
,  // measure 42
0000
0010
1000
0010
,  // measure 43
0000
0100
0001
0100
,  // measure 44
0000
0010
1000
0100
,  // measure 45
0010
0100
0010
0001
,  // measure 46
1000
0100
0010
0100
,  // measure 47
0010
0001
0100
0010
,  // measure 48
1000
0001
0010
0100
;

//---------------dance-single - ----------------
#NOTES:
     dance-single:
     :
     Medium:
     6:
     0.462,0.394,0.318,0.077,0.115: // measure 1
1001
0000
1000
0000
0001
0100
0010
0000
,  // measure 2
0100
0010
0100
0000
0001
0000
1001
0000
,  // measure 3
1000
0010
0100
0000
0010
0100
0010
0000
,  // measure 4
1000
1001
0001
1001
,  // measure 5
1000
0100
0020
0000
0200
0000
0330
0000
,  // measure 6
0001
0010
0200
0000
0020
0000
0330
0000
,  // measure 7
0001
0000
1000
0000
0001
0100
0010
0000
,  // measure 8
0100
0010
0000
0000
0110
0000
0000
0000
0000
0000
1000
0000
0001
0000
0000
0000
,  // measure 9
1001
0000
0001
0100
0001
0000
1000
0100
,  // measure 10
0010
0000
1001
0000
1100
0000
0010
0001
,  // measure 11
1000
0000
1000
0010
1000
0000
0001
0010
,  // measure 12
0100
0000
1001
0000
0101
0000
0010
1000
,  // measure 13
0001
0000
0001
0010
0001
0000
1000
0010
,  // measure 14
0100
0000
1001
0000
1100
0000
0010
0001
,  // measure 15
1000
0000
1000
0100
1000
0000
0001
0010
,  // measure 16
0100
0000
1001
0000
0011
0000
0100
1000
,  // measure 17
0002
0000
1000
0003
,  // measure 18
2000
0000
0001
3000
,  // measure 19
1001
0001
0100
1000
,  // measure 20
0020
0000
0100
0030
,  // measure 21
1001
1000
1100
0000
,  // measure 22
1001
0001
0011
0000
,  // measure 23
1001
1000
1010
0000
,  // measure 24
1001
0001
1000
0001
,  // measure 25
1000
0010
0100
0001
0010
0000
0100
1000
,  // measure 26
0100
0000
0010
0001
0010
0100
1000
0000
,  // measure 27
0001
0100
0010
1000
0100
0000
0010
0001
,  // measure 28
0010
0000
0100
1000
0100
0010
0001
0000
,  // measure 29
1000
0100
0010
0001
0100
0000
0010
1000
,  // measure 30
0010
0000
0100
0001
0100
0010
1000
0000
,  // measure 31
0001
0010
0100
1000
0010
0000
0100
0001
,  // measure 32
0100
0000
0010
1000
0010
0100
0001
0000
,  // measure 33
1001
0000
0001
0000
0001
0000
0000
0000
0000
0010
0000
0010
0000
0010
0000
0000
,  // measure 34
0000
0100
0000
0100
0000
0100
0000
0000
0000
1000
0000
1000
0000
1000
0000
0000
,  // measure 35
1001
0000
1000
0000
1000
0000
0000
0000
0000
0100
0000
0100
0000
0100
0000
0000
,  // measure 36
0000
0010
0000
0010
0000
0010
0000
0000
0000
0001
0000
0001
0000
0001
0000
0000
,  // measure 37
1001
0000
0000
1000
0010
0000
0000
0000
0100
0000
0000
0000
0001
0000
0000
0000
,  // measure 38
0100
0010
0100
0000
0001
0100
1000
0000
,  // measure 39
1001
0000
0000
0001
0100
0000
0000
0000
0010
0000
0000
0000
1000
0000
0001
0000
,  // measure 40
1001
0110
1001
0000
,  // measure 41
0100
0010
1000
0100
1000
0010
0100
0010
,  // measure 42
0000
0100
0010
0100
0001
0010
0001
0100
,  // measure 43
0000
0010
1000
0010
0100
0010
0100
0001
,  // measure 44
0000
0100
0001
0100
0010
0100
0010
1000
,  // measure 45
0000
0010
1000
0001
0010
0001
1000
0010
,  // measure 46
0000
0100
0001
1000
0100
1000
0001
0100
,  // measure 47
0000
0010
1000
0001
0010
0100
1000
0001
,  // measure 48
0100
0001
1000
0100
0010
0001
1000
0010
;

//---------------dance-single - ----------------
#NOTES:
     dance-single:
     :
     Hard:
     9:
     0.576,0.657,0.296,0.153,0.389: // measure 1
1001
0000
0000
0000
0001
0000
0000
0000
1000
0001
0000
0000
0101
0000
0000
0000
,  // measure 2
1000
0001
0000
0000
0101
0000
0000
0000
1000
0001
0000
0000
0101
0000
0000
0000
,  // measure 3
0010
0000
0000
0000
1000
0000
0000
0000
0001
1000
0000
0000
1100
0000
0000
0000
,  // measure 4
0001
1000
0000
0000
1100
0000
0000
0000
0001
1000
0000
0000
1100
0000
0000
0000
,  // measure 5
0010
0001
1000
0000
0010
0100
0010
0000
,  // measure 6
0100
0001
0000
0000
1001
0000
0000
0000
0100
0001
0000
0000
1001
0000
0000
0000
,  // measure 7
0100
1000
0001
0000
0100
0010
0100
0000
,  // measure 8
0010
1000
0000
0000
1001
0000
0000
0000
0010
1000
0010
0000
1001
0000
0000
0000
,  // measure 9
1100
0000
0000
0000
0001
0000
0000
1000
0000
0001
0000
0000
0100
0000
0010
0000
,  // measure 10
0100
0000
0000
0000
0100
0000
0000
0001
0000
1000
0000
0000
0010
0000
0100
0000
,  // measure 11
0001
0000
0000
0000
0100
0000
0000
0001
0000
1000
0000
0000
0010
0000
0100
0000
,  // measure 12
0010
0000
0000
0000
0100
0000
0000
0001
0000
1000
0000
0000
0010
0000
0100
0000
,  // measure 13
0001
0000
0000
0000
0100
0001
0000
1000
0000
0100
0000
0000
1000
0000
0010
0000
,  // measure 14
0100
0000
0000
0000
0010
1000
0000
0001
0000
0010
0000
0000
0001
0000
1000
0000
,  // measure 15
0001
0000
0000
0000
0100
0001
0000
1000
0000
0100
0000
0000
1000
0000
0010
0000
,  // measure 16
0100
0000
0000
0000
0010
1000
0000
0001
0000
0010
0000
0000
0001
1000
0001
0000
,  // measure 17
2001
0000
3200
0000
,  // measure 18
0302
0000
2000
3003
,  // measure 19
1002
0000
0203
0000
,  // measure 20
2300
0000
0000
0000
3002
0000
0003
0101
,  // measure 21
1001
2200
0000
0000
,  // measure 22
3300
0022
0000
0033
,  // measure 23
1001
0220
0000
0330
,  // measure 24
1000
0000
0001
0000
0100
0100
0010
0010
,  // measure 25
1000
0010
1000
0010
1000
0100
0010
0001
,  // measure 26
0010
0100
1000
0001
0100
0010
1000
1000
,  // measure 27
0001
0100
0001
0100
0001
0010
0100
1000
,  // measure 28
0100
0000
0010
0000
0001
0000
1000
0000
0010
0100
0000
0010
0100
0000
0001
0000
,  // measure 29
1000
0100
1000
0100
1000
0001
0010
0100
,  // measure 30
1000
0010
0100
0001
1000
0010
1000
1000
,  // measure 31
0001
0010
0001
0010
0001
1000
0100
0010
,  // measure 32
0001
0000
0100
0000
0010
0000
1000
0000
0010
0100
0000
0010
0100
0000
0001
0000
,  // measure 33
1000
0100
1000
0100
1000
0100
0000
0000
0000
1000
0001
1000
0001
1000
0001
0000
,  // measure 34
0000
0010
0001
0010
0001
0010
0000
0000
0000
0001
0100
0001
0100
0001
0100
0000
,  // measure 35
0001
1000
0001
1000
0001
1000
0000
0000
0000
0010
1000
0010
1000
0010
1000
0000
,  // measure 36
0000
0001
0010
0001
0010
0001
0000
0000
0000
0100
0010
0100
0010
0100
0010
0000
,  // measure 37
1001
0000
0000
0001
0100
0000
0010
0000
0000
0000
0000
1000
0010
0000
0100
0000
,  // measure 38
0000
0000
0000
0010
0100
0000
0001
0000
0000
0000
0000
0100
0010
0000
1010
0000
,  // measure 39
1001
0000
0100
0010
0001
1000
1000
0110
,  // measure 40
0110
1001
1001
0000
,  // measure 41
0100
0001
1000
1000
0100
0010
0100
1000
,  // measure 42
0010
0000
1000
0000
0001
0000
0001
0000
1000
0010
1000
0000
0010
1000
0010
0000
,  // measure 43
0100
0001
1000
1000
0100
0010
0100
1000
,  // measure 44
0010
0000
0100
0000
0001
0000
0001
0000
0100
0001
0100
0000
0001
0100
0001
0000
,  // measure 45
1000
0010
0100
0001
0100
1000
0100
0001
,  // measure 46
0100
0000
0010
0000
0001
0000
1000
0000
0100
1000
0100
0000
1000
0100
1000
0000
,  // measure 47
0001
0010
0100
1000
0100
0001
0100
1000
,  // measure 48
0100
0000
0010
0000
1000
0000
0001
0000
0010
0001
0010
0000
0001
0000
1000
0010
;
