#TITLE:ICARUS;
#SUBTITLE:;
#ARTIST:Eagle;
#TITLETRANSLIT:;
#SUBTITLETRANSLIT:;
#ARTISTTRANSLIT:;
#CREDIT:DMAxel;
#BANNER:ICARUS.png;
#BACKGROUND:ICARUS-bg.png;
#LYRICSPATH:;
#CDTITLE:Beatmania IIDX.png;
#MUSIC:ICARUS.mp3;
#OFFSET:-1.020;
#SAMPLESTART:33.488;
#SAMPLELENGTH:12.000;
#SELECTABLE:YES;
#DISPLAYBPM:*;
#BPMS:0.000=176.000,162.000=126.000,198.000=131.000,206.000=136.000,214.000=141.000,218.000=146.000,222.000=151.000,226.000=156.000,230.000=161.000,232.000=166.000,240.000=171.000,242.000=176.000,246.000=181.000,248.000=186.000,251.000=191.000,253.000=196.000,255.000=201.000,257.000=211.000,259.000=220.999,270.000=231.000,279.500=175.999;
#STOPS:;
#BGCHANGES:;

//---------------dance-single - ----------------
#NOTES:
     dance-single:
     :
     Easy:
     4:
     0.227,0.371,0.115,0.054,0.000:
0000
0000
0000
0000
,
0000
0000
0000
0000
,
0000
0000
0000
0000
,
0000
0000
0000
0000
,
0000
0000
0000
0000
,
0000
0000
0000
0000
,
0000
0000
0000
0000
,
0000
0000
0000
0000
,
0000
0000
0001
0000
,
0000
0000
1000
0000
,
0000
0000
0010
0000
,
0000
0000
0100
0000
,
0000
0000
0010
0000
,
0000
0000
0100
0000
,
0010
0000
0100
0000
,
0001
0000
1000
0000
,
0010
0000
0100
0010
,
0100
0010
1000
0001
,
1000
0001
0010
0001
,
0010
0001
1000
0100
,
1000
0100
1000
0010
,
0100
0010
0100
0001
,
1000
0010
0200
0000
,
0000
0000
0310
0000
,
0000
0000
1000
0100
,
0010
0001
0010
0100
,
0010
1000
0001
1000
,
0010
0100
0001
0010
,
0001
1000
0010
0100
,
0010
1000
1001
0010
,
0100
0001
1000
0010
,
0100
0010
2000
0000
,
0000
0000
3001
0010
,
0001
1000
0010
0100
,
0010
1000
0001
0100
,
0010
0100
0001
1000
,
0010
1000
1001
0010
,
0100
0010
1010
0100
,
0010
1000
0101
0000
,
0000
0000
0000
0000
,
0000
0000
0100
0000
,
0000
0000
0000
0000
,
0000
0000
0000
0000
,
0000
0000
0000
0000
,
0000
0000
0000
0000
,
0000
0000
1001
0000
,
0000
0000
0010
0000
,
0000
0000
0100
0000
,
0000
0000
0001
0000
,
0000
0000
1100
0000
,
0000
0000
1001
0000
,
0000
0000
1001
0000
,
0000
0000
1100
0000
,
0000
0000
0011
0000
,
0000
0000
1010
0000
,
0000
0000
0101
0000
,
0000
0000
0110
0000
,
0000
0000
1000
0000
,
0001
0000
1000
0000
,
0001
0000
0100
0000
,
0010
0100
0010
0000
,
1000
0001
0100
0100
,
0001
0001
0001
1000
,
1000
1000
0010
0010
,
0010
0100
0100
0100
,
0001
0001
0001
1000
,
1000
1000
0010
0010
,
0010
0100
0100
0000
,
0000
0000
0000
0000
,
0000
0000
0000
1001
0000
0000
0000
0000
,
0000
0000
0000
0000
,
0000
0000
0010
0100
,
0010
1000
0100
1000
,
0001
0010
0002
0000
,
0000
0000
0000
0000
,
0000
0000
1003
0100
,
1000
0010
0100
0001
,
1000
0001
2000
0000
,
0000
0000
3020
0000
,
0000
0000
0130
0001
,
0100
0010
1000
0100
,
1000
0100
0010
0001
,
0010
0001
0100
0010
,
1000
0001
1000
0001
,
0100
0010
1000
0100
,
1000
0001
2002
0000
,
0000
0000
0000
0000
,
0000
0000
3003
0000
;

//---------------dance-single - ----------------
#NOTES:
     dance-single:
     :
     Challenge:
     10:
     0.646,0.741,0.654,0.085,0.235: // measure 1
0000
0000
0000
0000
,  // measure 2
0000
0000
0000
0000
,  // measure 3
0000
0000
0000
0000
,  // measure 4
0000
0000
0000
0000
,  // measure 5
0000
0000
0020
0000
,  // measure 6
0130
0000
0002
0000
,  // measure 7
1003
0000
0000
0000
1100
0000
0000
0011
,  // measure 8
0000
2002
0000
0000
,  // measure 9
0000
0000
3003
0000
0001
0000
0100
0010
,  // measure 10
0000
0010
1000
0001
0010
0000
0010
0001
,  // measure 11
0000
0001
0010
0100
1000
0000
1000
0010
,  // measure 12
0000
0010
0100
0001
1000
0000
1000
0010
,  // measure 13
0000
0010
0100
0001
1000
0000
1000
0010
,  // measure 14
0000
0010
1000
0001
0100
0000
0100
0010
,  // measure 15
0000
0010
0100
0001
0010
0000
0010
0001
,  // measure 16
0000
0001
0010
0100
1000
0000
1000
0010
,  // measure 17
0000
0010
0100
0001
1100
0000
1100
0000
,  // measure 18
1000
0010
0100
0001
1000
0000
0011
0000
,  // measure 19
0001
0100
0010
1000
0001
0000
0011
0000
,  // measure 20
1000
0010
0100
0010
1000
0000
1001
0000
,  // measure 21
0010
0100
0001
1000
0001
0010
0100
1000
,  // measure 22
0100
1000
0010
0100
0001
1000
0100
0010
,  // measure 23
0001
0100
0010
1000
0001
0010
0100
1000
,  // measure 24
0100
0000
0010
0000
0001
0000
0100
0000
0011
0000
0000
0110
0000
0000
1100
0000
,  // measure 25
0000
0000
0100
0000
0010
0000
0000
0000
1100
0000
0000
0001
0010
0000
0100
0000
,  // measure 26
0000
0000
0010
0000
0001
0000
1000
0000
0100
0000
0000
0010
0100
0000
1000
0000
,  // measure 27
0000
0000
0100
0000
0010
0000
0001
0000
0010
0000
0000
0100
0010
0000
0001
0000
,  // measure 28
0000
0001
1000
0000
0010
0000
0100
0000
0010
0000
0000
0100
1000
0000
0100
0000
,  // measure 29
0000
0010
0100
0000
1000
0010
0100
0000
0001
0000
0000
0001
0010
0000
0100
0000
,  // measure 30
0000
1000
0010
0000
0100
0000
0001
0000
1000
0000
0000
1000
0010
0000
0100
0000
,  // measure 31
0000
0001
0100
0000
0010
0000
0100
0000
0001
0000
0000
0001
0100
0000
0010
0000
,  // measure 32
0000
1000
0100
0000
0010
0000
0100
0000
1010
0000
0000
1010
0000
0000
1010
0000
,  // measure 33
1001
0000
0000
0101
0000
0000
0101
0000
1001
0000
0000
0010
0100
0000
0001
0000
,  // measure 34
0000
0010
0100
0000
0010
0000
0001
0000
1000
0000
0000
0100
0010
0000
0100
0000
,  // measure 35
0000
1000
0100
0000
0010
0000
0001
0000
0100
0000
0000
0010
1000
0000
0100
0000
,  // measure 36
0000
0010
0001
0000
0010
0000
0100
0000
1000
0000
0000
0010
1000
0000
0010
0000
,  // measure 37
0000
0100
0010
0000
0100
0001
1000
0000
0001
0000
0000
0100
0001
0000
0100
0000
,  // measure 38
0000
0010
1000
0000
0100
0000
0010
0000
0001
0000
0000
1000
0001
0000
1000
0000
,  // measure 39
0000
0010
0100
0000
0001
0000
1000
0000
0002
0000
0000
0000
0000
0000
0010
0000
,  // measure 40
0000
0203
0000
0320
,  // measure 41
0000
0000
0230
0000
,  // measure 42
0000
0000
0020
0000
,  // measure 43
0330
0000
0000
0000
,  // measure 44
0000
0000
0000
0000
,  // measure 45
0000
0000
0000
0000
,  // measure 46
0000
0000
0000
0000
1001
0100
0010
0001
,  // measure 47
0010
0000
0100
0000
1000
0000
0100
0010
0001
0000
0010
0000
0001
0000
0010
0100
,  // measure 48
1000
0000
0010
0000
0100
0000
0001
0010
0100
0000
1000
0000
0100
0000
0010
0000
,  // measure 49
0001
0100
0010
1000
0001
0001
1000
1000
,  // measure 50
0001
0000
0010
0100
1000
0000
0100
0010
1001
0000
0000
0000
0100
0000
0011
0000
,  // measure 51
0000
1100
0010
0000
1001
0000
0100
1010
,  // measure 52
0000
0000
0101
0000
0000
1001
0000
0000
1001
0000
0000
0000
0100
0000
0011
0000
,  // measure 53
0000
1100
0010
0000
1100
0000
0010
0101
,  // measure 54
0000
0000
1010
0000
0000
1000
0100
0010
1001
0000
0000
0000
0100
0000
0011
0000
,  // measure 55
0000
1100
0000
0101
1001
0000
0100
1010
,  // measure 56
0000
0101
0000
0011
1001
0000
0100
0011
,  // measure 57
0000
0000
1100
0000
0000
0000
1010
0000
1001
0000
0000
1100
0000
0000
1100
0000
,  // measure 58
1001
0000
0000
0011
0000
0000
0011
0000
1001
0000
0000
0000
0001
0000
0010
0000
,  // measure 59
1100
0000
1000
0100
0011
0000
0001
0100
,  // measure 60
1010
0000
1000
0010
0101
0000
0010
0100
,  // measure 61
1001
1100
0011
0100
,  // measure 62
1010
1010
0101
0101
,  // measure 63
0101
1001
1001
1100
,  // measure 64
0011
0000
0001
0100
0010
0000
0011
0000
,  // measure 65
0101
0000
1000
0010
0100
0000
0001
0100
,  // measure 66
0010
0000
1001
0000
0001
0010
0001
0010
,  // measure 67
0100
1000
0100
1000
0100
0010
0001
1000
,  // measure 68
0100
0010
0001
0100
0001
0010
0100
1000
,  // measure 69
0100
0010
0001
1000
0100
0010
0001
0010
,  // measure 70
0100
1000
0001
1001
0000
0000
0000
0000
,  // measure 71
0000
0000
0000
0000
0001
0010
0100
1000
,  // measure 72
0100
0000
0010
0000
1001
0000
0000
0000
0101
0000
0000
0010
1000
0000
0100
0000
,  // measure 73
0000
0010
0001
0000
0010
0000
0100
0000
0010
0000
0000
0001
0100
0000
0010
0000
,  // measure 74
0000
1000
0100
0000
1000
0000
0100
0000
0011
0000
0100
0000
1000
0000
0010
0100
,  // measure 75
0000
0000
0010
0000
1000
0000
0001
0010
0000
0000
0001
0000
0010
0000
0100
0000
,  // measure 76
1001
0000
0000
0000
1001
0000
0000
0001
0010
0000
0000
0000
0010
0000
0001
0000
,  // measure 77
0000
0001
0100
0000
0010
0000
1000
0000
0100
0000
0000
0100
1000
0000
0010
0000
,  // measure 78
0000
0100
0001
0000
0010
0000
0001
0000
1100
0000
0000
0000
0010
0000
0100
0000
,  // measure 79
0011
0000
1100
0000
0001
0100
0010
1000
,  // measure 80
1000
0000
0010
0000
0100
0000
0001
0000
1001
0000
0000
0100
0010
0000
0100
0000
,  // measure 81
0000
0001
1000
0000
0010
0000
0100
0000
0011
0000
0000
1000
0010
0000
1000
0000
,  // measure 82
0000
0001
0100
0000
0010
0000
0100
0000
0011
0000
0000
0010
0100
0000
1000
0000
,  // measure 83
0000
1000
0010
0000
0100
0000
0001
0000
1100
0000
0000
1000
0010
0000
0100
0000
,  // measure 84
0000
0100
0010
0000
1000
0000
0001
0000
0010
0000
0000
0100
0010
0000
0001
0000
,  // measure 85
0000
1000
0100
0000
0010
0000
0100
0000
1000
0000
0000
1000
0100
0000
1000
0000
,  // measure 86
0000
0001
0010
0000
0001
0000
0100
0000
2002
0000
0000
0000
0000
0000
0000
0000
,  // measure 87
0000
0000
0000
0000
,  // measure 88
0000
0000
3003
0000
;

//---------------dance-single - ----------------
#NOTES:
     dance-single:
     :
     Hard:
     7:
     0.476,0.606,0.562,0.139,0.092: // measure 1
0000
0000
0000
0000
,  // measure 2
0000
0000
0000
0000
,  // measure 3
0000
0000
0000
0000
,  // measure 4
0000
0000
0000
0000
,  // measure 5
0000
0000
0100
0000
,  // measure 6
0100
0000
0010
0000
,  // measure 7
0010
0000
0000
0000
0100
0000
0000
0010
,  // measure 8
0000
2002
0000
0000
,  // measure 9
0000
3003
0200
0000
,  // measure 10
0000
0000
0320
0000
,  // measure 11
0000
0000
0230
0000
,  // measure 12
0000
0000
0302
0000
,  // measure 13
0000
0000
1003
0000
,  // measure 14
0010
0000
0100
0000
,  // measure 15
0001
0000
1001
0000
,  // measure 16
0100
0000
0020
0000
,  // measure 17
0100
0000
0130
0011
,  // measure 18
0001
0100
0010
1000
0001
0000
1100
0000
,  // measure 19
1000
0010
0100
0001
1100
0000
1000
0010
,  // measure 20
1000
0001
1010
0000
0101
0000
0100
0010
,  // measure 21
1000
0001
1000
0001
1000
0000
1010
0000
,  // measure 22
0010
0110
0100
0101
,  // measure 23
0001
0000
1001
0000
1000
0100
0010
0001
,  // measure 24
0010
0100
1000
0010
1000
0100
0010
0001
,  // measure 25
0010
0100
1001
0000
0010
0000
0100
0000
,  // measure 26
0001
0000
1000
0000
0100
0000
0000
1000
,  // measure 27
0000
1000
0001
0010
0001
0000
0000
0100
,  // measure 28
0000
0000
0010
1000
0100
0000
0000
1000
,  // measure 29
0000
0010
0100
0001
0100
0000
0000
0010
,  // measure 30
0000
0100
0010
1000
0100
0000
0000
1000
,  // measure 31
0000
0000
0010
0100
0001
0000
0000
0100
,  // measure 32
0000
0000
0000
0000
0010
0000
0000
0000
1001
0000
0000
0100
0000
0000
0100
0000
,  // measure 33
1000
0000
0000
0001
0000
0000
0001
0000
1000
0000
0000
0000
1000
0000
0010
0000
,  // measure 34
0000
0010
0100
0001
0010
0000
0010
0001
,  // measure 35
0000
0001
0010
0100
1000
0000
1000
0010
,  // measure 36
0000
0010
1000
0001
0100
0000
0100
0001
,  // measure 37
0000
0001
0100
0010
1000
0000
1000
0100
,  // measure 38
0000
0100
1000
0001
0010
0000
0010
0001
,  // measure 39
0000
1000
0100
0010
2002
0000
0000
0000
,  // measure 40
0000
0000
0000
3003
,  // measure 41
2200
3300
0011
0000
,  // measure 42
0000
0000
0000
0000
,  // measure 43
0000
0000
0000
0000
,  // measure 44
0000
0000
0000
0000
,  // measure 45
0000
0000
0000
0000
,  // measure 46
0000
0000
1001
0010
,  // measure 47
0100
1000
0100
0010
,  // measure 48
0001
0100
0010
1000
,  // measure 49
0100
0010
0001
0100
,  // measure 50
0010
0000
1001
0000
1001
0000
0000
1100
,  // measure 51
0000
0011
0000
0000
1001
0000
0000
0101
,  // measure 52
0000
0000
1010
0000
0000
1001
0000
0000
1001
0000
0000
0000
0000
0000
1100
0000
,  // measure 53
0000
0011
0000
0000
0011
0000
0000
1010
,  // measure 54
0000
0101
0000
0000
1001
0000
0000
1100
,  // measure 55
0000
0011
0000
1000
0001
0000
0000
0101
,  // measure 56
0000
1010
0000
0001
1000
0000
0000
1100
,  // measure 57
0000
0000
0011
0000
0000
0000
1000
0000
1001
0000
0000
0010
0000
0000
0010
0000
,  // measure 58
0001
0000
0000
1000
0000
0000
0100
0000
1001
0000
0000
0000
1000
0000
0100
0000
,  // measure 59
0011
0000
0001
0010
1100
0000
1000
0010
,  // measure 60
0101
0000
0001
0100
1010
0000
0100
0010
,  // measure 61
1001
0011
1100
0010
,  // measure 62
0101
0101
1010
1010
,  // measure 63
1010
1001
1001
0011
,  // measure 64
1100
0000
1000
0010
0100
0000
1100
0000
,  // measure 65
1010
0000
0001
0100
0010
0000
1000
0010
,  // measure 66
0100
0000
1001
0000
1000
0100
1000
0100
,  // measure 67
0010
0001
0010
0001
0010
0100
1000
0001
,  // measure 68
0010
0100
1000
0010
2002
0000
0000
0000
,  // measure 69
0000
0000
0000
0000
,  // measure 70
0000
3003
0000
1001
0000
0000
0000
0000
,  // measure 71
0000
0000
2000
0000
,  // measure 72
0000
0000
0000
0000
3001
0000
0000
0000
1010
0000
0000
0100
0001
0000
0010
0000
,  // measure 73
0000
0100
1000
0000
0100
0000
0010
0000
0100
0000
0000
1000
0010
0000
0100
0000
,  // measure 74
0000
0001
0010
0000
0001
0000
0010
0000
1100
0000
0000
0000
0010
0000
0000
0000
,  // measure 75
0011
0100
1100
0010
,  // measure 76
1001
0000
1001
0000
1100
0000
0100
1000
,  // measure 77
0000
1000
0010
0000
0100
0000
0001
0000
0010
0000
0000
0010
0001
0000
0100
0000
,  // measure 78
0000
0010
1000
0000
0100
0000
1000
0000
0011
0000
0000
0000
0100
0000
0000
0000
,  // measure 79
1100
0010
2002
0000
,  // measure 80
0000
0000
0000
0000
3003
0000
0000
0000
1001
0000
0000
0010
0100
0000
0010
0000
,  // measure 81
0000
1000
0001
0000
0100
0000
0010
0000
1000
0000
0000
0001
0100
0000
0001
0000
,  // measure 82
0000
1000
0010
0000
0100
0000
0010
0000
1000
0000
0000
0100
0010
0000
0001
0000
,  // measure 83
0000
0001
0100
0000
0010
0000
1000
0000
0001
0000
0000
0001
0100
0000
0010
0000
,  // measure 84
0000
0010
0100
0000
0001
0000
1000
0000
0100
0000
0000
0010
0100
0000
1000
0000
,  // measure 85
0000
0001
0010
0000
0100
0000
0010
0000
0001
0000
0000
0001
0010
0000
0001
0000
,  // measure 86
0000
1000
0100
0000
1000
0000
0010
0000
2002
0000
0000
0000
0000
0000
0000
0000
,  // measure 87
0000
0000
0000
0000
,  // measure 88
0000
0000
3003
0000
;

//---------------dance-single - ----------------
#NOTES:
     dance-single:
     :
     Beginner:
     2:
     0.086,0.165,0.062,0.000,0.000:
0000
0000
0000
0000
,
0000
0000
0000
0000
,
0000
0000
0000
0000
,
0000
0000
0000
0000
,
0000
0000
0000
0000
,
0000
0000
0000
0000
,
0000
0000
0000
0000
,
0000
0000
0000
0000
,
0000
0000
0001
0000
,
0000
0000
1000
0000
,
0000
0000
0001
0000
,
0000
0000
1000
0000
,
0000
0000
0010
0000
,
0000
0000
0100
0000
,
0000
0000
0010
0000
,
0000
0000
1001
0000
,
0000
0000
0100
0000
,
0000
0000
0010
0000
,
0000
0000
1000
0000
,
0000
0000
0001
0000
,
0000
0000
1000
0000
,
0000
0000
0100
0000
,
0000
0000
0010
0000
,
0000
0000
1001
0000
,
0000
0000
0100
0000
,
0000
0000
0010
0000
,
0000
0000
1000
0000
,
0000
0000
0100
0000
,
0000
0000
1000
0000
,
0000
0000
0001
0000
,
0000
0000
0010
0000
,
0000
0000
1001
0000
,
0000
0000
0100
0000
,
0000
0000
0010
0000
,
0000
0000
1000
0000
,
0000
0000
0001
0000
,
0000
0000
1000
0000
,
0000
0000
0100
0000
,
0000
0000
1001
0000
,
0000
0000
0000
0000
,
0000
0000
1001
0000
,
0000
0000
0000
0000
,
0000
0000
0000
0000
,
0000
0000
0000
0000
,
0000
0000
0000
0000
,
0000
0000
0010
0000
,
0000
0000
0000
0000
,
0000
0000
0000
0000
,
0000
0000
0000
0000
,
0000
0000
0100
0000
,
0000
0000
0000
0000
,
0000
0000
0010
0000
,
0000
0000
0000
0000
,
0000
0000
0100
0000
,
0000
0000
0001
0000
,
0000
0000
1000
0000
,
0000
0000
0001
0000
,
0000
0000
1000
0000
,
0001
0000
1000
0000
,
0001
0000
1000
0000
,
0001
0000
0100
0000
,
0010
0000
0100
0000
,
0010
0000
0100
0000
,
0010
0000
0100
0000
,
0010
0000
0100
0000
,
0010
0000
1000
0000
,
0000
0000
0000
0000
,
0000
0000
0001
0000
,
0000
0000
0000
0000
,
0000
0000
0000
1001
0000
0000
0000
0000
,
0000
0000
0000
0000
,
0000
0000
1000
0000
,
0000
0000
0000
0000
,
0000
0000
0100
0000
,
0000
0000
0000
0000
,
0000
0000
1000
0000
,
0000
0000
0000
0000
,
0000
0000
0010
0000
,
0000
0000
1001
0000
,
0000
0000
0100
0000
,
0000
0000
0001
0000
,
0000
0000
0010
0000
,
0000
0000
0001
0000
,
0000
0000
1000
0000
,
0000
0000
0100
0000
,
0000
0000
1001
0000
;

//---------------dance-single - ----------------
#NOTES:
     dance-single:
     :
     Medium:
     5:
     0.317,0.404,0.115,0.231,0.000:
0000
0000
0000
0000
,
0000
0000
0000
0000
,
0000
0000
0000
0000
,
0000
0000
0000
0000
,
0000
0000
0020
0000
,
0000
0000
0230
0000
,
0000
0000
0302
0000
,
0000
2000
0000
0000
,
0000
3003
0020
0000
,
0000
0000
0230
0000
,
0000
0000
0320
0000
,
0000
0000
2030
0000
,
0000
0000
3001
0000
,
0100
0000
0010
0000
,
1000
0000
1001
0000
,
0010
0000
0200
0000
,
0000
0000
0300
0010
,
0001
0010
0001
1000
,
0100
1000
0100
0010
,
0001
0100
0010
0100
,
0010
1000
0100
0010
,
1000
0001
1000
0001
,
0010
0100
2000
0000
,
0000
0000
3001
0000
,
0000
0000
1000
0100
,
1000
0010
0100
0001
,
0010
0000
0001
0000
0100
0000
0010
1000
,
0000
0000
0010
0000
0100
0000
0001
0010
,
0000
0100
1000
0000
0010
0000
1000
0100
,
0000
0010
0001
0000
0100
0000
0001
1000
,
0000
0000
0010
0000
0100
0000
0001
1000
,
0000
1000
0001
0000
2000
0000
0000
3010
,
0200
0000
0000
0301
1000
0000
0010
0100
,
0000
0001
0010
0000
0100
0000
1000
0100
,
0000
1000
0100
0010
0001
0000
0001
0100
,
0000
0100
0010
0000
1000
0000
0001
0100
,
0000
0100
0001
1000
0010
0000
0010
0100
,
0000
0100
0001
0000
0001
0000
1000
0100
,
0000
0010
0001
0000
2200
0000
0000
0000
,
0000
0000
0000
0000
,
0000
3300
0011
0000
,
0000
0000
0000
0000
,
0000
0000
0000
0000
,
0000
0000
0000
0000
,
0000
0000
0000
0000
,
0000
0000
2000
0000
,
0000
0000
0000
0000
,
0000
0000
3000
0000
,
0000
0000
0000
0000
,
0001
0000
0001
0000
1001
0000
0000
0100
,
0000
0100
0000
0000
1100
0000
0000
0010
,
0000
0010
0000
0000
0011
0000
0000
1000
,
0000
1000
0000
0000
1010
0000
0000
0001
,
0000
0001
0000
0000
0101
0000
0000
0100
,
0000
0010
0000
0000
1001
0000
0000
0010
,
0000
0100
0000
0000
1001
0000
0000
1000
,
0000
0001
0000
0000
2001
0000
0000
0000
,
3002
0000
1003
0002
,
1003
2000
3001
0200
,
0310
0020
0130
0001
,
0010
0100
1000
0000
,
0010
0100
0001
0010
,
0001
0010
0100
1000
,
0100
0010
0001
0010
,
0100
1000
0100
0010
,
0001
0010
0100
1000
,
0100
0010
0001
1000
,
0100
0010
2002
0000
,
0000
0000
0000
0000
,
0000
3003
0000
1001
0000
0000
0000
0000
,
0000
0000
0002
0000
,
0000
0000
1003
0000
0010
0000
0100
0001
,
0000
0001
0010
0100
1000
0000
1000
0100
,
0000
1000
0100
0010
0002
0000
0000
0000
,
0000
0000
2003
0000
,
0000
0000
0000
0000
3001
0000
0100
0010
,
0000
1000
0100
0010
0001
0000
0001
0100
,
0000
0100
0010
1000
0002
0000
0000
0000
,
0000
0000
2000
0000
,
0000
0000
3003
0000
0011
0000
1000
0100
,
0000
1000
0100
0010
0001
0000
0001
0010
,
0000
0001
0010
0100
1000
0000
1000
0100
,
0000
1000
0010
0100
0001
0000
0001
0010
,
0000
0001
0010
0100
1000
0000
1000
0100
,
0000
1000
0010
0100
0001
0000
0001
0100
,
0000
0010
0100
0010
2002
0000
0000
0000
,
0000
0000
0000
0000
,
0000
0000
3003
0000
;
