#TITLE:I'm In Love Again;
#SUBTITLE:-DJ YOSHITAKA REMIX-;
#ARTIST:Remixed by DJ YOSHITAKA;
#TITLETRANSLIT:;
#SUBTITLETRANSLIT:;
#ARTISTTRANSLIT:;
#CREDIT:DMAxel;
#BANNER:I'm In Love Again -DJ YOSHITAKA REMIX-.png;
#BACKGROUND:I'm In Love Again -DJ YOSHITAKA REMIX--bg.png;
#LYRICSPATH:I'm In Love Again -DJ YOSHITAKA REMIX-.lrc;
#CDTITLE:Beatmania IIDX.png;
#MUSIC:I'm In Love Again -DJ YOSHITAKA REMIX-.mp3;
#OFFSET:-0.140;
#SAMPLESTART:83.751;
#SAMPLELENGTH:12.000;
#SELECTABLE:YES;
#BPMS:0.000=145.000;
#STOPS:;
#BGCHANGES:;

//---------------dance-single - ----------------
#NOTES:
     dance-single:
     :
     Easy:
     3:
     0.250,0.281,0.100,0.176,0.000:
0000
0000
0000
0000
,
0000
0000
0000
0000
,
0000
0000
0000
0000
,
0000
0000
0000
0000
,
0000
1001
0001
0001
,
0001
0010
0100
1000
,
1000
1000
0010
0100
,
0010
0100
0000
0000
,
0000
0010
0100
0000
,
0010
0000
1000
0000
,
0002
0000
0103
0000
,
0010
0000
1000
0000
,
0200
0000
1300
0000
,
0010
0000
0100
0000
,
0002
0000
0013
0000
,
0001
0000
1000
0000
,
0010
0200
0000
0320
,
0000
0230
0000
0302
,
0000
2003
0000
3002
,
0000
0203
0000
0310
,
1001
2200
0000
0000
,
3300
0022
0000
0000
,
0033
2020
0000
0000
,
3030
0202
0000
0000
,
0303
0010
0100
0010
,
0100
0001
0010
0001
,
0010
0001
1000
0100
,
1000
0010
1000
0010
,
0100
1001
0010
0100
,
0010
1000
0100
1000
,
0001
1000
0100
0010
,
0001
0200
0000
0000
,
0000
0310
0000
0000
,
0000
1001
0000
0000
,
0000
0000
0000
0000
,
0000
0010
0000
0000
,
0000
0100
0000
0000
,
0000
0010
0000
0000
,
0000
1000
0000
0000
,
0000
1001
0000
0000
,
0000
0001
0000
0000
,
0000
0010
0000
0000
,
0000
0002
0000
0000
,
0000
1003
0100
1000
,
0010
0100
0010
0100
,
0001
0010
0001
1000
,
0001
1000
0010
0100
,
0010
1000
0100
0010
,
0001
0010
0100
1000
,
0010
0001
0100
1000
,
0010
0200
0000
0000
,
0000
0310
0100
0010
,
1000
0100
0010
0001
,
0001
1000
0100
1000
,
0010
0100
0001
0010
,
1001
0100
0100
1000
,
0010
0100
0100
0001
,
1000
0010
0100
0010
,
1000
0001
0010
0100
,
1000
1001
0100
0010
,
0100
0001
1000
0100
,
0100
1000
0100
0010
,
0010
0001
0010
0100
,
1000
0001
1000
0010
,
0100
0001
0010
0100
,
1000
0100
0010
0001
,
0100
0001
0100
1000
,
0010
1001
0000
0000
;

//---------------dance-single - ----------------
#NOTES:
     dance-single:
     :
     Hard:
     7:
     0.387,0.506,0.150,0.150,0.000:
0000
0000
0000
0000
,
0000
0000
0000
0000
,
0000
0000
0000
0000
,
0000
0000
0000
0000
,
0000
1000
0100
0010
,
0001
0010
0100
1000
,
0010
0100
0001
0010
,
0100
1001
0000
0000
,
0000
0010
1001
0100
,
0010
0000
1000
0000
0100
0000
1000
0100
,
0001
0010
0001
0100
,
0010
1000
0010
0100
,
1001
1001
0100
0010
,
0100
0001
1000
0010
,
1000
0010
0001
0000
0100
0000
0001
0000
,
0010
0100
1000
0001
,
0110
0000
2000
0100
3100
0000
0002
0100
,
0103
0000
2000
0010
3010
0000
0002
0010
,
0013
0000
2000
0100
3100
0000
0002
0100
,
0103
0000
2000
0001
3001
0000
0200
0010
,
0310
1001
0010
0100
,
1000
0100
0010
0001
,
0010
0100
1000
0010
,
0100
0001
0100
0010
,
1001
0000
0100
0010
1000
0000
0001
0100
,
0010
0000
1000
0001
0100
0000
0001
1000
,
0010
0000
1000
0100
1000
0000
0001
0010
,
0001
0000
1000
0010
1000
0000
0001
0100
,
0001
0000
1001
0100
1000
0001
0100
1000
,
0100
0000
0010
0001
0010
1000
0100
0001
,
0100
0000
0010
1000
0100
1000
0001
0010
,
0001
1000
0001
0010
0100
1000
0001
0100
,
1000
0010
1001
0000
0000
0000
0000
0000
,
0010
2002
0000
0000
,
0000
0000
0000
3003
,
0000
0200
0000
0000
,
0000
0320
0000
0000
,
0000
0230
0000
0000
,
0000
0302
0000
0000
,
0000
2003
0000
0100
,
0000
3020
0000
0100
,
0000
0230
0000
0001
,
0000
0302
0000
0000
,
1003
0000
0010
0100
,
0010
1000
0100
1000
,
0100
0001
0010
0001
,
0010
1000
0100
1000
,
0010
0100
0010
0100
,
0001
0010
0100
1000
,
0010
0000
0100
0010
0100
0010
0100
0001
,
1000
0010
1001
0000
0000
0000
0000
0000
,
1000
0000
0001
0100
0010
0000
1000
0100
,
0010
0000
0001
0100
0001
1000
0100
0001
,
0010
0100
1000
0000
0010
0000
1000
0100
,
0010
0001
0100
0000
0001
0000
1000
0000
,
0100
1000
0001
0000
1100
0000
0010
0010
,
0000
0100
0000
0001
0100
0000
0100
0010
,
1000
0000
0011
0000
1100
0000
0010
0100
,
0001
0000
1000
0010
0100
0001
0100
1000
,
0100
0010
1001
0000
1000
0000
0010
0000
,
0100
0000
0001
0100
0010
1000
0100
0001
,
0010
0100
1000
0000
1001
0000
0001
0010
,
1000
0100
0010
0000
0001
0000
0100
0000
,
1001
0000
1000
0000
0001
0010
0100
1000
,
0000
1000
0010
0100
0010
1000
0010
0000
,
0100
0001
0100
0010
0100
0001
0010
0100
,
0010
0001
1000
0100
0010
0100
1000
0001
,
0010
1001
0000
0000
;

//---------------dance-single - ----------------
#NOTES:
     dance-single:
     :
     Challenge:
     8:
     0.472,0.478,0.242,0.033,0.150:
0000
0000
0000
0000
,
0000
0000
0000
0000
,
0000
0000
0000
0000
,
0000
0000
0000
0000
,
0000
0000
0001
0010
0001
0000
0010
0001
,
0100
0000
0010
0100
0010
0000
0100
0010
,
1000
0000
0100
1000
0010
0000
0100
0010
,
0100
1001
0000
0000
,
0010
0100
0000
0010
0100
0000
0000
0000
1001
0000
0000
0000
0010
0000
0000
0000
,
1001
0000
0100
0000
1001
0000
0100
0001
,
0010
0100
1000
0000
0110
0000
0001
0000
,
0110
0000
1000
0000
0110
0000
0001
1000
,
0100
0010
1001
0000
1001
0000
0100
0000
,
0011
0000
0010
0000
1100
0000
1000
0001
,
0010
0100
1000
0000
0101
0000
0010
0000
,
1010
0100
1001
0010
,
1001
0000
0000
0000
1000
0000
0010
0000
0001
0000
0000
0010
0000
0000
0001
0000
,
1000
0000
0000
0100
0000
0000
1000
0000
0010
0000
0000
0100
0000
0000
0001
0000
,
0010
0000
0000
0001
0000
0000
0100
0000
0010
0000
0000
1000
0000
0000
0010
0000
,
0100
0000
0000
0001
0000
0000
1000
0000
0001
0000
0000
0100
0000
0000
0010
0000
,
1001
0000
0000
0000
0001
0000
0010
0000
0001
0000
0100
0000
0001
0000
0000
0010
,
0000
0100
1000
0010
1000
0100
1000
0000
,
0010
0000
0000
0000
1000
0000
0100
0000
1000
0000
0010
0000
1000
0000
0000
0100
,
0000
0010
0001
0100
0001
0010
0001
0000
,
1001
0000
0010
0100
0001
0010
1000
0010
,
0001
0000
0100
0010
1000
0100
0001
0100
,
1000
0000
0001
0100
0001
0100
1000
0100
,
0001
0000
1000
0010
1000
0010
0001
0010
,
1001
0000
0100
0010
0100
0010
1000
0010
,
0001
0000
0100
0010
0100
0010
1000
0100
,
0001
0000
1000
0100
0001
0100
1000
0010
,
0001
0010
1000
0010
0100
0001
0010
0100
,
1000
1001
0000
0000
,
0010
2002
0000
0000
,
0000
0000
0000
3003
,
0000
0000
0000
0000
0001
0000
0000
0001
0000
0000
0001
0000
0100
0000
0000
0100
,
0000
0000
0100
0000
0010
0000
0000
0010
0000
0000
0010
0000
1000
0000
0000
1000
,
0000
0000
1000
0000
0100
0000
0000
0100
0000
0000
0100
0000
0001
0000
0000
0001
,
0000
0000
0001
0000
0010
0000
0000
0010
0000
0000
0010
0000
1000
0000
0000
1000
,
0000
0000
1000
0000
0001
0000
0000
0100
0000
0000
0010
0000
0100
0000
0000
0001
,
0000
0000
1000
0000
0100
0000
0000
0001
0000
0000
0100
0000
0010
0000
0000
1000
,
0000
0000
0001
0000
0010
0000
0000
1000
0000
0000
0100
0000
1000
0000
0000
0010
,
0000
0100
2002
0000
0000
0000
0000
0000
,
3003
0010
0100
0010
,
1000
0100
1000
0100
,
0010
0001
0100
1000
,
0010
0100
0010
1000
,
0010
0000
0000
0000
0001
0000
0000
0010
0000
0000
0001
0000
0100
0000
0000
0010
,
0000
0000
1000
0000
0100
0000
0000
1000
0000
0000
0001
0000
0100
0000
0000
0010
,
0000
0100
0010
0100
0001
0010
0001
1000
,
0100
0010
1001
0000
0000
0000
0000
0000
,
0011
0000
0100
1000
0100
0001
0010
0100
,
1000
0000
0100
0000
1000
0000
0000
0010
0000
0000
0100
0000
0001
0000
0010
0000
,
1000
0010
0001
0000
0010
0100
1000
0001
,
0010
0000
0001
0000
0010
0000
0000
0100
0000
0000
1000
0000
0001
0000
0000
0100
,
0000
0010
1000
0010
0001
0000
1001
0000
,
0100
0010
1000
0100
0001
0100
1000
0000
,
1001
0000
0000
0000
0010
0000
0100
0000
0010
0000
1000
0000
0100
0000
0000
1000
,
0000
0001
0010
0100
1000
0100
0001
0100
,
1000
0000
0011
0000
1010
0000
0100
0010
,
0100
0000
0001
0000
1000
0000
0000
0010
0000
0000
0100
0000
0001
0000
0100
0000
,
1000
0100
0001
0000
1001
0000
1000
0100
,
0010
0000
0001
0000
0100
0000
0000
0010
0000
0000
1000
0000
0010
0000
0000
0100
,
0000
0001
1000
0100
0010
0001
0100
0100
,
0001
0010
0100
1000
0010
1000
0001
0010
,
0100
0010
0001
0100
1000
0100
0010
0100
,
1000
0100
0001
0010
0100
1000
0010
0100
,
0001
1001
0000
0000
;

//---------------dance-single - ----------------
#NOTES:
     dance-single:
     :
     Medium:
     5:
     0.343,0.450,0.117,0.209,0.000:
0000
0000
0000
0000
,
0000
0000
0000
0000
,
0000
0000
0000
0000
,
0000
0000
0000
0000
,
0000
1001
0010
0100
,
1000
0100
0010
0001
,
0100
0010
1000
0100
,
0010
1001
0000
0000
,
2000
3001
0010
0100
,
1000
0100
1000
0010
,
0100
0010
0100
0000
0010
0000
0100
0000
,
0001
1000
0001
1000
,
0101
1001
0100
0010
,
1000
0001
0100
0010
,
0100
0010
0100
0000
0001
0000
1000
0000
,
0010
0100
0001
1000
,
1001
0200
0000
2300
,
0000
3020
0000
0230
,
0000
0302
0000
0023
,
0000
0230
0000
1300
,
0010
0200
0000
0010
,
0000
0320
0000
1000
,
0000
2030
0000
0001
,
0000
3002
0000
0000
,
1003
0000
0001
0100
0001
0000
1000
0010
,
1000
0000
0100
1000
0100
0000
0010
0001
,
0010
0000
0001
0100
0010
0000
1000
0010
,
0100
0000
0001
1000
0100
0000
1000
0001
,
0010
0000
1001
0010
0100
1000
0010
0100
,
0010
0000
1000
0100
0010
0001
0100
0010
,
0100
0000
0001
0010
0001
0010
0001
1000
,
0100
1000
0100
1000
0010
1000
0010
0100
,
0001
0220
0000
0000
,
0330
2002
0000
0000
,
0000
0000
0000
3003
,
0000
0020
0000
0000
,
0000
0230
0000
0000
,
0000
0320
0000
0000
,
0000
2030
0000
0000
,
0000
3002
0000
0000
,
0000
0203
0000
0000
,
0000
0320
0000
0000
,
0000
2030
0000
0000
,
0000
3001
0010
0100
,
1000
0100
0010
0001
,
1000
0010
0100
0001
,
1000
0001
0010
0100
,
1000
0010
0100
0010
,
1000
0001
1000
0001
,
0010
0001
0100
0010
,
1000
1001
0000
0000
,
0001
1000
0100
0010
,
0001
0000
0100
0000
0010
0000
1000
0010
,
0100
0010
1000
0000
0010
0000
0100
0001
,
0010
0001
0100
0000
0001
0000
0010
0000
,
1001
0000
0100
1000
0010
1000
0100
1000
,
0000
1000
0001
0010
0001
0100
0001
0010
,
0000
0002
0000
0103
0010
0000
0100
0000
,
0010
0000
1000
0000
0010
0100
0001
0010
,
0100
1000
1001
0000
0010
0000
1000
0000
,
0010
0000
0100
0000
0010
0000
0100
0001
,
0010
0001
0100
0000
1001
0000
0010
1000
,
0100
1000
0010
0000
0100
0000
0001
0000
,
1001
0000
0001
0010
0100
1000
0010
0100
,
0000
0100
0010
0000
1000
0000
0100
0000
,
0010
0000
0001
0100
0001
0010
0001
0010
,
0100
1000
0000
1000
0010
0000
0100
0001
,
0010
1001
0000
0000
;

//---------------dance-single - ----------------
#NOTES:
     dance-single:
     :
     Beginner:
     1:
     0.081,0.141,0.050,0.000,0.000: // measure 1
0000
0000
0000
0000
,  // measure 2
0000
0000
0000
0000
,  // measure 3
0000
0000
0000
0000
,  // measure 4
0000
0000
0000
0000
,  // measure 5
0000
0000
0000
0000
,  // measure 6
0000
0000
0000
0000
,  // measure 7
0000
0000
0000
0000
,  // measure 8
0000
1001
0000
0000
,  // measure 9
0000
0000
1000
0000
,  // measure 10
0000
0000
0000
0000
,  // measure 11
0010
0000
0000
0000
,  // measure 12
0000
0000
0000
0000
,  // measure 13
0100
0000
0000
0000
,  // measure 14
0000
0000
0000
0000
,  // measure 15
0001
0000
0000
0000
,  // measure 16
0000
0000
0000
0000
,  // measure 17
1000
0000
0000
0000
,  // measure 18
0000
0001
0000
0000
,  // measure 19
0000
1000
0000
0000
,  // measure 20
0000
0001
0000
0000
,  // measure 21
0000
0100
0000
0000
,  // measure 22
0000
0010
0000
0000
,  // measure 23
0000
0100
0000
0000
,  // measure 24
0000
0010
0000
0000
,  // measure 25
0000
1001
0000
0000
,  // measure 26
0000
0001
0000
0000
,  // measure 27
0000
0010
0000
0000
,  // measure 28
0000
0100
0000
0000
,  // measure 29
0000
1000
0000
0000
,  // measure 30
0000
0010
0000
0000
,  // measure 31
0000
0100
0000
0000
,  // measure 32
0000
0001
0000
0000
,  // measure 33
0000
1001
0000
0000
,  // measure 34
0000
0000
0000
0000
,  // measure 35
0000
0000
0000
0000
,  // measure 36
0000
1001
0000
0000
,  // measure 37
0000
0000
0000
0000
,  // measure 38
0000
0010
0000
0000
,  // measure 39
0000
0000
0000
0000
,  // measure 40
0000
0010
0000
0000
,  // measure 41
0000
0000
0000
0000
,  // measure 42
0000
0100
0000
0000
,  // measure 43
0000
0000
0000
0000
,  // measure 44
0000
1001
0000
0000
,  // measure 45
0000
0000
0000
0000
,  // measure 46
0000
0001
0000
0000
,  // measure 47
0000
0000
0000
0000
,  // measure 48
0000
1000
0000
0000
,  // measure 49
0000
0000
0000
0000
,  // measure 50
0000
0010
0000
0000
,  // measure 51
0000
0100
0000
0000
,  // measure 52
0000
0000
0001
0000
,  // measure 53
0001
0000
0001
0000
,  // measure 54
0010
0000
0010
0000
,  // measure 55
0010
0000
0001
0000
,  // measure 56
0001
0000
0001
0000
,  // measure 57
1000
0000
1000
0000
,  // measure 58
1000
0000
0100
0000
,  // measure 59
0100
0000
0100
0000
,  // measure 60
1000
0000
1000
0000
,  // measure 61
1000
0000
0010
0000
,  // measure 62
0010
0000
0100
0000
,  // measure 63
0100
0000
0001
0000
,  // measure 64
0001
0000
1000
0000
,  // measure 65
0001
0000
1000
0000
,  // measure 66
0010
0000
0100
0000
,  // measure 67
0010
0000
0000
0000
,  // measure 68
0000
1001
0000
0000
;
