#TITLE:Harvest Moon;
#SUBTITLE:;
#ARTIST:植松和俊;
#TITLETRANSLIT:;
#SUBTITLETRANSLIT:;
#ARTISTTRANSLIT:KAZUTOSHI UEMATSU;
#CREDIT:DMAxel;
#BANNER:Harvest Moon.png;
#BACKGROUND:Harvest Moon-bg.png;
#LYRICSPATH:Harvest Moon.lrc;
#CDTITLE:pop'n music.png;
#MUSIC:Harvest Moon.mp3;
#OFFSET:-9.820;
#SAMPLESTART:60.345;
#SAMPLELENGTH:12.000;
#SELECTABLE:YES;
#BPMS:0.000=112.020;
#STOPS:;
#BGCHANGES:;

//---------------dance-single - ----------------
#NOTES:
     dance-single:
     :
     Hard:
     6:
     0.377,0.323,0.266,0.099,0.039:
1001
0000
0000
1001
0000
0000
0000
0000
0000
0000
0000
0000
0000
0000
1001
0000
,
0000
0000
1000
0000
0100
0000
1000
0000
0001
0000
0010
0000
0100
0000
1000
0001
,
0000
1001
0000
0000
0000
0000
0000
1001
,
0000
0001
0010
0001
1000
0100
0010
0001
,
1000
0100
0001
0100
1000
0001
0001
0000
,
0100
0000
0000
0110
0000
0000
0000
0000
0010
0000
0100
0000
0001
0000
0010
0000
,
0100
0000
1000
0001
0000
0001
1000
0010
,
0100
0000
0110
0000
0001
0010
0100
1000
,
0001
1000
0000
0000
0000
0000
0000
0000
0000
0000
0000
0000
0000
0000
1001
0000
,
0000
1000
0100
1000
0001
0010
0100
1000
,
0000
0010
0100
0010
1000
0100
0010
0001
,
0000
1000
0001
1000
0000
0001
0010
0100
,
1000
0100
0001
0100
1000
0001
0001
0000
,
0100
0000
0000
0110
0000
0000
0000
0000
0100
0000
0010
0000
0100
0000
0001
0000
,
0010
0000
0100
1000
0010
0000
0100
0001
,
1000
1100
1001
0011
,
1000
0100
0001
0100
1000
0010
0100
0010
,
0000
0100
0001
0010
0100
1000
0100
0001
,
0100
0000
1000
0001
0000
0101
0000
1001
,
0000
1000
0001
0000
0000
1000
0100
0001
,
0100
0000
0000
0000
1100
0000
0000
0000
0010
0000
0000
0001
0000
0000
1000
0000
,
0000
0000
0000
0000
0100
0000
0000
0000
0100
0000
0000
1000
0000
0000
0001
0000
,
1000
0100
1000
0010
0100
0001
0010
0001
,
0000
1000
0001
0000
0000
1001
0000
1001
,
0000
1000
0001
0100
0001
0100
0010
1000
,
0000
0100
0010
0000
0001
0010
0100
1000
,
0000
0010
0100
0010
1000
0100
0001
0100
,
0000
1000
0001
0000
0100
0110
0000
0110
,
0000
1000
0001
0000
0100
0001
0010
0200
,
0000
1000
1300
0100
0010
0001
1000
0020
,
0000
0000
0130
0002
0000
0013
0100
1000
,
0001
0000
1001
0000
0000
0110
0000
0110
,
0000
0001
1000
0000
0010
1000
0100
0020
,
0000
0001
0031
0010
0100
1000
0001
0200
,
0000
0010
0310
0000
1000
0001
0100
1000
,
0000
0000
0100
0000
0001
0000
1000
0000
0010
0100
0010
0000
0000
0000
0110
0000
,
0000
1000
0001
0000
0100
0001
0010
0200
,
0000
1000
1300
0100
0010
0001
0200
0020
,
0000
0000
0000
0330
0000
0110
0000
0000
,
0001
1000
0000
1001
0000
0100
0000
0110
,
0000
0100
2002
0000
0000
0000
0000
0000
,
3003
0000
0000
0000
;

//---------------dance-single - ----------------
#NOTES:
     dance-single:
     :
     Medium:
     5:
     0.314,0.283,0.138,0.197,0.020:
0020
0000
0000
0200
0000
0000
0000
0000
0000
0000
0330
0000
0000
0000
1001
0000
,
0000
0000
1000
0000
0001
0000
1000
0000
0001
0000
1000
0000
0000
0000
0000
0001
,
0000
1001
0000
0000
0000
0000
0000
1001
,
0000
0001
1000
0001
0000
1000
0001
1000
,
0001
0010
0100
1000
0001
0000
1001
0000
,
2000
0000
3001
0000
0100
0010
0100
0000
,
0001
1000
0010
1000
,
0001
0010
0100
1000
,
1001
0000
0000
0000
0000
0000
0000
1001
,
0000
1000
0001
1000
0001
1000
0000
0002
,
0000
0000
1003
0000
0010
1000
0010
0000
,
1000
0010
0100
0001
,
0100
0010
0100
0000
0010
0000
0110
0000
,
0002
0000
1003
0000
0010
0100
0010
0000
,
0100
0000
0100
0001
0100
0000
0100
0010
,
0100
0000
0001
0010
0100
1000
0010
0000
,
0120
0000
1030
0000
0010
0000
0010
1000
,
0010
0000
0010
1000
0001
0000
0010
0000
,
0100
0000
1000
0001
0000
0100
0000
0010
,
0000
1000
0001
0000
0000
0100
0010
0200
,
0000
0000
0000
0000
0001
0000
0000
0000
0301
0000
0000
0001
0000
0000
1000
0000
,
0000
0000
0000
0000
0020
0000
0000
0000
1000
0000
0000
1030
0000
0000
0002
0000
,
0000
0000
1000
0000
1000
0000
1003
0010
,
0000
0100
0001
0000
0000
0100
0000
0100
,
0000
0001
1000
0000
0100
1000
0100
2000
,
0000
0001
3001
0000
0001
0010
0100
2000
,
0000
0000
3001
0000
0010
0001
0010
0002
,
0000
1000
1003
0000
1000
0001
0000
1001
,
0000
0001
1000
0000
0010
1000
0010
2000
,
0000
0001
3001
0000
1000
0100
0010
0002
,
0000
0000
0000
1000
0000
1003
0000
0010
,
0000
0000
0110
0000
0000
0110
0000
1001
,
0000
0000
0200
0000
0301
0000
0100
0001
,
0100
0000
0100
0001
1000
0000
0001
2000
,
0000
0001
3001
0000
0100
0001
0100
0002
,
0000
1000
1003
0000
0110
0000
0000
1001
,
0000
0000
0000
0000
1000
0100
0010
0002
,
0000
1000
1003
0000
0001
0010
0100
2000
,
0000
0000
0000
0000
0000
0001
3001
0000
,
0001
1000
0000
0010
0000
0100
0000
0010
,
0000
1000
0002
0000
0000
0000
0000
0000
,
0003
0000
0000
0000
;

//---------------dance-single - ----------------
#NOTES:
     dance-single:
     :
     Easy:
     3:
     0.193,0.202,0.128,0.069,0.000:
1001
0000
0000
0000
0000
0000
0000
1000
,
0000
0010
0010
0110
,
0000
0000
0000
0000
0000
0000
0000
1001
,
0000
0100
0100
0100
,
1001
0000
0001
0010
,
0001
0000
1000
0100
,
2000
0000
3002
0000
,
1003
0100
0010
0001
,
1001
0000
0000
0000
0000
0000
0000
1000
,
0000
0010
0010
0000
,
1000
0010
1000
0000
,
0001
0100
0001
0000
,
1001
0000
1000
0100
,
0001
0000
0100
1000
,
0001
1000
0001
1000
,
0100
0000
0001
0100
,
1000
0001
1000
0001
,
1000
0001
1000
0100
,
0010
0000
0001
0000
1000
0000
0000
2000
,
0000
3001
0000
0001
,
1000
0100
1000
0000
,
0001
0100
0001
0000
,
1000
0000
0001
0000
1000
0000
0000
1001
,
0000
0000
0000
0000
0000
1000
0000
0001
,
0000
1000
0001
1000
,
0001
1000
0100
0010
,
0001
1000
0001
0010
,
0100
0000
1000
0000
0001
0000
0000
1001
,
0000
0000
0000
1000
,
0001
0000
1000
0000
0010
0000
0000
0200
,
0000
0000
0000
0320
0000
0000
0130
0000
,
0000
0000
1001
0000
0000
0000
0000
0001
,
0000
0010
0100
0010
,
0001
1000
0100
0010
,
0100
1000
0001
1000
,
0001
0000
1000
0000
0010
0000
0000
0110
,
0000
0000
0000
0000
1000
0000
0000
1001
,
0000
0000
0000
0000
0001
0000
0000
1001
,
0000
0000
0000
0000
,
1000
0000
0000
1000
0000
0001
0000
0000
,
0000
2002
0000
0000
,
3003
0000
0000
0000
;

//---------------dance-single - ----------------
#NOTES:
     dance-single:
     :
     Challenge:
     8:
     0.491,0.465,0.296,0.118,0.301:
0011
0000
0000
0011
0000
0000
1000
0000
0100
0000
0010
0000
0001
0000
0101
0000
,
0000
0000
1000
0000
0100
1000
0000
0100
1000
0000
0001
0100
0001
0100
0001
1000
,
0000
2002
0000
0000
0000
3003
0000
1010
,
0000
0001
0010
0001
0000
1000
0100
1000
,
0001
0000
0001
0010
0100
1000
0000
1000
0010
0000
1000
0000
0001
0100
0000
0001
,
0100
0000
0000
0110
0000
0000
0001
0000
0100
0000
0001
0000
1000
0000
0100
0000
,
2000
0000
0000
0000
0001
0000
0000
3001
0000
0000
0100
0000
0001
0100
0001
0000
,
0010
0000
0100
0000
1000
0000
0001
0000
1000
0010
1000
0010
0100
0010
0100
0001
,
0010
0100
0000
0000
0000
0000
0000
0000
0000
0000
0000
0000
0000
0000
1001
0000
,
0000
0000
0001
0000
0010
0001
0000
0010
0001
0000
1000
0010
1000
0000
0002
0000
,
0000
0000
1003
0000
0100
1000
0000
0100
1000
0000
0001
0000
0010
0000
0100
0000
,
1000
0000
0010
0100
0010
0000
0100
0001
0100
0000
0001
0000
0010
0000
0100
0000
,
1000
0000
1000
0100
0010
0001
0000
0001
0100
0000
0001
0000
1000
0010
0000
1000
,
0010
0000
0000
0110
0000
0000
1000
0000
0010
0000
1000
0000
0001
0000
0010
0000
,
0002
1000
1003
0100
0001
0100
1000
0100
,
0010
0000
0001
0100
0001
0000
0100
0010
0100
0010
0100
0001
1000
0001
1000
0000
,
0001
0100
0010
1000
0100
0010
0100
1000
,
0001
0010
1000
0010
0001
1000
0100
0010
,
0001
0010
0100
0101
0000
0110
0000
1010
,
0000
0001
1001
0000
0000
1000
0100
0001
,
0000
0000
0100
0000
1000
0000
0001
0000
0100
0000
0000
0010
0000
0000
0110
0000
,
0000
0000
0010
0100
0001
0010
0100
1000
,
0000
0000
0001
0000
1000
0100
1000
0100
0010
0001
0010
0000
0100
0000
1100
0000
,
0000
1100
1001
0000
0000
0101
0000
1001
,
0000
1000
0100
0010
0100
1000
0001
0100
,
0000
1000
0100
0001
0100
0010
1000
0002
,
0000
0000
1003
0010
0000
1000
0000
0010
1000
0000
0001
0000
0010
0000
0100
0000
,
0000
0000
1000
0000
0100
0000
0001
0000
0100
1000
0001
0100
0001
0000
1001
0000
,
0000
0000
0001
0000
0010
0001
0000
0010
0001
0000
1000
0000
0010
0000
0100
0000
,
0000
0001
0100
0000
1000
0100
0001
0200
,
0000
0000
0310
2000
0000
3100
0010
0001
,
1000
0000
0010
0000
1000
0000
0001
0010
0001
0000
0011
0000
0000
0000
1001
0000
,
0000
1000
0010
0100
0001
1000
0100
0002
,
0000
0103
1000
0001
0010
0100
1000
0002
,
0000
0000
1003
0000
0100
1000
0000
0100
1000
0000
0001
0000
0100
0000
0010
0000
,
0000
0000
1000
0000
0100
0000
0001
0000
0100
1000
0010
0100
0010
0000
1001
0000
,
0000
0000
0001
0000
0100
0001
0000
0100
0001
0000
1000
0000
0100
0000
0110
0000
,
0000
0000
1000
0000
0010
1000
0000
0010
1000
0000
0001
0000
0010
0000
0110
0000
,
0000
0000
0001
0000
0100
0010
0000
0100
0010
0000
1000
0001
1000
0001
1000
0000
,
0100
1100
0000
0101
0000
0101
0000
0110
,
0000
1001
2002
0000
0000
0000
0000
0000
,
3003
0000
0000
0000
;

//---------------dance-single - ----------------
#NOTES:
     dance-single:
     :
     Beginner:
     1:
     0.063,0.099,0.059,0.000,0.000: // measure 1
1001
0000
0000
0000
,  // measure 2
1000
0000
0000
0000
,  // measure 3
1001
0000
0000
0000
,  // measure 4
0001
0000
0000
0000
,  // measure 5
1000
0000
0000
0000
,  // measure 6
0100
0000
0000
0000
,  // measure 7
0010
0000
0000
0000
,  // measure 8
0001
0000
0000
0000
,  // measure 9
1001
0000
0000
0000
,  // measure 10
1000
0000
0000
0000
,  // measure 11
0001
0000
0000
0000
,  // measure 12
1000
0000
0000
0000
,  // measure 13
0001
0000
0000
0000
,  // measure 14
0010
0000
0000
0000
,  // measure 15
0100
0000
0000
0000
,  // measure 16
1000
0000
0000
0000
,  // measure 17
1001
0000
0000
0000
,  // measure 18
1000
0000
0000
0000
,  // measure 19
0001
0000
0000
0000
,  // measure 20
0100
0000
0000
0000
,  // measure 21
0010
0000
0000
0000
,  // measure 22
0100
0000
0000
0000
,  // measure 23
0010
0000
0000
0000
,  // measure 24
0000
0000
0000
0000
,  // measure 25
1000
0000
0000
0000
,  // measure 26
0001
0000
0000
0000
,  // measure 27
1000
0000
0000
0000
,  // measure 28
0100
0000
0000
0000
,  // measure 29
0010
0000
0000
0000
,  // measure 30
0001
0000
0000
0000
,  // measure 31
1000
0000
0000
0000
,  // measure 32
0000
0000
0000
0000
,  // measure 33
0001
0000
0000
0000
,  // measure 34
1000
0000
0000
0000
,  // measure 35
0001
0000
0000
0000
,  // measure 36
0100
0000
0000
0000
0000
0000
0000
1001
,  // measure 37
0000
0000
0000
0000
0000
0000
0000
0001
,  // measure 38
0000
0000
0000
0000
0000
0000
0000
1000
,  // measure 39
0000
0000
0000
0000
,  // measure 40
0010
0000
0000
0000
,  // measure 41
0000
0110
0000
0000
;
