#TITLE:ひつぎとふたご;
#SUBTITLE:~狂気ノ宴~;
#ARTIST:plastic feat. サキト;
#TITLETRANSLIT:HITSUGI TO FUTAGO;
#SUBTITLETRANSLIT:~KYOUKI NO UTAGE~;
#ARTISTTRANSLIT:plastic feat. SAKITO;
#CREDIT:DMAxel;
#BANNER:HITSUGI TO FUTAGO ~KYOUKI NO UTAGE~.png;
#BACKGROUND:HITSUGI TO FUTAGO ~KYOUKI NO UTAGE~-bg.png;
#LYRICSPATH:HITSUGI TO FUTAGO ~KYOUKI NO UTAGE~.lrc;
#CDTITLE:DMAxel original simfile.png;
#MUSIC:HITSUGI TO FUTAGO ~KYOUKI NO UTAGE~.mp3;
#OFFSET:-0.180;
#SAMPLESTART:37.844;
#SAMPLELENGTH:12.000;
#SELECTABLE:YES;
#BPMS:0.000=171.940;
#STOPS:;
#BGCHANGES:;

//---------------dance-single - ----------------
#NOTES:
     dance-single:
     :
     Easy:
     4:
     0.252,0.456,0.272,0.099,0.000:
0000
0000
0000
0000
,
0000
0000
0000
0000
,
0000
0000
0000
0000
,
1001
0000
0000
0000
,
0000
0000
0000
0000
,
1001
0000
0000
0000
,
0000
0000
0000
0000
,
0110
0000
0000
0000
,
0110
0000
0000
0000
,
1001
0000
0001
0000
,
1001
0000
0000
0000
,
1000
0000
1000
0000
,
0100
0000
0100
0000
,
1000
0000
1000
0000
,
0001
0000
0001
0000
,
0010
0000
0010
0000
,
0001
0000
0001
0000
,
1000
0000
0001
0000
,
1000
0000
0001
0000
,
1001
0000
0001
0000
,
0010
0100
1000
0000
,
0001
0000
0001
0000
,
0010
0100
1000
0000
,
1000
0000
1000
0000
,
0100
0010
0001
0000
,
1001
0000
1001
0000
,
1001
0000
0000
0000
,
1000
0000
1000
0000
,
0010
0100
0010
0000
,
1000
0000
1000
0000
,
0010
0100
0001
0000
,
0001
0000
0001
0000
,
0100
0010
0100
0000
,
0001
0000
0001
0000
,
0010
0100
1000
0000
,
0001
0000
1000
0000
,
0001
0000
0001
0000
,
1000
0000
1000
0000
,
0100
0000
0010
0000
,
0001
0000
0001
0000
,
0010
0000
0100
0000
,
1001
0000
0000
0000
,
1000
0000
0000
0000
,
2002
0000
0000
0000
,
0000
0000
0000
0000
,
3003
0010
0000
0010
,
0000
0010
0000
0010
,
0000
0100
0000
0100
,
0000
0100
0000
0100
,
0000
0010
0000
0010
,
0000
0100
0000
0100
,
0000
0001
0000
0001
,
0000
1000
0000
1000
,
1002
0000
0000
0000
,
0023
0000
0000
0030
,
2001
0000
0000
0000
,
3200
0000
0000
0300
,
1002
0000
0000
0000
,
0203
0000
0000
0300
,
2001
0000
3020
0000
,
0130
0110
0110
0110
,
1001
0001
0001
0001
,
1000
0001
1000
0000
,
1000
1000
1000
1000
,
0001
1000
0001
0000
,
0100
0100
0100
0100
,
0010
0100
0010
0000
,
0110
0000
0110
0000
,
1001
0001
0001
0000
,
1001
0000
1000
0000
,
0001
1000
0001
0000
,
0001
0000
0001
0000
,
1000
0001
1000
0000
,
0010
0000
0010
0000
,
0010
0100
0010
0000
,
0110
0000
0110
0000
,
1001
0000
0000
0000
,
1000
0000
1000
0000
,
0100
0010
0001
0000
,
0001
0000
0001
0000
,
0010
0100
1000
0000
,
1001
0000
0000
0000
,
0220
0000
0000
0330
,
1000
0001
1000
1000
,
1001
1001
0110
0110
,
0001
0000
0000
0000
;

//---------------dance-single - ----------------
#NOTES:
     dance-single:
     :
     Medium:
     6:
     0.416,0.525,0.470,0.181,0.132:
0000
0000
0000
0000
,
0000
0000
0000
0000
,
0000
0000
0000
0000
,
0011
0000
0010
0000
,
0010
0000
0000
0000
,
1010
0000
0010
0000
,
0010
0000
0000
0000
,
0110
0000
0100
0000
,
1001
0000
0010
0000
,
0110
0000
0100
0000
,
1001
0001
0001
0000
,
0001
1000
0001
1000
,
0001
1000
0001
1000
,
0100
0010
0100
0010
,
0100
0010
0100
0010
,
0001
0100
0001
0100
,
0001
0100
0001
0100
,
0010
0100
0010
0100
,
0010
1000
0100
1000
,
1002
0000
0000
0000
0000
1000
0000
0000
0000
1003
0000
0000
,
0100
0010
0001
0000
,
2001
0000
0000
0000
0000
0001
0000
0000
0000
3001
0000
0000
,
0010
1100
1001
0000
,
2001
0000
0000
0000
0000
0001
0000
0000
0000
3001
0000
0000
,
0010
0100
1000
0000
,
0001
0000
0001
1000
0000
0000
1000
0000
1000
0001
0000
0000
,
1001
1001
1001
1001
,
0010
0001
0010
0001
,
0100
0010
1000
0000
,
0100
1000
0100
1000
,
0010
0110
1001
0000
,
0100
0001
0100
0001
,
0010
0100
1000
0000
,
0010
1000
0010
1000
,
0100
0010
0001
0000
,
1002
0000
0000
0000
0000
0010
0000
0000
0000
0013
0000
0000
,
0100
1000
0001
0000
,
2001
0000
0000
0000
0000
0100
0000
0000
0000
3100
0000
0000
,
0010
0011
1001
0000
,
1002
0000
0000
0000
0000
0100
0000
0000
0000
0103
0000
0000
,
0010
1000
0001
0000
,
0001
0000
0001
1000
0000
0000
1000
0000
1000
0001
0000
0000
,
1001
1001
0110
0110
,
2002
0000
0000
0000
,
0000
0000
0000
0000
,
3003
0000
0000
0010
0000
0010
1000
0000
0000
0100
0000
0000
,
0010
0001
1000
0100
,
0010
0001
1000
0100
,
0010
0001
0010
0100
,
1000
0001
0010
0100
,
1000
0001
0010
0100
,
2000
0000
0000
0000
,
0000
0000
0000
3000
,
0220
0000
0000
0300
,
2000
0000
0000
3030
,
0220
0000
0000
0030
,
0002
0000
0000
0303
,
0220
0000
0000
0300
,
2000
0000
0000
3030
,
1001
0000
1100
0000
,
0101
1001
0101
1001
,
1001
0000
1000
0001
0000
0000
0100
0000
0000
0010
0000
0000
,
0100
0000
0001
1000
0000
1000
0001
0000
0000
0000
0000
0000
,
0001
0000
0001
1000
0000
0000
0010
0000
0000
0100
0000
0000
,
0010
0000
1000
0001
0000
0001
1000
0000
0000
0000
0000
0000
,
0010
0000
0000
1000
0000
0000
0010
0000
0000
0100
0000
0010
,
0100
0000
0000
0010
0000
0100
0010
0000
0000
1000
0000
0000
,
1100
1100
0011
0011
,
1001
1001
0110
0110
,
1001
0000
0000
0010
0000
0000
0001
0000
0000
0010
0000
0001
,
1000
0000
0000
0010
0000
1000
0001
0000
0000
1000
0000
0000
,
0100
1000
0100
1000
,
0001
0000
1000
0001
0000
0001
1000
0000
0000
0000
0000
0000
,
0100
0000
0000
1000
0000
0000
0100
0000
0000
1000
0000
0001
,
1000
0000
0000
0100
0000
1000
0001
0000
0000
0001
0000
0000
,
0011
0011
1100
1100
,
2002
0000
0000
3003
,
0100
0000
0000
0001
0000
0000
0100
0000
0000
0010
0000
0100
,
0001
0000
0000
0010
0000
0001
0100
0000
0000
0001
0000
0000
,
1000
0010
1000
0010
,
1000
0000
0001
1000
0000
1000
0001
0000
0000
1000
0000
0000
,
1010
0000
0000
0000
,
0220
0000
0000
0330
,
0001
0000
0001
1000
0000
0000
1000
0000
1000
0001
0000
0000
,
0101
0000
0000
0101
0000
0000
1010
0000
0000
1010
0000
1000
;

//---------------dance-single - ----------------
#NOTES:
     dance-single:
     :
     Hard:
     9:
     0.603,0.700,0.528,0.165,0.598:
0000
0000
0000
0000
,
0000
0000
0000
0000
,
0000
0000
0000
0000
,
1001
1000
1000
1000
,
0100
0010
0001
0000
,
1001
0001
0001
0001
,
0010
0100
1000
0000
,
0110
0010
0010
0010
,
1001
0000
0000
1000
0000
1000
0001
0000
0000
0001
0000
0000
,
1001
0100
0110
0010
,
1001
1001
1001
0000
,
0010
0001
0010
0001
,
1000
0000
0000
0100
0000
0000
1000
0000
0000
0001
0000
0001
,
1000
0001
1000
0001
,
0100
0000
0000
0010
0000
0000
0100
0000
0001
1000
0000
0001
,
1000
0000
0000
0100
0000
0000
1000
0000
0000
0010
0000
1000
,
0001
0000
0000
0001
0000
0000
0100
0000
0000
0001
0000
0001
,
1000
0100
1000
0100
,
0010
0000
0000
0001
0000
0001
1000
0000
0001
1000
0010
1000
,
0020
0000
0000
0000
0000
0130
0000
0000
0000
0110
0000
0000
,
0101
0101
1001
0010
,
0210
0000
0000
0000
0000
0310
0000
0000
0000
0110
0000
0000
,
1010
0000
0000
1010
0000
1000
0001
0000
0000
0000
0000
0000
,
0120
0000
0000
0000
0000
0130
0000
0000
0000
0110
0000
0000
,
0101
1001
1001
0010
,
1010
0000
1000
0001
0000
0001
1000
0100
1000
0100
0000
1000
,
0001
1001
0110
1001
,
0010
0000
0010
1000
0000
0000
0100
0000
1000
0010
0000
0000
,
0110
0000
0000
0100
0000
0000
1001
0000
0000
0100
0000
0100
,
0001
0000
0000
0010
0000
0001
0100
0000
0000
0010
0000
0010
,
1000
1100
1001
0100
,
0100
0000
1000
0010
0000
0000
0100
0000
0100
0001
0100
0001
,
1000
0000
0000
0010
0000
0100
0001
0000
0000
0001
0000
0000
,
1001
0010
1001
0100
,
1001
0000
0000
0010
0000
0010
0100
0000
0100
0001
0100
0001
,
2000
0000
0000
0000
0000
3100
0000
0000
0000
1100
0000
0000
,
1100
1001
1001
0010
,
1002
0000
0000
0000
0000
0013
0000
0000
0000
0011
0000
0000
,
0011
0000
0000
0010
1000
0001
1000
0000
0000
0100
0000
0000
,
2001
0000
0000
0000
0000
3010
0000
0000
0000
1000
0010
1000
,
0010
1001
1001
0010
,
0101
0000
0001
1000
0000
1000
0010
1000
0010
0100
0000
0000
,
1001
1001
0110
0110
,
2002
0000
0000
0000
,
0000
0000
0000
0000
,
3003
0000
0000
0100
0000
0100
0001
0000
0000
0100
0000
0100
,
0001
0000
0000
0010
0000
0010
0001
0000
0000
0010
0000
0010
,
0001
0000
0000
1000
0000
1000
0001
0000
0000
1000
0000
1000
,
0001
0000
0000
0010
0000
0010
0100
0000
0000
0010
0000
0010
,
0100
0000
0000
1000
0000
0001
1000
0000
0000
1000
0000
0001
,
1000
0000
0000
0100
0000
1000
0100
0000
0000
0010
0000
0001
,
0010
0000
0000
0100
0000
1000
0100
0000
0000
0010
0000
0001
,
0100
0000
0001
0100
0000
0010
1000
0000
0010
1000
0000
0000
,
2001
0000
0010
0000
,
3002
0000
0200
0303
,
1002
0000
0100
0000
,
2003
0000
0020
3030
,
2001
0000
0010
0000
,
0002
0000
0000
3003
,
0202
0303
2200
3300
,
1000
0100
1000
0100
1000
0001
1000
0001
1000
0010
1000
0010
,
1000
0000
1000
0010
0000
0010
1000
0000
0000
0001
0000
0001
,
0100
0000
0100
0001
0000
0001
1000
0000
0000
0010
0000
0000
,
1000
0000
1000
0001
0000
0001
0100
0000
0100
0010
0000
0010
,
0100
0000
0001
0010
0001
1000
0001
0000
0000
1000
0000
0000
,
0001
0000
0001
1000
0000
1000
0010
0000
0010
0100
0000
0100
,
0010
0000
0000
0100
0000
0010
0100
0000
0000
0001
0000
0000
,
0101
0000
0001
1000
0000
1000
0001
0010
0001
0010
0000
0001
,
1000
1001
0110
0110
,
1001
0000
0001
1000
0000
1000
0010
0000
1000
0010
0000
0010
,
0100
0000
0100
0001
0000
0001
1000
0000
0000
0001
0000
0000
,
1000
0000
1000
0001
0000
0001
0100
0000
0001
0100
0000
0100
,
0010
0000
1000
0100
1000
0001
1000
0000
0000
0001
0000
0000
,
1000
0000
1000
0001
0000
0001
0100
0000
0100
0001
0100
0001
,
1000
0000
1000
0001
0000
0001
1000
0000
0000
1000
0000
0000
,
1010
0000
1000
0001
0000
0001
1000
0010
1000
0010
0000
1000
,
0001
0010
0001
0010
0001
1000
0001
1000
0001
0100
0001
0100
,
0001
0000
0000
0010
0000
0000
0001
0000
0000
0011
0000
0001
,
1000
0000
1000
0100
0000
0100
0010
0000
0000
0001
0000
0001
,
1000
0100
1000
0100
,
1100
0000
1000
0001
0010
0001
0010
0000
0000
0001
0000
0001
,
1000
0000
0000
0000
,
1010
0000
0000
0000
,
0011
0000
0001
1000
0000
1000
0010
0100
0010
0100
0000
0001
,
1000
0010
1000
0010
1000
0001
1000
0001
1000
0100
1000
0100
;

//---------------dance-single - ----------------
#NOTES:
     dance-single:
     :
     Challenge:
     9:
     0.734,0.770,0.305,0.148,1.000: // measure 1
0000
0000
0000
0000
,  // measure 2
0000
0000
0000
0000
,  // measure 3
0000
0000
0000
0000
,  // measure 4
1002
1000
1000
1003
,  // measure 5
0010
0100
0110
0000
,  // measure 6
2001
0001
0001
3001
,  // measure 7
0100
0000
0000
0010
0100
0010
0100
0000
0000
0000
0000
0000
,  // measure 8
0120
0100
0100
0130
,  // measure 9
1001
0000
1000
0001
0000
0001
0100
0000
0000
0100
0000
0000
,  // measure 10
1001
0010
0110
0100
,  // measure 11
1001
0000
0000
1001
0000
0000
1000
0001
1000
0010
0000
0100
,  // measure 12
0010
0000
0010
1000
0000
1000
0001
0000
0001
0100
0000
0100
,  // measure 13
0001
0000
0001
1000
0000
1000
0010
0000
0010
1000
0000
0010
,  // measure 14
0001
0000
0001
1000
0000
1000
0100
0000
0100
1000
0000
1000
,  // measure 15
0001
0000
0001
0010
0000
0010
0001
0000
0010
1000
0000
1000
,  // measure 16
0001
0000
0001
0010
0000
0010
0001
0000
0001
1000
0001
1000
,  // measure 17
0010
0000
0010
1000
0000
1000
0001
0000
0001
1000
0000
1000
,  // measure 18
0010
0000
0010
0100
0000
0000
0110
0000
0000
0110
0000
0000
,  // measure 19
1001
0000
0000
0001
1000
0001
1000
0100
1000
0100
0010
0001
,  // measure 20
0020
0000
0000
0001
0000
0031
1000
0000
0000
1100
0000
1000
,  // measure 21
0010
0000
0010
0100
0000
0100
0001
0000
0000
1000
0000
1000
,  // measure 22
0200
0000
0000
1000
0000
1300
0001
0000
0000
0011
0000
0001
,  // measure 23
0100
0000
0100
0010
0100
0001
1000
0000
0000
0001
0000
0001
,  // measure 24
0200
0000
0000
0001
0000
0301
1000
0000
0000
1000
0100
1000
,  // measure 25
0010
0000
0010
0100
0000
0100
0001
0000
0000
1000
0000
1000
,  // measure 26
0001
0000
1000
0010
0000
1000
0001
0010
0001
0010
0000
0001
,  // measure 27
1000
1100
0011
1100
,  // measure 28
1001
0000
1000
0010
0000
0010
1000
0000
1000
0001
0000
0001
,  // measure 29
0010
0000
0010
0001
0000
0001
1000
0000
1000
0001
0000
0001
,  // measure 30
1000
0000
0001
0100
0000
0100
0001
0000
0001
1000
0000
1000
,  // measure 31
0100
0000
0100
1000
0010
1000
0001
0000
0001
1000
0000
1000
,  // measure 32
0001
0000
1000
0100
0000
0100
1000
0000
1000
0001
1000
0001
,  // measure 33
0010
0000
0010
0001
0000
0001
1000
0000
1000
0001
0000
1000
,  // measure 34
0100
0000
0100
0010
0000
0000
0110
0000
0000
0110
0000
0000
,  // measure 35
1001
0000
0000
0001
1000
0001
1000
0001
0010
0001
0010
0100
,  // measure 36
2000
0000
0000
0001
0000
3001
0100
0000
0000
0101
0000
0001
,  // measure 37
1000
0000
1000
0010
0000
0010
0100
0000
0000
0001
0000
0010
,  // measure 38
0002
0000
0000
1000
0000
1003
0010
0000
0000
1010
0000
1000
,  // measure 39
0001
0000
0001
0100
0010
0100
0001
0000
0000
1000
0000
0010
,  // measure 40
2000
0000
0000
0001
0000
3001
0010
0000
0000
0010
0001
0100
,  // measure 41
0001
0000
0001
1000
0000
0000
1001
0000
0000
0001
0000
0001
,  // measure 42
1000
0000
0010
1000
0000
0001
1000
0100
1000
0010
0000
1000
,  // measure 43
0001
0011
1100
0011
,  // measure 44
2002
0000
0000
0000
,  // measure 45
0000
0000
0000
0000
,  // measure 46
3003
0000
0000
0010
0000
0010
0001
0000
0000
0001
0000
0001
,  // measure 47
1000
0000
0000
1000
0000
1000
0100
0000
0000
0100
0000
0100
,  // measure 48
0010
0000
0000
0010
0000
0010
0001
0000
0000
0001
0000
0001
,  // measure 49
1000
0000
0000
1000
0000
1000
0010
0000
0000
0010
0000
0010
,  // measure 50
0100
0000
0000
0100
0000
0100
0001
0000
0000
0001
0000
0001
,  // measure 51
0100
0000
0000
0100
0000
0100
0010
0000
0000
0010
0000
0010
,  // measure 52
1000
0000
0000
1000
0000
1000
0100
0000
0000
0100
0000
0100
,  // measure 53
0010
0000
0010
0100
0000
0100
0001
0000
0001
1000
0000
0000
,  // measure 54
1002
0100
0100
0103
,  // measure 55
2000
0010
0010
3010
,  // measure 56
2001
0100
0100
3100
,  // measure 57
0002
0010
0010
0013
,  // measure 58
1002
0100
0100
0103
,  // measure 59
2001
0010
0010
3010
,  // measure 60
1100
1100
0011
0011
,  // measure 61
0001
0010
0001
0100
0010
0100
0010
1000
0100
1000
0010
0100
,  // measure 62
0001
0000
0001
0100
0000
0100
0001
0000
0001
0010
0000
0010
,  // measure 63
0100
0000
0100
1000
0000
1000
0001
0000
0001
0100
0000
1000
,  // measure 64
0001
0000
0001
0010
0000
0010
0001
0000
0001
1000
0000
1000
,  // measure 65
0010
0000
0010
0100
0001
0010
0001
0000
0001
1000
0000
0100
,  // measure 66
0001
0000
0001
0010
0000
0010
0001
0000
0001
0100
0010
0100
,  // measure 67
0001
0000
0001
1000
0000
1000
0100
0000
0100
1000
0000
1000
,  // measure 68
0001
0000
0010
0001
0000
1000
0001
0010
0001
1000
0000
0001
,  // measure 69
1000
0000
0000
1010
0000
1000
0001
0000
0001
0100
0010
0100
,  // measure 70
0001
0000
1000
0001
0000
0001
0100
0000
0100
0010
0000
0010
,  // measure 71
1000
0000
1000
0100
0000
0100
0010
0000
0010
0001
0000
0100
,  // measure 72
1000
0000
1000
0001
0000
0001
0010
0000
0010
0100
0000
0100
,  // measure 73
1000
0000
1000
0001
0100
0010
0100
0000
0001
1000
0000
1000
,  // measure 74
0001
0000
0001
0010
0000
0010
0100
0000
0100
1000
0010
1000
,  // measure 75
0010
0000
0010
0100
0000
0100
0001
0000
0001
1000
0000
1000
,  // measure 76
0001
0000
0010
0001
0000
1000
0001
0010
0001
1000
0000
0001
,  // measure 77
1000
0100
1000
0010
0100
0010
0100
0001
0100
0001
0010
0001
,  // measure 78
1000
0000
1000
0010
0000
0010
1000
0000
1000
0001
0000
0001
,  // measure 79
0010
0000
0010
1000
0000
1000
0001
0000
0001
1000
0000
0010
,  // measure 80
0001
0000
0001
0100
0000
0100
0001
0000
0001
1000
0000
1000
,  // measure 81
0010
0000
0010
0100
0010
1000
0001
0000
0001
1000
0000
0010
,  // measure 82
0002
0000
0000
0013
,  // measure 83
0001
1000
0001
1000
0001
1000
0001
1000
0001
1000
0001
1000
,  // measure 84
0100
0000
1000
0001
0000
0001
0010
0100
0010
0001
0000
0010
,  // measure 85
0100
1000
0100
1000
0100
0010
0001
1000
0001
0100
0010
1000
;

//---------------dance-single - ----------------
#NOTES:
     dance-single:
     :
     Beginner:
     2:
     0.098,0.209,0.107,0.000,0.000:
0000
0000
0000
0000
,
0000
0000
0000
0000
,
0000
0000
0000
0000
,
1001
0000
0000
0000
,
0000
0000
0000
0000
,
0001
0000
0000
0000
,
0000
0000
0000
0000
,
0001
0000
0000
0000
,
1000
0000
0000
0000
,
1000
0000
0000
0000
,
0000
0000
0000
0000
,
1001
0000
0000
0000
,
1000
0000
0000
0000
,
1000
0000
0000
0000
,
1000
0000
0000
0000
,
0001
0000
0000
0000
,
0001
0000
0000
0000
,
0001
0000
0000
0000
,
0001
0000
0000
0000
,
0100
0000
0000
0000
,
0000
0000
0000
0000
,
0100
0000
0000
0000
,
0000
0000
0000
0000
,
0010
0000
0000
0000
,
0000
0000
0000
0000
,
0110
0000
0000
0000
,
0000
0000
0000
0000
,
1000
0000
0000
0000
,
0000
0000
0000
0000
,
0001
0000
0000
0000
,
0000
0000
0000
0000
,
1000
0000
0000
0000
,
0000
0000
0000
0000
,
0001
0000
0000
0000
,
0000
0000
0000
0000
,
1001
0000
0000
0000
,
0000
0000
0000
0000
,
0010
0000
0000
0000
,
0000
0000
0000
0000
,
0100
0000
0000
0000
,
0000
0000
0000
0000
,
0110
0000
0000
0000
,
0000
0000
0000
0000
,
0001
0000
0000
0000
,
0000
0000
0000
0000
,
0000
0010
0000
0000
,
0000
0000
0000
0000
,
0000
0010
0000
0000
,
0000
0000
0000
0000
,
0000
0100
0000
0000
,
0000
0100
0000
0000
,
0000
0100
0000
0000
,
0000
0000
0000
0000
,
1001
0000
0000
0000
,
0000
0000
0000
0000
,
1000
0000
0000
0000
,
0000
0000
0000
0000
,
0001
0000
0000
0000
,
0001
0000
0000
0000
,
1001
0000
0000
0000
,
0001
0000
0000
0000
,
0100
0000
0100
0000
,
0100
0000
0000
0000
,
0010
0000
0010
0000
,
0010
0000
0000
0000
,
0100
0000
0100
0000
,
0100
0000
0000
0000
,
0010
0000
0010
0000
,
0110
0000
0000
0000
,
1001
0000
0001
0000
,
0001
0000
0000
0000
,
1000
0000
1000
0000
,
1000
0000
0000
0000
,
0001
0000
0001
0000
,
0001
0000
0000
0000
,
1001
0000
0000
0000
,
0110
0000
0000
0000
,
1001
0000
0000
0000
,
1000
0000
0000
0000
,
0001
0000
0000
0000
,
1000
0000
0000
0000
,
1001
0000
0000
0000
,
0001
0000
0000
0000
,
0001
0000
0001
0000
,
1000
0000
1000
0000
;
