#TITLE:Good-bye Chalon;
#SUBTITLE:;
#ARTIST:猫叉Master+;
#TITLETRANSLIT:;
#SUBTITLETRANSLIT:;
#ARTISTTRANSLIT:Nekomata Master+;
#CREDIT:DMAxel;
#BANNER:Good-bye Chalon.png;
#BACKGROUND:Good-bye Chalon-bg.png;
#LYRICSPATH:;
#CDTITLE:jubeat.png;
#MUSIC:Good-bye Chalon.mp3;
#OFFSET:-8.480;
#SAMPLESTART:84.799;
#SAMPLELENGTH:12.000;
#SELECTABLE:YES;
#BPMS:0.000=154.000;
#STOPS:;
#BGCHANGES:;

//---------------dance-single - ----------------
#NOTES:
     dance-single:
     :
     Hard:
     8:
     0.483,0.487,0.280,0.307,0.241: // measure 1
1000
0000
1000
0000
1000
0000
1000
0100
,  // measure 2
0001
0000
0001
0000
0001
0000
0001
0100
,  // measure 3
1000
0000
1000
0000
1000
0000
1000
0100
,  // measure 4
0001
0101
1000
1100
,  // measure 5
1001
0000
0000
0001
0000
0000
0001
0000
1000
0000
0000
1000
0000
0000
1000
0000
,  // measure 6
0010
0000
0000
0010
0000
0000
0010
0000
0100
0000
0010
0000
1000
0000
0100
0000
,  // measure 7
0010
0000
0000
0010
0000
0000
0010
0000
0001
0000
0000
0001
0000
0000
0001
0000
,  // measure 8
1000
0000
0000
1000
0000
0000
1000
0000
0100
0000
0010
0000
0100
0000
1000
0000
,  // measure 9
0001
0100
0010
0000
0100
0001
0010
0000
,  // measure 10
0001
0010
0100
0000
1000
0001
1000
0001
,  // measure 11
1000
0010
0100
0000
0001
1000
1001
0000
,  // measure 12
1010
1010
0101
0101
,  // measure 13
2000
0000
0000
0000
0000
0000
0000
3002
0000
0000
0000
0000
0000
0000
0000
0203
,  // measure 14
0000
0000
0000
0000
0000
0000
0000
0302
0000
0000
0000
0000
0000
0000
0000
2003
,  // measure 15
0000
0000
0000
0001
,  // measure 16
3002
0000
1003
0000
,  // measure 17
1000
0000
0000
1000
0001
0000
0000
0000
0001
0000
0000
0001
0100
0000
0000
0000
,  // measure 18
0100
0000
0000
0100
0010
0000
0000
0000
0010
0000
0000
0010
1000
0000
0000
0000
,  // measure 19
1000
0000
0000
1000
0001
0000
0000
0000
0001
0000
0000
0001
1000
0000
0000
0000
,  // measure 20
1001
1001
1001
0000
,  // measure 21
0001
0000
0100
0000
0010
0000
0000
1000
0000
0000
0001
0000
0010
0000
0000
0001
,  // measure 22
0000
0000
1000
0000
0100
0000
0000
1000
0000
0000
0000
0000
0001
0000
0000
1001
,  // measure 23
0000
0000
1000
0010
0100
0000
0001
0100
,  // measure 24
0001
0001
1000
0100
0010
0001
0010
0100
,  // measure 25
1000
0000
0010
0000
0100
0000
0000
0001
0000
0000
1000
0000
0100
0000
0000
1000
,  // measure 26
0000
0001
0000
0010
0000
0001
0000
1000
0000
0000
0000
0000
0001
0000
0000
1001
,  // measure 27
0000
0000
0001
0100
0010
0000
1000
0010
,  // measure 28
1000
1000
0001
0010
0001
0000
1000
0000
,  // measure 29
1002
0000
0000
1003
0200
0000
0000
1300
,  // measure 30
0002
0000
0000
0013
0100
1000
0001
0001
,  // measure 31
2000
0000
0000
3001
0020
0000
0000
0031
,  // measure 32
2000
0000
0000
3100
0010
0001
1000
1000
,  // measure 33
0020
0000
0000
1030
0001
0010
0001
1000
,  // measure 34
0100
1000
0010
0000
1000
0100
0010
0001
,  // measure 35
0200
0000
0000
0301
2000
0000
0000
3010
,  // measure 36
0100
0010
1000
0100
1000
0001
0010
0100
,  // measure 37
1000
0000
0000
0000
1010
0000
0000
0000
0011
0000
0000
0000
1000
0000
0000
1001
,  // measure 38
0000
0000
0010
0100
0001
0010
0001
1000
,  // measure 39
0100
0000
0010
0000
0001
0000
0100
0000
0001
0000
0000
1001
0000
0000
0000
0000
,  // measure 40
1000
0000
0000
1001
0000
0000
0000
0000
0010
0000
1000
0000
0001
0000
0000
0000
,  // measure 41
1001
0000
1100
0000
0010
0001
1000
0010
,  // measure 42
1000
0010
1000
0001
0010
0100
1000
0001
,  // measure 43
0200
0000
0000
0301
2000
0000
0000
3100
,  // measure 44
0020
0000
0001
0000
0031
0100
0010
1000
,  // measure 45
1020
1000
0100
0001
,  // measure 46
0100
0000
1030
0000
0001
0010
0100
1000
,  // measure 47
0200
1000
0010
0001
,  // measure 48
0010
1300
0011
1001
,  // measure 49
0000
1001
0000
0000
,  // measure 50
0100
0000
0000
0001
0000
0100
0000
0001
0000
0000
0000
0000
0100
0000
0010
0000
,  // measure 51
1000
0000
0000
0000
0100
0000
0010
0000
0001
0100
0000
0010
0000
1000
0000
0000
,  // measure 52
0010
0000
0000
1000
0000
0010
0000
2000
0000
0000
0000
0000
3010
0000
0100
0000
,  // measure 53
0002
0000
1000
1000
1003
0000
0001
0100
,  // measure 54
0001
1000
0000
0100
0000
1000
0000
0010
0000
0000
1000
0000
0100
0000
0010
0000
,  // measure 55
0001
0000
0001
0000
1000
0010
0000
2000
0000
0000
0000
3001
0000
0000
0100
0000
,  // measure 56
0001
1000
0000
0100
0000
1000
0000
0100
0000
0000
0000
0000
1000
0000
0100
0000
,  // measure 57
0001
1001
0110
1001
,  // measure 58
1100
0000
0000
0000
0200
0000
0000
2300
0000
0000
0000
0000
3020
0000
0000
0230
,  // measure 59
0000
0000
0000
0000
0302
0000
0000
0023
0000
0000
0000
0000
0031
0000
0000
2002
,  // measure 60
0000
0000
0000
0000
,  // measure 61
0000
3003
0000
0022
,  // measure 62
0000
0000
0000
0000
,  // measure 63
0033
0000
2200
0000
,  // measure 64
0000
0000
0000
0000
,  // measure 65
0000
0000
0000
0000
,  // measure 66
3300
0000
0000
0000
0000
0000
0000
0001
0000
0000
0000
0000
0000
0000
0000
0000
;

//---------------dance-single - ----------------
#NOTES:
     dance-single:
     :
     Medium:
     6:
     0.406,0.430,0.280,0.184,0.022: // measure 1
0001
0001
0001
0001
,  // measure 2
1000
1000
1000
1000
,  // measure 3
0001
0001
0001
0001
,  // measure 4
1001
1000
0001
1000
,  // measure 5
1001
0000
1000
0000
0100
1000
0100
0000
,  // measure 6
0010
0001
0010
0000
0001
0010
0001
0010
,  // measure 7
0001
1000
0010
0000
1000
0010
1000
0000
,  // measure 8
0001
0010
0001
0000
0100
0001
0100
0001
,  // measure 9
1000
0100
1000
0000
0001
0100
0001
0000
,  // measure 10
1000
0100
1000
0000
0001
0100
0001
1000
,  // measure 11
1000
1000
0010
0110
,  // measure 12
1000
0100
0010
0001
,  // measure 13
1000
0010
0000
0010
0000
0010
0000
0010
,  // measure 14
0000
1000
0000
1000
0000
1000
0000
1000
,  // measure 15
0000
0001
0000
0001
0000
0001
0000
0001
,  // measure 16
0000
0100
0000
0100
0000
0100
0000
0100
,  // measure 17
0001
1001
1000
0110
,  // measure 18
0001
1001
0001
0110
,  // measure 19
1000
1001
1000
0110
,  // measure 20
0002
0000
1003
0000
,  // measure 21
1000
0010
1000
0000
0001
0010
0001
0000
,  // measure 22
1000
0010
1000
0000
0001
0010
0001
0000
,  // measure 23
2000
0001
3001
1000
,  // measure 24
0001
0010
0100
1000
0001
0100
0100
0100
,  // measure 25
0001
0100
0001
0000
1000
0100
1000
0000
,  // measure 26
0001
0100
1000
0100
0000
0000
1000
0000
,  // measure 27
1001
0000
0001
1000
0001
0000
1000
0000
,  // measure 28
2100
0000
3001
1000
,  // measure 29
1001
1000
1100
1000
,  // measure 30
1100
0000
1000
0000
0100
0010
0001
0000
,  // measure 31
0101
0001
0101
0001
,  // measure 32
0101
0000
0001
0000
0010
0100
1000
0000
,  // measure 33
1001
0001
2000
3200
,  // measure 34
0320
0000
0032
0000
1003
0001
1000
0000
,  // measure 35
0020
0000
0000
1030
0002
0000
0000
1003
,  // measure 36
0010
0000
0010
0000
0010
1000
0001
0000
,  // measure 37
1001
0000
1000
0000
1000
0000
0001
0100
,  // measure 38
0001
1000
1001
0001
,  // measure 39
1001
1000
0010
0110
,  // measure 40
0001
1001
2000
3002
,  // measure 41
1003
0010
0100
0001
,  // measure 42
1000
0001
1000
0000
0010
0100
0010
0000
,  // measure 43
0200
0000
0000
0301
2000
0000
0000
0000
,  // measure 44
3002
0000
1003
0010
,  // measure 45
0220
0000
0000
0000
,  // measure 46
0000
0000
0330
0000
,  // measure 47
2002
0000
0000
3000
,  // measure 48
1003
1000
1000
1000
,  // measure 49
0001
1001
0000
0000
,  // measure 50
0001
0100
0001
0000
0100
0001
1000
0000
,  // measure 51
0001
0000
0100
0000
0010
1000
0001
0001
,  // measure 52
1000
0010
1000
0000
0010
1000
0001
0000
,  // measure 53
1000
0000
0010
0000
0100
0001
1000
1000
,  // measure 54
0010
1000
0010
1000
0001
0000
0001
0000
,  // measure 55
0100
0001
0100
0001
1000
0000
1000
0000
,  // measure 56
0100
1000
0100
1000
0001
0000
0001
0000
,  // measure 57
1001
0001
0110
1000
,  // measure 58
1001
0000
0000
0000
1000
0000
0000
2000
0000
0000
0000
0000
3001
0000
0000
0002
,  // measure 59
0000
0000
0000
0000
0103
0000
0000
0200
0000
0000
0000
0000
0310
0000
0000
0110
,  // measure 60
0000
0000
0000
0000
,  // measure 61
0000
0000
0000
0110
,  // measure 62
0000
0000
0000
0000
,  // measure 63
0000
0000
1001
0000
,  // measure 64
0000
0000
0000
0000
,  // measure 65
0000
0000
0000
0000
,  // measure 66
0000
0000
0000
0000
0000
0000
0000
1000
0000
0000
0000
0000
0000
0000
0000
0000
;

//---------------dance-single - ----------------
#NOTES:
     dance-single:
     :
     Challenge:
     9:
     0.581,0.602,0.184,0.166,0.543: // measure 1
0001
0000
0100
0000
0001
1000
0000
0100
0000
0000
1000
0000
0001
0000
0001
0000
,  // measure 2
1000
0000
0100
0000
1000
0001
0000
0200
0000
0000
0000
0000
0301
0000
0010
0000
,  // measure 3
0100
1000
0000
0001
0000
0001
0000
0200
0000
0000
0000
0000
0310
0000
1000
0000
,  // measure 4
0001
0000
0000
0000
1001
0000
0000
0000
1000
0000
0000
0001
1000
0000
0100
0000
,  // measure 5
1000
0000
0000
0001
0000
0000
0100
0000
0001
0000
0000
1000
0000
0000
0100
0000
,  // measure 6
1000
0000
0000
0001
0000
0000
0100
0000
0001
0000
1000
0000
0100
0000
0010
0000
,  // measure 7
0001
0000
0000
1000
0010
0000
1000
0000
0001
0000
0000
1000
0010
0000
1000
0000
,  // measure 8
0001
0000
0000
1000
0010
0000
1000
0000
0001
0000
0010
0000
0100
0000
1000
0000
,  // measure 9
0001
0000
0000
0100
0001
0000
1000
0000
0001
0000
0000
0100
0001
0000
1000
0000
,  // measure 10
0001
0000
0000
0100
0001
0000
1000
0000
0001
0000
1000
0000
0100
0000
0010
0000
,  // measure 11
0100
0000
0000
1000
0001
0000
0010
0000
0100
0000
1000
0000
1001
0000
0000
0000
,  // measure 12
0010
1000
0010
1000
0001
0010
0001
0010
0100
1000
0001
0100
,  // measure 13
0002
0000
0000
0000
1000
0000
0000
2003
0000
0000
0000
0000
0010
0000
0000
3020
,  // measure 14
0000
0000
0000
0000
0100
0000
0000
0230
0000
0000
0000
0000
0001
0000
0000
0302
,  // measure 15
0000
0000
0000
1003
,  // measure 16
0200
0000
0000
0000
0000
0000
0000
0000
0310
0000
0000
0001
1000
0000
0010
0000
,  // measure 17
1000
0000
0000
1000
0001
0000
0000
0001
0100
0000
0000
0100
1000
0000
0000
1000
,  // measure 18
0100
0000
0000
0100
0001
0000
0000
0001
1000
0000
0000
1000
0010
0000
0000
0010
,  // measure 19
0001
0000
0000
0001
1000
0000
0000
1000
0001
0000
0000
0001
1000
0000
0000
0000
,  // measure 20
1000
0000
0100
0000
1000
0000
0001
0000
0100
0000
0001
0000
0100
0000
0010
0000
1000
0000
0001
0000
0000
0100
0000
0000
,  // measure 21
0100
0000
0001
0000
0010
0000
0100
0010
0000
0000
0001
0000
0010
0000
0100
0010
,  // measure 22
0000
0000
0001
0000
0010
0000
0100
0010
0000
0000
0001
0000
1000
0000
0000
1001
,  // measure 23
0000
0000
1000
0010
0100
0000
0001
0010
,  // measure 24
0100
0000
1000
0000
0100
0000
1000
0000
0001
0000
0100
0001
0100
0001
0100
0000
,  // measure 25
0001
0000
0010
0000
0100
0000
0010
0001
0000
0000
1000
0000
0100
0000
0010
0100
,  // measure 26
0000
1000
0000
0010
0000
0100
0000
0002
0000
0000
0000
0000
1003
0000
0000
1001
,  // measure 27
0000
0000
0001
0100
0010
0000
1000
0100
,  // measure 28
0010
0000
0001
0010
0100
0000
1000
0001
,  // measure 29
1001
0000
0000
1000
0010
0000
1000
0000
0001
0000
0000
1000
0010
0000
1000
0000
,  // measure 30
0001
0000
0000
1000
0010
0000
1000
0000
0001
0000
0010
0000
0100
0000
1000
0000
,  // measure 31
0001
0000
0000
0100
0001
0000
1000
0000
0010
0000
0000
0100
0001
0000
1000
0000
,  // measure 32
0010
0000
0000
0100
0001
0000
1000
0000
0100
0000
0010
0000
0001
0000
1000
0000
,  // measure 33
1100
0000
0010
0001
1000
0100
0001
0100
,  // measure 34
1000
0000
0001
0000
0010
0000
0100
0000
1000
0000
0001
0100
0001
0000
1000
0000
,  // measure 35
0010
0000
0000
0100
0001
0000
1000
0000
0100
0000
0000
1000
0001
0000
0100
0000
,  // measure 36
0001
0000
0100
0000
0010
0000
1000
0000
0100
0000
0001
0000
0100
0000
0010
1000
,  // measure 37
0010
0000
0000
0100
0001
0000
0000
0001
1000
0000
0100
0000
1000
0000
0001
1000
,  // measure 38
0001
0000
0010
0100
1000
0100
0001
0100
,  // measure 39
1000
0000
0000
1000
0001
0000
0000
0001
0100
0000
0001
1000
0001
0000
0000
0000
,  // measure 40
1000
0000
0000
1100
0000
0000
0010
0000
0001
0000
1000
0000
0001
0000
0000
0000
,  // measure 41
1001
0000
0000
0000
0010
0000
1000
0000
0001
0000
0000
0001
1000
0000
0000
1000
,  // measure 42
0010
0000
0000
0010
0100
0000
0000
0100
0001
0000
0010
0000
0100
0000
1000
0000
,  // measure 43
0001
0000
0100
0000
0001
0000
1000
0100
1000
0000
0100
0000
1000
0000
0001
0100
,  // measure 44
0001
0100
0001
1000
0100
0010
0001
1000
,  // measure 45
0010
0000
0000
0010
0000
0000
1000
0000
0001
0000
0000
0001
0000
0000
1000
0000
,  // measure 46
0100
0000
0000
0100
0000
0000
1000
0000
0001
0000
0010
0000
0100
0000
1000
0000
,  // measure 47
0100
0000
0000
0100
0000
0000
1000
0000
0001
0000
0000
0001
0000
0000
0100
0000
,  // measure 48
0010
0000
0000
1000
0001
0000
0000
0001
0100
0000
0000
0100
1000
0000
0000
0000
,  // measure 49
0000
0000
0000
0000
1001
0000
0000
0000
0000
0000
0000
0000
0100
0010
0100
0010
,  // measure 50
0100
0000
0001
1000
0000
0100
0000
2000
0000
0000
0000
0000
3001
0000
0100
0000
,  // measure 51
0001
0000
0100
0000
0010
1000
0000
0001
0000
0010
0000
0100
0000
1000
0000
0000
,  // measure 52
0010
0000
1000
0001
0000
0010
0000
0002
0000
0000
0000
0000
1003
0000
0010
0000
,  // measure 53
1000
0000
0010
0000
0100
0001
0000
2000
0000
0000
0000
0000
3001
0000
0100
0000
,  // measure 54
0001
1000
0000
0100
0000
0001
0000
0100
0000
0000
0010
0000
1000
0000
0001
0000
,  // measure 55
0001
0000
1000
0000
0100
1000
0000
0002
0000
0000
0000
1003
0000
0000
0010
0000
,  // measure 56
0100
0001
0000
0100
0000
1000
0000
0100
0000
0000
0000
0000
0010
0000
0001
0000
,  // measure 57
1001
1001
1100
1100
,  // measure 58
0101
0000
0000
0000
0010
0000
0000
1010
0000
0000
0000
0000
0100
0000
0000
0101
,  // measure 59
0000
0000
0000
0000
1000
0000
0000
1100
0000
0000
0000
0000
0001
0000
0000
0022
,  // measure 60
0000
0000
0000
0000
,  // measure 61
0000
0033
0000
2020
,  // measure 62
0000
0000
0000
0000
,  // measure 63
3030
0000
2002
0000
,  // measure 64
0000
0000
0000
0000
,  // measure 65
0000
0000
0000
0000
,  // measure 66
3003
0000
0000
0000
0000
0000
0000
1001
0000
0000
0000
0000
0000
0000
0000
0000
;

//---------------dance-single - ----------------
#NOTES:
     dance-single:
     :
     Easy:
     3:
     0.208,0.258,0.018,0.158,0.004: // measure 1
1000
0000
1000
0000
,  // measure 2
1000
0000
0001
0000
,  // measure 3
0001
0000
0001
0000
,  // measure 4
0200
0000
0000
0000
,  // measure 5
0310
0000
0100
0000
,  // measure 6
0010
0000
1000
0100
,  // measure 7
0010
0000
0001
0000
,  // measure 8
0010
0000
0001
0010
,  // measure 9
0100
0000
1000
0000
,  // measure 10
0100
0000
1000
0001
,  // measure 11
1000
0000
0010
0000
,  // measure 12
0200
0000
0000
0000
,  // measure 13
0320
0000
0000
0000
,  // measure 14
0000
0000
0000
0000
,  // measure 15
0130
0000
0000
0000
,  // measure 16
0002
0000
0000
0000
,  // measure 17
1003
0000
0001
0000
,  // measure 18
1000
0000
1000
0000
,  // measure 19
0001
0000
0001
0000
,  // measure 20
0200
0000
0000
0000
,  // measure 21
0310
0100
0010
0000
,  // measure 22
1000
0001
1000
0000
,  // measure 23
0001
0100
0001
0000
,  // measure 24
1000
0100
0010
0001
,  // measure 25
1000
0100
1000
0000
,  // measure 26
0001
1000
0001
0000
,  // measure 27
0100
0010
0100
0000
,  // measure 28
0002
0000
1003
0000
,  // measure 29
1001
0000
1000
0000
,  // measure 30
0001
0000
1000
0100
,  // measure 31
0010
0000
0001
0000
,  // measure 32
0100
0000
0010
1000
,  // measure 33
0001
0000
0010
0000
,  // measure 34
0100
0000
1000
0010
,  // measure 35
0100
0000
0001
0000
,  // measure 36
0100
0000
0001
0000
,  // measure 37
1000
0100
0010
0001
,  // measure 38
1000
0000
0001
1000
,  // measure 39
0001
1000
0001
0010
,  // measure 40
0000
0100
1000
0010
,  // measure 41
0100
0000
0010
0100
,  // measure 42
0010
0100
0010
1000
,  // measure 43
0002
0000
1000
0000
,  // measure 44
2003
0000
0001
0000
,  // measure 45
3002
0000
0000
0000
,  // measure 46
0100
0000
0100
0000
,  // measure 47
0203
0000
0010
0000
,  // measure 48
0310
0010
0010
0010
,  // measure 49
0010
0110
0000
0000
,  // measure 50
1000
0001
2000
0000
,  // measure 51
3010
0100
0010
0000
,  // measure 52
0100
0001
1000
0000
,  // measure 53
0020
0000
0130
0000
,  // measure 54
0010
0100
0010
0000
,  // measure 55
0100
0001
0010
0000
,  // measure 56
0100
1000
0010
0000
,  // measure 57
0100
0100
0100
0100
,  // measure 58
0200
0000
0320
0000
,  // measure 59
0230
0000
0320
0000
,  // measure 60
2030
0000
0000
0000
,  // measure 61
0000
0000
0000
3002
,  // measure 62
0000
0000
0000
0000
,  // measure 63
0000
0000
1003
0000
,  // measure 64
0000
0000
0000
0000
,  // measure 65
0000
0000
0000
0000
,  // measure 66
0000
0000
0000
0000
0000
0000
0000
1000
0000
0000
0000
0000
0000
0000
0000
0000
;

//---------------dance-single - ----------------
#NOTES:
     dance-single:
     :
     Beginner:
     2:
     0.095,0.137,0.053,0.000,0.000: // measure 1
1000
0000
0000
0000
,  // measure 2
1000
0000
0000
0000
,  // measure 3
1000
0000
0000
0000
,  // measure 4
1001
0000
0000
0000
,  // measure 5
1001
0000
0001
0000
,  // measure 6
0001
0000
0000
0000
,  // measure 7
1000
0000
1000
0000
,  // measure 8
1000
0000
0000
0000
,  // measure 9
0001
0000
1000
0000
,  // measure 10
0001
0000
0000
0000
,  // measure 11
1000
0000
0001
0000
,  // measure 12
1000
0000
0000
0000
,  // measure 13
0010
0000
0000
0000
,  // measure 14
0000
0000
0000
0000
,  // measure 15
0000
0000
0000
0000
,  // measure 16
0000
0000
0000
0000
,  // measure 17
0010
0000
0100
0000
,  // measure 18
0010
0000
0000
0000
,  // measure 19
0100
0000
0010
0000
,  // measure 20
0100
0000
0000
0000
,  // measure 21
0001
0000
0000
0000
,  // measure 22
1000
0000
0000
0000
,  // measure 23
0001
0000
0000
0000
,  // measure 24
1000
0000
0000
0000
,  // measure 25
0010
0000
0000
0000
,  // measure 26
0100
0000
0000
0000
,  // measure 27
0010
0000
0000
0000
,  // measure 28
0010
0000
0000
0000
,  // measure 29
1000
0000
0000
0000
,  // measure 30
1000
0000
0000
0000
,  // measure 31
0001
0000
0000
0000
,  // measure 32
0001
0000
0000
0000
,  // measure 33
1000
0000
0000
0000
,  // measure 34
0000
0000
0000
0000
,  // measure 35
0001
0000
0000
0000
,  // measure 36
0001
0000
0000
0000
,  // measure 37
1000
0000
0000
0000
,  // measure 38
1000
0000
0000
0000
,  // measure 39
0001
0000
0000
0000
,  // measure 40
0010
0000
0000
0000
,  // measure 41
0100
0000
0000
0000
,  // measure 42
1000
0000
0000
0000
,  // measure 43
0001
0000
0000
0000
,  // measure 44
1000
0000
0000
0000
,  // measure 45
1001
0000
0000
0000
,  // measure 46
0000
0000
0000
0000
,  // measure 47
0001
0000
0000
0000
,  // measure 48
0000
0000
0000
0000
,  // measure 49
0000
1001
0000
0000
,  // measure 50
1000
0000
0001
0000
,  // measure 51
1000
0000
1000
0000
,  // measure 52
0001
0000
1000
0000
,  // measure 53
0001
0000
0001
0000
,  // measure 54
0100
0000
0010
0000
,  // measure 55
0100
0000
0100
0000
,  // measure 56
0010
0000
0100
0000
,  // measure 57
0010
0000
0010
0000
,  // measure 58
0010
0000
0000
0000
,  // measure 59
0010
0000
0000
0000
,  // measure 60
0110
0000
0000
0000
,  // measure 61
0000
0000
0000
1000
,  // measure 62
0000
0000
0000
0000
,  // measure 63
0000
0000
1001
0000
;
