#TITLE:Golden Palms;
#SUBTITLE:;
#ARTIST:Dirty Androids;
#TITLETRANSLIT:;
#SUBTITLETRANSLIT:;
#ARTISTTRANSLIT:;
#CREDIT:DMAxel;
#BANNER:Golden Palms.png;
#BACKGROUND:Golden Palms-bg.png;
#LYRICSPATH:;
#CDTITLE:beatmaniaIIDX.png;
#MUSIC:Golden Palms.mp3;
#OFFSET:-7.800;
#SAMPLESTART:44.694;
#SAMPLELENGTH:12.000;
#SELECTABLE:YES;
#BPMS:0.000=130.000;
#STOPS:;
#BGCHANGES:-32.000=Golden Palms.avi=1.000=1=1=0,
99999=-nosongbg-=1.000=0=0=0 // don't automatically add -songbackground-
;

//---------------dance-single - ----------------
#NOTES:
     dance-single:
     :
     Easy:
     3:
     0.234,0.246,0.132,0.124,0.000: // measure 1
2000
0000
3010
0000
,  // measure 2
0100
0001
1000
0000
,  // measure 3
0002
0000
0103
0000
,  // measure 4
0020
0000
0000
0000
,  // measure 5
0130
0110
0001
0000
,  // measure 6
1000
0000
0100
0000
,  // measure 7
0010
0110
1000
0000
,  // measure 8
0001
0000
0010
0000
,  // measure 9
0100
0110
0001
0000
,  // measure 10
1000
0000
0100
0000
,  // measure 11
0010
0110
0001
0000
,  // measure 12
2000
0000
3001
0000
,  // measure 13
1000
1001
0000
0000
,  // measure 14
1000
0100
0010
0001
,  // measure 15
1000
1001
0000
0000
,  // measure 16
0001
0010
0100
1000
,  // measure 17
0001
1001
0000
0000
,  // measure 18
1000
0100
0010
0001
,  // measure 19
1000
1001
0000
0000
,  // measure 20
0001
0001
1000
1000
,  // measure 21
0001
1001
1000
0000
,  // measure 22
0010
0100
0010
0000
,  // measure 23
1000
1001
0001
0000
,  // measure 24
0100
0010
0100
0000
,  // measure 25
0001
1001
1000
0000
,  // measure 26
0010
0100
0010
0000
,  // measure 27
1000
1001
0001
0000
,  // measure 28
0100
0010
0100
0000
,  // measure 29
0002
0000
0000
0000
,  // measure 30
2003
0000
0000
0000
,  // measure 31
3002
0000
0000
0000
,  // measure 32
0203
0000
0000
0000
,  // measure 33
0320
0000
0000
0000
,  // measure 34
0230
0000
0000
0000
,  // measure 35
0302
0000
0000
0000
,  // measure 36
1003
0000
1000
0000
,  // measure 37
0001
1000
0001
1000
,  // measure 38
0002
0000
0000
0000
,  // measure 39
1003
0001
1000
0001
,  // measure 40
2000
0000
0000
0000
,  // measure 41
3010
0100
0010
0100
,  // measure 42
0020
0000
0000
0000
,  // measure 43
0130
0010
0100
0010
,  // measure 44
0200
0000
0000
0000
,  // measure 45
0301
1000
0001
1000
,  // measure 46
0010
0010
0010
0010
,  // measure 47
1000
0001
1000
0001
,  // measure 48
0100
0100
0100
0100
,  // measure 49
0001
1000
0001
1000
,  // measure 50
0010
0010
0010
0010
,  // measure 51
1000
0001
1000
0001
,  // measure 52
0100
0100
0100
0000
,  // measure 53
0100
1001
0100
0001
,  // measure 54
0100
0001
1000
0100
,  // measure 55
0010
1001
0010
1000
,  // measure 56
0010
1000
0001
0010
,  // measure 57
0100
1001
0100
1000
,  // measure 58
0100
1000
0001
0100
,  // measure 59
0010
1001
0010
0001
,  // measure 60
0010
0001
1000
0010
;

//---------------dance-single - ----------------
#NOTES:
     dance-single:
     :
     Medium:
     5:
     0.364,0.419,0.313,0.190,0.000:
0002
1003
0100
1000
,
0020
0130
0001
0100
,
0002
1003
0100
1000
,
0020
0000
0000
0000
0000
0100
0130
0000
,
1001
1001
0100
1000
,
0200
0010
0310
0001
,
1000
1001
0010
0001
,
0020
0100
0130
1000
,
0001
0110
1000
0010
,
0200
0010
0310
0001
,
1000
0110
0001
0100
,
0010
0020
0000
0000
0130
0000
0000
0000
,
1001
1001
1000
0001
,
2000
0000
0010
0000
3010
0000
0100
0010
,
0100
1001
0001
1000
,
0002
0000
0100
0000
0103
0000
0010
0100
,
0010
1001
1000
0001
,
0200
0000
0001
0000
0301
0000
1000
0100
,
1000
1001
0001
1000
,
0020
0000
1000
0000
1030
0001
1000
0000
,
1001
0000
0110
0000
0001
0100
0001
0000
,
2000
0100
3100
1100
,
0001
0000
0110
0000
1000
0010
1000
0000
,
0002
0010
0013
0011
,
1000
0000
1001
0000
0001
0010
0001
0000
,
2000
0010
3010
1010
,
0001
0000
1001
0000
1000
0100
1000
0000
,
0002
0000
0100
0000
0103
0001
1000
0000
,
1100
0010
0000
0010
,
0000
0000
0010
0000
0000
0001
1000
0000
,
0000
0100
0000
0100
,
0000
0000
0100
0000
0000
1000
0001
0000
,
0000
0010
0000
0010
,
0000
0000
0010
0000
0000
0001
1000
0000
,
0000
0100
0000
0100
,
1000
0002
0000
0000
,
1003
0010
0100
0001
,
2000
0000
0000
0200
0000
0000
3300
0000
,
0001
0000
0100
0000
0010
0000
1000
0001
,
0000
0001
1000
0000
0100
0000
0010
0000
,
0001
0000
0100
0000
0010
0000
1000
0001
,
0000
0100
0010
0200
0000
0000
0000
0000
,
0320
0000
0000
2030
0000
0000
3001
0200
,
0000
0000
0000
0300
,
1001
0001
1001
1000
,
0100
0100
0100
0110
,
1001
1000
1001
0001
,
0100
0010
0100
0000
0100
0000
0110
0000
,
1001
1001
1001
1001
,
0100
0010
0100
0010
0100
0010
0100
0000
,
1001
1001
1001
1001
,
0010
0100
0010
0100
0010
0000
0010
0000
,
0110
0000
1001
0000
0100
1000
0010
0000
,
0100
0010
0100
0000
0001
1000
0001
0000
,
0100
0000
1001
0000
0010
0001
0100
0000
,
0010
0100
0010
0000
1000
0001
1000
0000
,
0010
0000
1001
0000
0010
1000
0100
0000
,
0010
0100
0010
0000
0001
1000
0001
0000
,
0100
0000
1001
0000
0100
0001
0010
0000
,
0100
0010
0100
0000
1000
0001
0100
0000
;

//---------------dance-single - ----------------
#NOTES:
     dance-single:
     :
     Hard:
     7:
     0.475,0.469,0.305,0.297,0.029:
1000
0000
0000
1000
0002
0000
0000
0000
0100
0000
0000
0000
0103
0000
0000
0000
,
0001
0000
0000
0001
2000
0000
0000
0000
0010
0000
0000
0000
3010
0000
0000
0000
,
1000
0000
0000
1000
0002
0000
0000
0000
0010
0000
0000
0000
0013
0000
0000
0000
,
0001
0010
0100
1000
0010
0100
0100
0000
,
1001
0000
0101
0000
1000
0100
1000
0000
,
0002
0000
0100
0000
1003
0100
1000
0000
,
0010
0000
1010
0000
0001
0010
0001
0000
,
2000
0000
0100
0000
3001
0100
0001
0000
,
1000
0000
0011
0000
1000
0010
1000
0000
,
0002
0000
0100
0000
1003
0100
1000
0000
,
0001
0000
1100
0000
0001
0100
0001
0000
,
1000
0010
0200
0000
0010
0010
0310
0000
,
0110
0000
1001
0000
0001
0100
0010
0000
,
2000
0000
0100
0000
3001
0010
0100
1000
,
0001
0000
1001
0000
1000
0010
0100
0000
,
0002
0000
0100
0000
1003
0100
0010
0001
,
1000
0000
1001
0000
0010
0100
0001
0000
,
0200
0000
0010
0000
0301
0010
0100
1000
,
0001
0000
1001
0000
0100
0010
1000
0000
,
0010
0000
0000
0000
0010
0000
0000
0010
0000
0010
0000
0000
0010
0000
0000
0000
,
0101
0000
1100
0000
0001
0100
0001
0100
,
0020
0000
1000
0000
0130
0010
0001
0000
,
1000
0000
0011
0000
1000
0010
1000
0010
,
0200
0000
0001
0000
0310
0100
1000
0000
,
0001
0000
1010
0000
0001
0010
0001
0010
,
0200
0000
1000
0000
0310
0001
0100
0000
,
0001
0000
0101
0000
1000
0100
1000
0100
,
0020
0000
0001
0000
0130
1000
0010
0000
,
2001
0000
0001
0000
0001
0000
3001
0200
,
0000
0000
0310
2000
0000
0001
3001
0000
,
0002
0000
1000
0000
1000
0000
1003
0020
,
0000
0000
0130
0002
0000
1000
1003
0000
,
2000
0000
0001
0000
0001
0000
3001
0020
,
0000
0000
0130
2000
0000
0001
3001
0000
,
0002
0000
1000
0000
1000
0000
1003
0200
,
0000
0310
0001
1000
,
1001
0000
0100
0001
0100
0001
1000
0200
,
0000
0000
1300
0002
0000
1000
1003
0000
,
0010
0000
0010
1000
0010
1000
0001
0020
,
0000
0100
0001
0130
,
0100
0000
0100
1000
0100
1000
0001
0200
,
0000
0301
0010
0200
0000
0000
1300
0002
,
0000
0000
0013
0200
0000
0000
1300
0001
,
0100
0010
0100
0000
,
1001
1001
1001
1001
,
0010
1000
0010
1000
0010
1000
0001
0001
,
1001
1001
1001
1001
,
0100
0000
0001
0100
0000
0000
0001
0100
0001
0000
0100
0000
0001
0000
1000
0000
,
1001
0000
0110
0000
1001
0001
0100
0010
,
1000
0100
1000
0100
1000
0100
0101
0000
,
1001
0000
0110
0000
1001
1000
0010
0100
,
0001
0010
0001
0010
0100
0100
0010
0010
,
0001
0100
0010
2000
0000
3001
0100
0001
,
1000
1000
0010
0000
0101
0000
1001
0000
,
1000
0010
0100
0002
0000
1003
0010
1000
,
0001
0001
0100
0000
1010
0000
1001
0000
,
0001
0010
0100
2000
0000
3100
0010
0001
,
1000
1000
0001
0100
1000
0100
0101
0000
,
1000
0100
0010
0002
0000
0013
0100
1000
,
0001
0001
1000
0100
0001
0100
1000
0100
;

//---------------dance-single - ----------------
#NOTES:
     dance-single:
     :
     Challenge:
     8:
     0.554,0.543,0.371,0.256,0.066:
2000
0000
0000
0000
3002
0000
0010
0000
0000
0010
0000
0000
0013
0000
0000
0000
,
0002
0000
0000
0000
2003
0000
0100
0000
0000
0100
0000
0000
3100
0000
0000
0000
,
2001
0000
0000
0000
3020
0000
0100
0000
0000
0100
0000
0000
0130
0000
0000
0000
,
1000
0100
0010
0001
0100
1000
1000
0000
,
1100
0000
1001
0000
0100
0001
1000
0100
,
1000
1000
0001
0000
0001
0010
0100
0000
,
0011
0000
1001
0000
0010
1000
0001
0010
,
0001
0001
1000
0000
1000
0100
0010
0000
,
1100
0000
1001
0000
0100
1000
0001
0100
,
0001
0001
1000
0000
1000
0010
0100
0000
,
1010
0000
1001
0000
0010
0001
1000
0010
,
1000
0000
1000
0000
0002
0000
0100
0000
0100
0000
0103
0000
0010
0100
0010
0100
,
0010
0000
1001
0000
1000
0100
1000
0001
,
0200
0000
0320
0000
1030
1000
0110
0001
,
1000
0000
1001
0000
0001
0010
0001
1000
,
0020
0000
0230
0000
0301
0001
0100
1000
,
0001
0000
1001
0000
0100
0100
0010
0010
,
1000
0100
0001
0100
1000
1000
0110
0001
,
1000
0000
1001
0000
0010
0010
0100
0100
,
0002
0000
0000
0000
1000
0000
0000
1003
0000
0010
0100
0000
0001
0000
0001
0000
,
1001
0000
1100
0000
0010
0100
1000
0001
,
0200
0000
1300
0100
0001
0100
0110
1000
,
0001
0000
0011
0000
0100
0010
0001
1000
,
0200
0000
0301
0100
1000
0100
0010
0010
,
0100
0000
0101
0000
0010
0100
0001
1000
,
0200
0000
0301
0100
1000
0100
0110
0001
,
1000
0000
1010
0000
0100
0010
1000
0001
,
0200
1000
1300
0000
0100
0001
0010
0010
,
0001
0010
0100
1000
0001
0100
0001
2000
,
0000
0000
0100
0100
0000
0001
3001
0000
,
1000
0100
0010
0001
1000
0010
1000
0002
,
0000
0000
0100
0100
0000
1000
1003
0000
,
0001
0100
0010
1000
0001
0010
0001
2000
,
0000
0000
0100
0100
0000
0001
3001
0000
,
1000
0010
0100
0001
1000
0100
1000
0002
,
0000
0100
0103
0010
1000
1000
1000
0000
,
0001
1000
0100
1000
0001
0100
0001
2000
,
0000
0010
3010
0200
0000
0001
0301
0000
,
1000
0001
0010
0001
1000
0010
1000
0002
,
0000
1000
1003
0100
0010
0001
1000
1000
,
0001
1000
0100
1000
0001
0100
0001
2000
,
0000
0010
3010
0200
0000
0001
0301
2000
,
0000
0000
3100
0020
0000
0000
0031
1000
,
0010
0100
0010
0000
1000
1000
0001
0000
,
0101
0000
1100
0000
0101
0000
1100
1000
,
0001
0001
0100
0100
0010
0010
1010
0000
,
0011
1010
0011
1001
,
1000
0000
0001
0100
0000
0000
0001
0100
0010
0000
1000
0000
1000
0000
0001
0000
,
0101
0000
0100
0000
0110
0000
0000
0000
1010
0000
1010
0000
0100
0001
0100
0000
,
0001
0010
0001
1000
0100
1000
1100
0000
,
0101
0000
0000
0000
0101
0000
0000
0000
0110
0000
0110
0000
1000
0010
1000
0000
,
0010
0000
0100
0000
0001
0000
0001
0000
1000
0000
1000
0010
0100
0000
0100
0000
,
1001
0000
0001
0100
0001
0000
2000
0000
0000
0000
0010
0000
3010
0000
0100
0000
,
0001
0100
1000
0100
0101
0000
1001
0000
,
0001
0000
1000
0010
1000
0000
0002
0000
0000
0000
0100
0000
0103
0000
0010
0000
,
1000
0100
0001
0100
1000
0000
1001
0000
,
1000
0000
0001
0010
0001
0000
0020
0000
0000
0000
0130
0000
0010
0000
0001
0000
,
1000
0100
0010
1000
0010
0001
1001
0000
,
0001
0000
1000
0100
1000
0000
0200
0000
0000
0000
0310
0000
0100
0000
1000
0000
,
0001
0010
0100
0001
0100
1000
0001
0001
;

//---------------dance-single - ----------------
#NOTES:
     dance-single:
     :
     Beginner:
     1:
     0.066,0.122,0.033,0.000,0.000:
1000
0000
0000
0000
,
1000
0000
0000
0000
,
1000
0000
0000
0000
,
1000
0000
0000
0000
,
0001
0000
0000
0000
,
1000
0000
0000
0000
,
0001
0000
0000
0000
,
1000
0000
0000
0000
,
0001
0000
0000
0000
,
0001
0000
0000
0000
,
1000
0000
0000
0000
,
0001
0000
0000
0000
,
0100
0000
0000
0000
,
0100
0000
0000
0000
,
0010
0000
0000
0000
,
0010
0000
0000
0000
,
0100
0000
0000
0000
,
0100
0000
0000
0000
,
0001
0000
0000
0000
,
1000
0000
0000
0000
,
0001
0000
0000
0000
,
0001
0000
0000
0000
,
1000
0000
0000
0000
,
1000
0000
0000
0000
,
0001
0000
0000
0000
,
0001
0000
0000
0000
,
1000
0000
0000
0000
,
1000
0000
0000
0000
,
0010
0000
0000
0000
,
0000
0000
0000
0000
,
0010
0000
0000
0000
,
0000
0000
0000
0000
,
0010
0000
0000
0000
,
0000
0000
0000
0000
,
0100
0000
0000
0000
,
0000
0000
0000
0000
,
0001
0000
0000
0000
,
0000
0000
0000
0000
,
1000
0000
0000
0000
,
0000
0000
0000
0000
,
0001
0000
0000
0000
,
0000
0000
0000
0000
,
1000
0000
0000
0000
,
0000
0000
0000
0000
,
1001
0000
0000
0000
,
0001
0000
0000
0000
,
1001
0000
0000
0000
,
1000
0000
0000
0000
,
1001
0000
0000
0000
,
0001
0000
0000
0000
,
1001
0000
0000
0000
,
1000
0000
0000
0000
,
0001
0000
0000
0000
,
1000
0000
0000
0000
,
0010
0000
0000
0000
,
0100
0000
0000
0000
,
0010
0000
0000
0000
,
1000
0000
0000
0000
,
0001
0000
0000
0000
,
1000
0000
0000
0000
;
