#TITLE:God knows...;
#SUBTITLE:(Gt. KURIKINTON FOX);
#ARTIST:KURIKINTON FOX;
#TITLETRANSLIT:;
#SUBTITLETRANSLIT:;
#ARTISTTRANSLIT:;
#CREDIT:DMAxel;
#BANNER:God knows... (Gt. KURIKINTON FOX).png;
#BACKGROUND:God knows... (Gt. KURIKINTON FOX)-bg.png;
#LYRICSPATH:;
#CDTITLE:DMAxel Original Simfile.png;
#MUSIC:God knows... (Gt. KURIKINTON FOX).mp3;
#OFFSET:0.240;
#SAMPLESTART:60.624;
#SAMPLELENGTH:12.000;
#SELECTABLE:YES;
#BPMS:0.000=160.000;
#STOPS:;
#BGCHANGES:;

//---------------dance-single - ----------------
#NOTES:
     dance-single:
     :
     Easy:
     4:
     0.274,0.357,0.104,0.202,0.000:
0000
0000
0000
0000
,
0000
0000
0000
0000
,
0000
0000
0000
0000
,
0000
0000
0000
0000
,
0000
0000
0000
0000
,
0000
0000
0001
0000
,
0001
0000
0100
0000
,
0100
0000
0010
0010
,
0010
0010
2000
0000
,
0000
0000
3001
0000
,
0001
0000
0100
0000
,
0100
0000
0010
0000
,
1000
0000
0010
0000
,
1000
0000
0001
0000
,
0001
0000
1000
0000
,
1000
0000
0100
0100
,
0100
0100
2000
0000
,
0000
0000
3010
0100
,
0020
0000
0000
0000
,
0130
0001
0010
0001
,
0020
0000
0000
0000
,
0030
0000
0001
1000
,
0200
0000
0000
0000
,
1300
0010
0200
0000
,
0000
0000
0320
0000
,
0230
0000
0301
0010
,
0001
0010
0001
1000
,
0001
1000
0100
1000
,
0100
1000
0100
0010
,
0001
0010
0100
1000
,
0020
0000
0000
0030
,
0100
0010
1000
0002
,
0000
0023
0000
0000
,
0000
0031
1000
1100
,
0000
0011
0000
1001
,
0010
0100
0002
0000
,
0203
0000
0320
0000
,
0000
0030
1000
0100
,
2000
0000
3001
0100
,
0001
0010
0200
0000
,
2300
0000
3001
0000
,
0000
0000
1001
0010
,
0100
0000
1001
0100
,
0010
0000
2000
0000
,
3020
0000
0130
0001
,
0010
0100
2000
0000
,
0000
0000
3010
0100
,
0010
0100
0002
0000
,
0000
0023
0000
0031
,
0100
0000
0010
0100
,
0020
0000
1030
0001
,
0010
0000
0001
0000
,
0100
0000
0010
0000
,
1000
0100
0020
0000
,
0000
0000
0031
0100
,
0010
0100
0020
0000
,
0000
0000
0000
1030
,
0100
0010
0002
0000
,
0000
0000
0000
0200
0003
0000
0000
0000
,
0000
0000
0310
0000
,
0000
0000
0010
0000
,
0000
0000
0010
0000
,
0000
0000
0010
0000
,
0000
0000
0100
0000
,
0000
0000
0100
0000
,
0000
0000
0100
0000
,
0000
0000
0001
0000
,
0000
0000
1000
0000
,
0000
0000
1000
0000
,
0000
0000
1000
0000
,
0000
0000
0001
0000
,
0000
0001
1000
0100
,
0010
0001
0010
0001
,
0010
0100
1000
1000
,
1000
1000
0100
0010
,
0001
0010
1001
0000
,
0000
0000
0110
0000
,
0000
0000
1001
0010
,
0100
1000
0010
0100
,
0001
0010
0100
1000
,
0100
1000
0001
0010
,
0100
1000
1001
0010
,
0100
0010
1000
0100
,
0010
0001
0010
0001
,
0010
0100
1000
0110
,
1001
0010
1000
0010
,
0100
0001
0110
1000
,
0010
1000
0110
0001
,
0010
0100
1000
0010
,
0100
0001
1001
0100
,
0010
1000
1010
0101
,
0001
0010
0100
1000
,
0100
0010
0001
0100
,
0001
1000
0002
0000
,
0000
0000
2000
0000
,
0000
0000
3003
0010
,
0100
0001
1000
0100
,
0020
0000
0031
0010
,
0100
1000
0001
0010
,
0001
0000
0100
0001
,
0010
0100
1000
0010
,
1000
0100
0010
0001
,
0100
0010
1001
0100
,
0001
0010
0100
1000
,
0010
0100
0010
0010
,
0010
1000
0100
0010
,
0001
0100
0020
0000
,
0230
0000
0301
0001
,
1000
1000
0010
0010
,
0100
0100
0020
0000
,
0000
0030
2002
0000
,
0000
0000
0000
0000
,
0000
0000
3003
0000
;

//---------------dance-single - ----------------
#NOTES:
     dance-single:
     :
     Hard:
     7:
     0.482,0.552,0.438,0.138,0.017:
0000
0000
0000
0000
,
0000
0000
0000
0000
,
0000
0000
0000
0000
,
0000
0000
0000
0000
,
0000
0000
0000
0000
,
0000
0000
0010
1001
,
0100
0010
0100
0000
0010
0000
1001
0000
,
0010
0100
0010
0000
1000
0100
0001
0000
,
1000
0100
0001
0000
0200
0000
0320
0000
,
2030
3002
0103
0001
,
0110
0000
1000
0010
0100
0000
0001
0000
,
1000
0000
0010
0100
0001
0000
0100
0010
,
1000
0000
0100
1000
0010
0000
0100
0001
,
0010
0001
0100
0000
0010
0000
1001
0000
,
0100
0010
1000
0000
0001
0000
1001
0000
,
0010
0001
0100
0000
0001
0010
0100
1000
,
0010
0100
0001
0010
0100
1000
0001
0200
,
0000
0000
0310
0010
,
1000
0000
1000
0000
0001
0000
0001
1000
,
0100
0010
0001
0100
0010
0000
0010
0100
,
0001
0100
0001
0001
,
0010
0000
0010
0000
0001
0000
0100
0010
,
1000
0000
0001
0000
0001
0000
0100
0001
,
0010
0000
0100
0000
1000
0000
0010
0000
1000
0000
0000
0100
0000
0000
1001
0000
,
0000
0000
0010
0000
0200
0000
0000
0001
,
1300
0000
0010
0000
1000
0100
0010
0001
,
0100
0010
1000
0000
0001
0010
0100
1000
,
0010
0100
0001
0000
1000
0010
0100
0001
,
0100
0010
1000
0000
0010
0100
0010
0100
,
0010
0100
0010
0000
1100
0000
0010
0001
,
0100
0000
0010
0000
1000
0000
0001
0010
,
0100
1000
0010
0100
0001
0000
0100
0000
,
0010
0000
0100
0010
0100
0010
0100
0010
,
0100
0001
1001
1000
,
0110
0001
0110
1000
,
0010
1000
0100
0010
0001
0000
0101
0000
,
1010
1001
0100
0100
,
0010
0010
0100
1001
,
0010
0010
1100
0001
,
0010
0000
0100
0000
1000
0000
0001
0200
,
0000
0010
0310
2002
,
0000
0000
0000
0000
3003
0000
0000
0000
0100
0000
0000
0000
0010
0000
0100
0010
,
0000
0000
1000
0000
0000
0000
0010
0000
0000
0000
0100
0000
0010
0000
0100
0001
,
0000
0010
0000
0001
0100
0010
1000
0100
,
0000
1000
0100
0001
0000
0010
0000
0001
,
0000
0100
0001
0010
1100
0000
0000
1001
,
0000
0000
0000
0100
0001
0000
0010
0000
,
0100
1000
1001
0010
,
0100
0001
0010
1100
,
0011
0000
0000
0000
0000
0000
0000
0000
0001
0000
0010
0000
0100
0000
1000
0010
,
0000
0000
0101
0000
0000
0000
1010
0000
0000
0000
1000
0000
0100
0000
0010
0001
,
0000
1100
0000
0011
0000
1000
0100
0001
,
0000
1000
0010
0001
0000
0100
0000
0010
,
0000
1000
0100
0010
1001
0000
0000
1001
,
0000
0000
0000
0010
0001
0000
0100
0000
,
0010
0000
1000
0000
0001
0000
0000
1001
,
0000
0000
0000
0001
,
0100
0010
2200
0000
,
3300
0000
0000
0022
0000
0000
0000
0000
,
0033
0000
0100
0010
0100
0000
0100
0000
,
0010
0010
1000
1000
,
0001
0001
1001
0100
,
0100
0001
0001
1000
,
1000
0010
1001
0100
,
0001
0010
0100
1000
,
0100
0010
0001
0010
,
0001
1000
0002
0000
,
0000
0000
0013
0001
,
0100
0010
0010
1000
,
0010
0000
0100
0001
0100
0000
0001
0000
,
1000
0100
0011
0100
,
1000
0010
0101
0011
,
1010
1100
1001
0110
,
1001
0000
0001
0010
0100
1000
0010
0100
,
0001
0010
0100
1000
1000
0001
0001
0100
,
0100
0010
0010
1000
1001
0000
0000
0000
,
0000
0000
0000
0010
0110
0000
0000
0000
,
1001
0000
1001
0000
0010
1000
0100
0000
,
0011
0000
1100
0000
0010
0001
0100
0000
,
1010
0000
0101
0000
0100
0001
0010
0100
,
0000
1000
0010
0100
0000
0011
0000
1100
,
0000
0001
0010
0100
2000
0000
0000
3002
,
0000
0000
0000
1000
1003
0000
0010
0000
,
0100
0001
0020
0000
,
0000
0031
0100
1000
0000
0000
0010
0000
,
1000
0001
0000
0100
0000
0001
0010
0100
,
1000
0001
0000
0110
0000
1000
0100
0010
,
0001
1000
0000
0010
0000
1000
0100
0001
,
0000
1000
0010
0001
0000
0010
0000
0001
,
0000
1000
0010
0100
1001
0000
0000
0011
,
0000
0000
0000
1000
0001
0000
0010
0000
,
0100
0000
1000
0000
0002
0000
0000
2003
,
0000
0000
0000
3001
,
0100
0000
0000
0001
0000
0000
1000
0000
0020
0000
0000
0000
0000
0000
0000
0000
,
0000
0000
0000
2030
0000
0000
0000
0000
,
0000
0000
3001
1100
,
0010
0000
0001
0000
1000
0000
0010
0100
,
0010
0000
1000
0001
,
0100
0010
0101
1010
,
1001
0000
0011
0101
,
1100
1010
1001
0010
,
1000
0100
0010
0001
0100
0000
0010
0000
,
0100
0001
1000
0001
,
1000
0001
0110
1000
,
0110
0000
0001
0000
1000
0100
0010
0001
,
0010
0100
1000
0000
1010
0000
0101
0000
,
1100
0000
0011
0000
1000
0100
0010
0001
,
0010
0100
1000
0000
1010
0000
0101
0000
,
0011
1100
1001
0110
,
1001
0000
0100
0000
0010
0100
0020
0000
,
0100
0130
2002
0000
,
0000
0000
0000
0000
,
0000
0000
3003
0000
;

//---------------dance-single - ----------------
#NOTES:
     dance-single:
     :
     Challenge:
     8:
     0.588,0.552,0.363,0.225,0.167: // measure 1
0000
0000
0000
0000
,  // measure 2
0000
0000
0000
0000
,  // measure 3
0000
0000
0000
0000
,  // measure 4
0000
0000
0000
0000
,  // measure 5
0000
0000
0000
0000
,  // measure 6
0000
0000
0000
0000
0000
0000
0000
0000
0001
0000
0000
0010
0000
0000
1000
0000
,  // measure 7
0000
0100
0000
0000
0010
0000
0001
0000
1000
0000
0000
0100
0000
0000
0001
0000
,  // measure 8
0000
0010
0000
0000
0100
0000
1000
0000
0100
0000
0010
0000
0001
0000
0100
0000
,  // measure 9
0010
0000
1000
0000
0100
0000
0010
0000
0001
0010
0000
0000
0010
0100
0000
0000
,  // measure 10
0100
1000
0000
0000
0010
0000
0100
0000
1001
0000
0000
0001
0000
0000
1000
0000
,  // measure 11
0000
0001
0000
0000
0010
0000
0100
0000
1000
0000
0000
0010
0000
0000
0100
0000
,  // measure 12
0000
0001
0000
0000
0010
0000
0100
0000
1000
0000
0000
0010
0000
0000
0100
0000
,  // measure 13
0001
0000
0000
0010
0000
0000
0001
0000
1000
0000
0000
0100
0000
0000
1000
0000
,  // measure 14
0000
0001
0000
0000
0100
0000
0010
0000
1000
0000
0000
0000
1010
0000
0000
0001
,  // measure 15
0100
0000
0010
0000
0100
0000
0010
0000
1000
0000
0000
0000
0101
0000
0000
0010
,  // measure 16
1000
0010
0100
0000
0001
0010
0100
1000
,  // measure 17
0010
0100
0001
0010
0100
1000
0010
0200
,  // measure 18
0000
0000
0000
0000
0000
0000
0000
0000
0301
0000
0000
0000
0100
0000
0010
2000
,  // measure 19
0000
0000
3001
0000
0100
0000
0001
0010
,  // measure 20
0100
0000
1000
0000
0010
0000
0100
0000
0002
0000
0000
0000
0103
0000
0010
2000
,  // measure 21
0000
3001
0010
0100
,  // measure 22
1000
0000
0000
0000
0010
0000
0000
0000
2000
0000
0000
0000
3001
0000
0100
0020
,  // measure 23
0000
0000
1030
0000
0001
0000
1000
0010
,  // measure 24
0100
0000
0001
0000
0100
0000
0010
0000
1000
0000
0000
0010
0000
0000
0002
0000
,  // measure 25
0000
0100
0203
0320
,  // measure 26
2030
0000
3001
0000
1000
0100
0010
0001
,  // measure 27
0100
0010
1000
0000
0001
0010
0100
1000
,  // measure 28
0010
0000
0100
0000
0001
0000
0100
0000
2000
0000
0000
0000
3001
0000
0100
0020
,  // measure 29
0000
0000
1030
0100
0010
0001
0010
0100
,  // measure 30
1000
0000
0010
0000
0100
0000
0001
0000
1000
0000
0000
0000
0010
0000
0100
0002
,  // measure 31
0000
0000
1003
0010
0100
0001
1000
0100
,  // measure 32
0010
0000
0001
0000
0010
0000
0100
0000
1000
0000
0000
0100
0000
0000
0002
0000
,  // measure 33
0000
0000
0103
0010
1000
0001
0010
0100
,  // measure 34
1000
0100
0011
0000
1001
0000
0100
0000
,  // measure 35
0101
0000
0010
0000
1010
0000
0100
0001
,  // measure 36
0010
0100
1000
0010
0100
0000
0101
0000
,  // measure 37
1000
0000
0010
1000
0000
1000
0001
0000
,  // measure 38
0010
0000
0000
0000
0001
0000
1000
0000
0100
0000
0010
0000
0001
0000
0100
0020
,  // measure 39
0000
0000
0000
0000
0000
0000
1030
0000
0100
0000
0010
0000
0001
0000
0100
0010
,  // measure 40
0000
0010
0100
0001
1000
0000
0010
0200
,  // measure 41
0000
0000
0000
0000
0010
0000
0000
0000
0310
0000
0000
1000
0010
0000
1000
0010
,  // measure 42
0000
0100
0010
0000
0100
0001
0000
0000
1001
0000
0010
0000
0100
0000
0010
1000
,  // measure 43
0000
0000
0010
0000
0000
0000
0101
0000
0000
0000
0001
0000
0010
0000
0100
1000
,  // measure 44
0000
0011
0000
1001
0000
0001
0010
1000
,  // measure 45
0000
0001
0100
1000
0000
0010
0000
0100
,  // measure 46
0001
0010
0100
1000
0011
0000
0000
1001
,  // measure 47
0000
0000
0000
0001
0010
0000
1100
0000
,  // measure 48
1001
0010
2000
0001
,  // measure 49
3001
0010
0100
1000
0000
0000
0010
0000
,  // measure 50
1000
0000
0010
0000
0000
0000
0100
0000
0001
0000
0010
0000
0100
0000
1000
0010
,  // measure 51
0000
0000
0101
0000
0000
0000
1001
0000
0000
0000
0001
0000
0010
0000
0100
1000
,  // measure 52
0000
0011
0000
1001
0000
1000
0100
0001
,  // measure 53
0000
1000
0010
0001
0000
1100
0000
0001
,  // measure 54
0010
0100
1000
0010
0200
0000
0000
0310
,  // measure 55
0000
0000
0000
1000
0011
0000
0101
0000
,  // measure 56
1100
0000
1010
0000
1001
0000
0000
2002
,  // measure 57
0000
0000
3003
0100
,  // measure 58
0010
0000
0000
1000
0000
0000
0001
0000
0200
0000
0000
0000
0001
0000
0000
0000
,  // measure 59
0001
0000
0000
0302
0000
0000
1000
0000
,  // measure 60
1000
0000
1003
0010
0100
0000
0100
0010
,  // measure 61
1000
0100
0010
0001
0010
0000
0010
0001
,  // measure 62
0010
0100
1000
0010
0100
0000
0100
0010
,  // measure 63
1000
0100
0010
0001
0100
0001
0010
0001
,  // measure 64
0010
0100
1000
0010
2000
0000
0100
0000
,  // measure 65
3100
0000
1001
0000
0001
0000
1000
0010
,  // measure 66
0000
0100
0000
0001
0100
0010
0100
0000
,  // measure 67
0010
0000
1000
0100
0010
0001
0010
0100
,  // measure 68
1000
0010
0100
0001
1000
0000
0010
0100
,  // measure 69
0000
0011
0000
1000
0100
0000
1000
0010
,  // measure 70
0000
0100
0001
0100
0010
0000
1000
0001
,  // measure 71
0000
2000
0000
3020
0000
0230
0000
0302
,  // measure 72
0000
0103
0010
1000
0011
0000
0101
0000
,  // measure 73
1100
1010
1001
0110
,  // measure 74
1001
0000
1001
0000
0001
0010
0100
1000
,  // measure 75
0010
0100
0001
1000
0001
0001
0100
0100
,  // measure 76
0010
0010
1000
1000
2001
0000
0000
0000
,  // measure 77
0000
0000
0000
0010
3020
0000
0000
0000
,  // measure 78
0130
0000
0001
1000
0001
0000
0100
0010
0100
0000
0010
0000
1000
0000
0010
0100
,  // measure 79
0000
0000
0011
0000
0000
0000
1100
0000
0000
0000
0001
0000
0100
0000
0010
1000
,  // measure 80
0000
0011
0000
1100
0000
0001
0010
1000
,  // measure 81
0000
0001
0100
1000
0000
1010
0000
0101
,  // measure 82
0000
0001
0010
0100
2000
0000
0000
3002
,  // measure 83
0000
0000
0000
1003
0010
0000
1100
0000
,  // measure 84
0011
1010
0102
0000
,  // measure 85
0000
1003
0100
0001
0000
0000
1001
0000
,  // measure 86
1000
0000
0001
0000
0000
0000
1100
0000
0000
0000
0001
0000
1000
0000
0010
0100
,  // measure 87
0000
0000
0011
0000
0000
0000
1010
0000
0000
0000
0001
0000
0010
0000
0100
1000
,  // measure 88
0000
0101
0000
0011
0000
1000
0100
0001
,  // measure 89
0000
1000
0010
0001
0000
1100
0000
1010
,  // measure 90
0000
0010
0100
0001
0020
0000
0000
0032
,  // measure 91
0000
0000
0000
0103
0010
0000
1100
0000
,  // measure 92
1010
0000
0011
0000
0101
0000
0000
2001
,  // measure 93
0000
0001
3001
0110
,  // measure 94
1000
0000
0000
0001
0000
0000
0100
0000
0020
0000
0000
0000
0100
0000
0000
0000
,  // measure 95
0100
0000
1030
0002
1000
0000
1000
0000
,  // measure 96
1003
0000
0010
0100
0010
0000
1000
0000
0000
0000
0001
0000
0010
0000
0100
0000
,  // measure 97
1000
0100
0010
0100
1000
0001
0010
0100
,  // measure 98
1000
0000
1000
0001
0000
0001
0010
0100
,  // measure 99
1000
0100
0010
0001
0010
0100
0010
0001
,  // measure 100
0010
0100
1000
0010
0000
0100
0001
0010
,  // measure 101
0100
1000
0100
0010
0001
1000
0010
0100
,  // measure 102
0010
0000
1000
0000
0001
0000
0010
0000
1000
0000
0000
0010
0000
0000
0100
0000
,  // measure 103
0000
0010
0000
0000
0100
0000
0000
0001
0000
0000
1000
0000
0000
0001
0000
0000
,  // measure 104
1000
0000
0110
0000
0001
0010
0100
1000
,  // measure 105
0100
0010
0001
0000
1000
0100
0001
0100
,  // measure 106
0010
1000
0100
0000
0001
0100
1000
0100
,  // measure 107
0010
0001
0010
1000
0100
0010
0001
1000
,  // measure 108
0100
0000
0010
0000
0001
0000
1000
0000
0100
1000
0000
0000
1000
0010
0000
0000
,  // measure 109
0010
0001
0000
0000
0001
0010
0000
0000
0010
1000
0000
0000
1000
0010
0000
0000
,  // measure 110
0010
0100
0000
0000
0100
0001
0000
0000
0020
0000
0000
0000
0000
0000
0000
0000
,  // measure 111
0031
0100
0000
0010
1000
0000
0010
0100
0020
0000
0000
0000
0000
0000
0000
0000
,  // measure 112
0000
0000
0000
0000
,  // measure 113
0000
0000
0030
0000
;

//---------------dance-single - ----------------
#NOTES:
     dance-single:
     :
     Medium:
     5:
     0.363,0.454,0.236,0.260,0.009:
0000
0000
0000
0000
,
0000
0000
0000
0000
,
0000
0000
0000
0000
,
0000
0000
0000
0000
,
0000
0000
0000
0000
,
0000
0000
0001
0110
,
1000
1001
0010
0100
,
0001
0110
1000
0001
,
0010
0001
1000
0100
,
0010
0001
1001
0100
,
0010
0100
0001
0010
,
0100
1000
0110
0001
,
0100
0001
1100
0010
,
0001
0110
1000
0110
,
0001
1001
1000
1001
,
0010
0110
0100
0001
,
0010
0000
0100
0000
1000
0001
1000
0002
,
0000
0000
0000
0000
0000
0000
0000
0000
1003
0000
0000
0000
0010
0000
0000
0010
,
0000
0000
0100
0000
0010
0000
0100
0010
,
1000
0000
0010
0000
0100
0000
0000
0000
0001
0000
0000
0000
0010
0000
0000
0010
,
0000
0001
1000
0001
,
1000
0000
0000
0000
0001
0000
0000
0000
0100
0000
0000
0000
0010
0000
0000
0010
,
0000
0100
0010
0100
,
0010
0000
1000
0000
0010
0000
0100
0020
,
0000
0000
2030
0000
,
3002
0000
0103
0010
,
0100
0010
1000
0001
,
1000
0001
0010
0001
,
1000
0100
1000
0100
,
0010
0001
0010
0100
,
1000
0000
0010
0000
0100
0000
0001
1000
,
0001
1000
0010
0000
0100
0000
0010
0000
,
1000
0100
1100
0011
,
0100
0010
0110
1001
,
0000
0011
0000
1100
,
0010
0100
0020
0000
,
1030
0000
0000
0010
0000
0000
0100
0000
,
0001
1000
0011
0100
,
0010
1000
0110
0001
,
1000
0010
0100
0000
0002
0000
0000
2003
,
0000
0000
3010
0100
,
0010
0000
0000
1000
0000
0010
0001
0000
,
1100
0000
1000
0010
0000
0100
0001
0000
,
1000
0000
0010
0000
0100
0000
0001
0100
,
0000
0010
1000
0010
0000
0100
0000
0010
,
0000
0100
0010
1000
0002
0000
0000
0103
,
0000
0000
0000
0010
1000
0000
0010
0000
,
0100
0001
0020
0000
,
0000
0031
0100
0002
0000
0000
0000
0103
,
0000
0010
0100
0000
1001
0000
0001
0000
,
0100
1010
1000
0010
,
0101
1000
0010
0100
,
0001
0010
0100
1000
,
0001
0000
0100
0000
1001
0000
0000
0100
,
0000
0000
0000
0001
0010
0000
0100
0000
,
1000
0010
1000
0000
,
0001
0000
0000
1000
,
0100
0010
0202
0000
,
0000
0303
0000
2020
0000
0000
0000
0000
,
0000
3030
0020
0000
,
0000
0000
0230
0000
,
0000
0000
0320
0000
,
0000
0000
2030
0000
,
0000
0000
3002
0000
,
0000
0000
0203
0000
,
0000
0000
0320
0000
,
0000
0000
1030
0100
,
0010
0001
0200
0000
,
0000
0000
0320
0000
,
0000
0000
0230
0000
,
0000
0000
0302
0000
,
0000
0000
0103
0010
,
0100
0010
0100
0001
,
1000
0001
1000
0001
,
1000
0001
0100
0100
,
0010
0010
1001
0000
,
0000
0000
0000
0110
0110
0000
0000
0000
,
1001
0000
0001
0010
,
0100
1000
0010
0100
,
0001
2000
0000
3020
,
0000
0130
0001
0010
,
0100
0000
1000
0000
1001
0000
0000
1001
,
0000
0000
0000
0100
0010
0000
1000
0000
,
0100
0010
1001
0000
,
0000
0001
1000
0001
0000
0000
1000
0000
,
1100
0001
0011
1000
,
0100
0010
0001
0100
,
0010
1000
0001
0010
,
0100
1000
0100
1000
,
0010
0100
0002
1000
,
1003
0010
0100
0001
,
1000
0010
2000
0001
,
3002
0000
0000
0203
,
0000
0000
0302
0000
,
0000
0000
0000
2003
0000
0000
0000
0000
,
0000
0000
3010
0100
,
0010
1000
0100
0010
,
0002
0000
0103
0010
,
1000
0001
0010
0100
,
1000
0000
0010
0100
,
0010
1000
0100
0010
,
0001
0100
0001
0100
,
0010
1000
0010
1000
,
0001
1000
0001
0010
,
0100
1000
1001
0010
,
0100
0001
0011
1100
,
1001
1001
0010
0100
,
0001
1000
0002
0023
,
0230
2300
3020
0230
,
0302
0023
0032
0000
,
1000
1003
2002
0000
,
0000
0000
0000
0000
,
0000
0000
3003
0000
;
