#TITLE:Girl from the Portrait;
#SUBTITLE:;
#ARTIST:1000 RIVER featuring Masato Ishida;
#TITLETRANSLIT:;
#SUBTITLETRANSLIT:;
#ARTISTTRANSLIT:;
#CREDIT:DMAxel;
#BANNER:Girl from the Portrait.png;
#BACKGROUND:Girl from the Portrait-bg.png;
#LYRICSPATH:Girl from the Portrait.lrc;
#CDTITLE:pop'n stage.png;
#MUSIC:Girl from the Portrait.mp3;
#OFFSET:-4.080;
#SAMPLESTART:12.056;
#SAMPLELENGTH:12.000;
#SELECTABLE:YES;
#BPMS:0.000=120.010;
#STOPS:;
#BGCHANGES:;

//---------------dance-single - ----------------
#NOTES:
     dance-single:
     :
     Hard:
     7:
     0.507,0.427,0.475,0.088,0.039: // measure 1
0001
0100
0001
0100
0010
1000
0010
1000
,  // measure 2
0001
1000
0001
1000
0001
1000
0001
0010
,  // measure 3
0001
1000
1100
0000
1000
0001
0011
0000
,  // measure 4
0001
0000
1000
0000
1100
0000
0000
0000
0010
0000
0001
0010
0000
0001
0010
0000
,  // measure 5
0001
1000
0010
1000
0010
1000
0001
0000
,  // measure 6
1000
0001
0000
0100
0001
1000
0010
0000
,  // measure 7
1000
0001
0100
0001
0100
0001
1000
0000
,  // measure 8
0001
1000
0000
0010
1000
0001
0101
0000
,  // measure 9
1001
1020
1000
1000
,  // measure 10
1030
0200
0001
0001
,  // measure 11
0301
2000
0001
0001
,  // measure 12
3002
0000
0000
0000
0000
1003
1010
0000
,  // measure 13
1001
0011
1001
0011
,  // measure 14
0001
0010
0100
1000
0010
0000
0110
0000
,  // measure 15
1001
1100
1001
1100
,  // measure 16
1000
0100
0010
0001
0100
0010
0110
0000
,  // measure 17
1001
0101
1001
0101
,  // measure 18
0100
0001
1001
0000
1010
0000
1001
0000
,  // measure 19
0010
1000
1001
0000
0101
0000
1001
0000
,  // measure 20
0011
1100
0011
1001
,  // measure 21
1000
0010
1000
0010
0100
0001
0100
0001
,  // measure 22
1000
0100
0010
0001
0100
0010
1000
0100
,  // measure 23
2000
0001
0001
3001
,  // measure 24
0012
0000
0000
0000
1000
0000
0000
0000
1003
0000
0100
1000
0000
0100
1000
0000
,  // measure 25
0001
0100
0001
0100
0010
1000
0010
1000
,  // measure 26
0001
0010
0100
1000
0010
0100
0001
0010
,  // measure 27
0002
1000
1000
1003
,  // measure 28
2100
0000
0000
0000
0001
0000
0000
0000
3001
0000
0010
0001
0000
0010
0001
0000
,  // measure 29
1000
0100
1000
0100
0010
0001
0010
0001
,  // measure 30
1000
0010
0100
0001
0010
0100
1000
0001
,  // measure 31
0100
0001
0100
0001
1000
0100
1000
0100
,  // measure 32
1000
0001
0010
0100
1000
0001
0100
0000
,  // measure 33
0001
0010
0001
0010
0100
1000
0100
1000
,  // measure 34
0001
1001
1000
1001
,  // measure 35
0001
0000
1001
0000
1000
1000
1000
0000
,  // measure 36
0001
0010
0100
0010
0001
1000
1010
0000
,  // measure 37
1000
0100
0010
0100
1000
0001
0101
0000
,  // measure 38
0001
0010
0100
1000
0100
0001
0100
0010
,  // measure 39
0001
1000
1001
0000
1000
0001
1001
0000
,  // measure 40
1000
0100
0010
0001
0010
1000
0010
0100
,  // measure 41
1000
0010
0100
0001
1000
0100
0010
0000
,  // measure 42
0001
0010
0100
1000
0001
0100
0010
0100
,  // measure 43
0101
0000
0000
0000
1100
0000
0000
0000
0001
0000
0001
1000
0001
0000
1001
0000
;

//---------------dance-single - ----------------
#NOTES:
     dance-single:
     :
     Medium:
     4:
     0.283,0.307,0.166,0.232,0.000:
0000
1000
0000
1000
,
0000
1000
0000
0001
,
1000
0001
1000
0001
,
1000
0001
0200
0000
,
0310
0100
0010
1000
,
0100
0000
1000
0000
,
0001
0010
0001
1000
,
0010
0000
0010
0000
,
0100
0002
0000
0000
,
0000
2003
0000
0000
,
3020
0000
0000
1000
0000
0000
1000
0000
,
2030
0000
0000
0000
,
3001
0100
0010
1000
,
0001
0010
0100
1000
,
0001
1001
1000
1001
,
0001
1001
1000
1100
,
0010
0001
1000
0100
,
0010
0001
1000
0010
,
0100
0101
0001
1001
,
0100
0010
0001
1001
,
2000
0000
0000
0000
,
3020
0000
0000
0000
,
2030
0000
0000
0000
,
3002
0000
0103
0101
,
1002
0000
0000
2003
0000
0000
3001
0000
,
0200
0000
0000
0000
,
0302
0000
0000
2003
0000
0000
3002
0000
,
0203
0000
0000
0302
0000
0000
1003
0000
,
1000
0010
0100
0001
,
0010
0100
1000
0001
,
2000
0010
0010
3010
,
2000
0000
3002
0000
,
0103
0001
0100
0010
,
2000
0001
0000
0001
,
0000
0001
3001
0000
,
0001
0100
0001
0000
1000
0100
1000
0000
,
0001
1001
1000
1001
,
1000
0010
1000
0000
0001
0010
0001
0000
,
1000
1001
0001
1001
,
0001
1000
0100
0000
1000
0100
1000
0000
,
0100
1000
0001
0000
0100
0001
0100
0000
,
0001
1000
0010
0000
1000
0010
1000
0000
,
0001
1000
0110
1001
;

//---------------dance-single - ----------------
#NOTES:
     dance-single:
     :
     Easy:
     2:
     0.169,0.165,0.033,0.166,0.000:
1000
0000
0000
0000
,
0001
0000
0000
0000
,
1000
0001
0000
0001
,
0000
0001
2000
0000
,
3010
0000
0100
0000
,
0010
0000
0100
0000
,
0010
0000
1000
0000
,
0001
0000
1000
0001
,
2000
0000
0000
0000
,
3020
0000
0000
0000
,
2030
0000
0000
0000
,
3002
0000
0003
0000
,
1001
0001
0000
1000
,
0000
0001
0000
1000
,
0000
0010
0000
0100
,
0000
0001
0000
0100
,
0000
0001
0000
0100
,
0000
0010
0000
1000
,
0000
0001
0000
1000
,
0000
0001
1000
1001
,
0002
0000
0000
0000
,
0203
0000
0000
0000
,
0320
0000
0000
0000
,
1030
0000
0000
0000
,
2000
0000
0000
0000
,
3200
0000
0000
0000
,
0320
0000
0000
0000
,
0032
0000
0000
0000
,
1003
0001
1000
0000
,
0001
1000
0001
0000
,
0100
0010
0100
0000
,
0010
0100
0010
0000
,
1000
0001
1000
0000
,
0000
0100
0000
0100
,
0000
0100
0100
0000
,
2000
0010
0000
3010
,
0000
1000
0000
0001
,
0100
0001
0100
0001
,
1000
0000
1000
1000
,
0002
0010
0000
0013
,
0000
0100
0000
1000
,
0100
1000
0100
1000
,
0002
0000
1003
1001
;

//---------------dance-single - ----------------
#NOTES:
     dance-single:
     :
     Beginner:
     1:
     0.068,0.095,0.044,0.000,0.000:
0000
0000
0000
0000
,
0000
0000
0000
0000
,
0000
1000
0000
1000
,
0000
1000
0000
0000
,
0001
0000
0000
0000
,
0000
0000
0000
0000
,
1000
0000
0000
0000
,
0000
0000
0000
0000
,
0001
0000
0000
0000
,
0001
0000
0000
0000
,
0001
0000
0000
0000
,
0000
0000
0000
0000
,
1001
0000
0000
0000
,
1000
0000
0000
0000
,
0001
0000
0000
0000
,
1000
0000
0000
0000
,
1000
0000
0000
0000
,
1000
0000
0000
0000
,
1000
0000
0000
0000
,
0001
0000
0000
0000
,
1001
0000
0000
0000
,
0001
0000
0000
0000
,
1000
0000
0000
0000
,
0001
0000
0000
0000
,
0100
0000
0000
0000
,
0100
0000
0000
0000
,
0010
0000
0000
0000
,
0010
0000
0000
0000
,
0100
0000
0000
0000
,
0010
0000
0000
0000
,
0100
0000
0000
0000
,
0010
0000
0000
0000
,
1000
0000
0000
0000
,
1001
0000
0000
0000
,
0000
0000
0000
0000
,
1000
0000
0000
0000
,
0001
0000
0000
0000
,
1000
0000
0000
0000
,
0001
0000
0000
0000
,
0010
0000
0000
0000
,
0100
0000
0000
0000
,
1000
0000
0000
0000
,
0010
0000
0000
0110
;
