#TITLE:Get me in your sight;
#SUBTITLE:~AMD CANCUN MIX~ (FROM NONSTOP MEGAMIX);
#ARTIST:remixed by Takahiro Tashiro;
#TITLETRANSLIT:;
#SUBTITLETRANSLIT:;
#ARTISTTRANSLIT:;
#CREDIT:Kyon;
#BANNER:Get me in your sight ~AMD CANCUN MIX~ (FROM NONSTOP MEGAMIX).png;
#BACKGROUND:Get me in your sight ~AMD CANCUN MIX~ (FROM NONSTOP MEGAMIX)-bg.png;
#LYRICSPATH:;
#CDTITLE:Dance Dance Revolution 4th Mix.png;
#MUSIC:Get me in your sight ~AMD CANCUN MIX~ (FROM NONSTOP MEGAMIX).mp3;
#OFFSET:-0.220;
#SAMPLESTART:15.494;
#SAMPLELENGTH:12.000;
#SELECTABLE:YES;
#BPMS:0.000=127.080;
#STOPS:;
#BGCHANGES:;

//---------------dance-single - ----------------
#NOTES:
     dance-single:
     :
     Easy:
     3:
     0.230,0.316,0.232,0.081,0.000: // measure 1
0000
0000
0000
0000
,  // measure 2
0000
0000
0000
0000
,  // measure 3
0000
0000
0000
0000
,  // measure 4
0000
0000
0000
0000
,  // measure 5
0000
0002
0000
0000
,  // measure 6
0000
0000
0000
0000
,  // measure 7
0000
2003
0000
0000
,  // measure 8
0000
3001
0000
0000
,  // measure 9
0000
1000
0001
1000
,  // measure 10
0010
0100
0010
1000
,  // measure 11
0001
0100
0001
0100
,  // measure 12
0010
1000
0001
0100
,  // measure 13
0001
1001
0010
0100
,  // measure 14
0010
1010
0100
0001
,  // measure 15
1000
1001
0010
0100
,  // measure 16
0001
1001
1001
0020
,  // measure 17
0000
1030
0000
0000
,  // measure 18
0000
0001
0000
0000
,  // measure 19
0000
0100
0000
0000
,  // measure 20
0000
0001
0000
0000
,  // measure 21
0000
1000
0000
0000
,  // measure 22
0000
0010
0000
0000
,  // measure 23
0000
1000
0000
0000
,  // measure 24
0000
0001
0000
0000
,  // measure 25
0000
0110
1000
0001
,  // measure 26
1000
0010
0100
0010
,  // measure 27
1000
1001
0010
0100
,  // measure 28
0010
1001
1001
0100
,  // measure 29
0010
0011
0100
0001
,  // measure 30
1000
0010
0100
0010
,  // measure 31
1000
1001
0010
0100
,  // measure 32
0010
1000
0001
0100
,  // measure 33
0001
1001
0010
0100
,  // measure 34
0010
1010
0100
0001
,  // measure 35
1000
0020
0000
0000
,  // measure 36
0000
2030
0000
0000
,  // measure 37
0000
3001
0100
0010
,  // measure 38
1000
1001
0010
0100
,  // measure 39
0010
1001
0100
0010
,  // measure 40
1000
0101
0000
0000
,  // measure 41
1000
1001
0010
0100
,  // measure 42
0010
1010
1010
0100
,  // measure 43
0001
1001
0010
0100
,  // measure 44
0001
2000
0000
0000
,  // measure 45
0000
3002
0000
0000
,  // measure 46
0000
0000
0003
0000
;

//---------------dance-single - ----------------
#NOTES:
     dance-single:
     :
     Hard:
     8:
     0.433,0.474,0.035,0.046,0.411:
0000
0000
0000
0000
,
0000
0000
0000
0000
,
0000
0000
0000
0000
,
0000
0000
0000
0000
,
0000
1002
0000
0000
,
0000
0203
0000
0000
,
0000
0000
0000
0000
0310
0000
0000
0000
0000
1000
0000
0100
0000
0010
0000
0001
,
0000
0100
0000
0010
0000
1000
0001
1000
0001
0000
0000
0000
0000
0000
0000
0000
,
0000
0000
0000
0000
1001
0000
0000
0010
0000
0000
0100
0000
0000
1000
0000
0000
,
0010
0000
0000
0100
0000
0000
0010
0000
0000
0100
0000
0000
0001
0000
1000
0000
,
0001
0000
0000
0000
0100
0000
0000
0010
0000
0000
1000
0000
0000
0100
0000
0000
,
0010
0000
0000
0001
0000
0000
0100
0000
0000
0010
0000
0000
1000
0000
0001
0000
,
1000
0000
0000
0000
0001
0000
0000
0100
0000
0000
0010
0000
0000
1000
0000
0000
,
0100
0000
0000
0010
0000
0000
0001
0000
0000
0100
0000
0000
0010
0000
0100
0000
,
0010
0000
0000
0000
1000
0000
0000
0001
0000
0000
0100
0000
0000
0010
0000
0000
,
1000
0000
0100
0000
0010
0000
0001
0000
0001
1000
0000
0010
0000
0100
0000
0010
,
1000
0000
0001
0000
1000
0000
0000
1000
0000
0000
0010
0000
0000
0010
0000
0000
,
0100
0000
0000
0100
0000
0000
0001
0000
0000
0001
0000
0000
1000
0000
0000
1000
,
0000
0000
0010
0000
0100
0000
0000
0100
0000
0000
0001
0000
0000
0001
0000
0000
,
0100
0000
0010
0000
0100
0000
0000
0100
0000
0000
0010
0000
0000
0010
0000
0000
,
1000
0000
0100
0000
0000
0010
0000
0000
0001
0000
0010
0000
0001
0000
0100
0000
,
0001
0000
1000
0100
1000
0010
1000
0001
,
1000
0000
0001
1000
0001
0100
0001
0010
,
0001
0000
1000
0001
1000
0010
1000
0100
,
1000
0000
0000
0000
0001
0000
0000
0010
0001
0000
0100
0000
0000
0010
0000
0000
,
1000
0000
0000
0000
0010
0000
0000
0100
0001
0000
1000
0000
0000
0100
0000
0000
,
1000
0000
0000
0000
0001
0000
0000
0100
0010
0000
1000
0000
0000
0001
0000
0000
,
1000
0000
0000
0000
0010
0000
0000
0100
0001
0000
0010
0000
0001
1000
0000
0010
,
0000
0100
0000
0001
1000
0000
0000
0000
1000
0000
0010
0000
0100
0000
0001
0000
,
0010
0100
1000
0010
0100
0001
1000
0001
,
0010
0100
1000
0000
0001
0010
0100
1000
,
0100
0010
0001
0010
0001
1000
0100
1000
,
0010
0000
1000
0100
0010
0001
0010
0001
,
0100
0010
1000
0001
0010
0100
1000
0001
,
1000
0000
0001
0000
0100
0000
0000
0000
0000
0001
0000
0010
0000
0100
0000
1000
,
0000
0100
0000
0010
0000
0001
1000
0001
1000
0001
0000
1000
0001
0000
0100
0010
,
0000
0100
0010
0000
1000
0000
0000
0100
0000
0000
0010
0000
0000
0001
0000
0000
,
0100
0000
0000
0010
0100
0000
0001
0000
0010
0000
0001
0000
0100
0000
0010
0000
,
1000
0000
0000
0000
0001
0000
0000
0100
0000
0000
0010
0000
0000
1000
0000
0000
,
0001
0000
0000
0100
0010
0000
1000
0000
0100
0000
1000
0000
0100
0000
0010
0000
,
0001
0000
0000
0000
1000
0000
0000
0010
0000
0000
0100
0000
0000
0001
0000
0000
,
1000
0000
0000
0010
0100
0000
0001
0000
0010
0000
0001
0000
0010
0000
0100
0000
,
1000
0000
0000
0000
0001
0000
0000
0100
0000
0000
0010
0000
0000
1000
0000
0000
,
0001
0000
0000
0100
0010
0000
1000
0000
0100
0000
0010
0000
0001
0000
0010
0000
,
0100
1000
2002
0000
0000
0000
0000
0000
,
0000
0000
3003
0000
;

//---------------dance-single - ----------------
#NOTES:
     dance-single:
     :
     Challenge:
     8:
     0.519,0.501,0.243,0.023,0.411:
0000
0000
0000
0000
,
0000
0000
0000
0000
,
0000
0000
0000
0000
,
0000
0000
0000
0000
,
0000
1000
0001
1000
,
0001
0000
0000
0000
1000
0000
0000
0100
0000
0000
0010
0000
0000
0001
0000
0000
,
0100
0000
0010
0000
0100
0000
0000
0000
0000
0001
0000
0010
0000
0100
0000
1000
,
0000
0100
0000
0010
0000
0001
1000
0001
1000
0001
0000
1000
0100
0000
0010
0001
,
0000
1000
0100
0000
0010
0000
0001
0000
0010
0000
0001
0000
0000
1100
0000
0000
,
1001
0000
0010
0100
0001
0100
0001
0100
,
1000
0000
0100
0000
0001
0000
0010
0000
0100
0000
1000
0000
0000
0101
0000
0000
,
1001
0000
0010
1000
0001
0010
0001
0010
,
1000
0000
0010
0000
0001
0000
0010
0000
0100
0000
1000
0000
0000
0011
0000
0000
,
1001
0000
1000
0100
1000
0010
1000
0010
,
0001
0000
0010
0000
1000
0000
0100
0000
0010
0000
0001
0000
0000
1100
0000
0000
,
1001
0000
0000
0000
0010
0000
0100
0000
0001
1000
0000
0010
0000
0100
0000
0010
,
1000
0000
0001
0000
1000
0000
0000
1000
0000
0000
0010
0000
0000
0010
0000
0000
,
0100
0000
0000
0100
0000
0000
0001
0000
0000
0001
0000
0000
1000
0000
0000
1000
,
0000
0010
0100
0010
0100
0000
0000
0100
0000
0000
0001
0000
0000
0001
0000
0000
,
0100
0010
0100
0010
0100
0000
0000
0100
0000
0000
0010
0000
0000
0010
0000
0000
,
1000
0000
0100
0000
0000
0010
0000
0000
0001
0000
0010
0000
0001
0000
0100
0000
,
0001
0000
1000
0100
1000
0010
1000
0001
,
1000
0000
0001
1000
0001
0100
0001
0010
,
0001
0000
0000
0000
1000
0001
0000
1000
0000
0010
0000
0100
0000
0010
1000
0000
,
0001
0000
1000
0000
0001
0000
0000
0010
0001
0000
0100
0000
0000
0010
0000
0000
,
1000
0000
0000
0000
0010
0000
0000
0100
0001
0000
1000
0000
0000
0100
0000
0000
,
1000
0000
0000
0000
0001
0000
0000
0100
0010
0000
1000
0000
0000
0001
0000
0000
,
1000
0000
0000
0000
0010
0000
0000
0100
0001
0000
0010
0000
0001
1000
0000
0010
,
0000
0100
0000
0001
1000
0000
0000
0000
1000
0000
0010
0000
0100
0000
0001
0000
,
0010
0100
1000
0010
0100
0001
1000
0001
,
0010
0100
1000
0000
0001
0010
0100
1000
,
0100
0010
0001
0010
0001
1000
0100
1000
,
0010
0000
1000
0100
0010
0001
0010
0001
,
0100
0010
1000
0001
0010
0100
1000
0001
,
1000
0000
0001
0000
0100
0000
0000
0000
0000
0001
0000
0010
0000
0100
0000
1000
,
0000
0100
0000
0010
0000
0001
1000
0001
1000
0001
0000
1000
0001
0000
0100
0010
,
0000
0100
0010
0000
1000
0000
0100
0000
1000
0000
0011
0000
0000
1100
0000
0000
,
1001
0000
0000
0010
0100
0000
0001
0000
0010
0000
0001
0000
1000
0000
0010
0000
,
0001
0000
0010
0000
1000
0000
0100
0000
0010
0000
0101
0000
0000
1010
0000
0000
,
1001
0000
0000
0100
0010
0000
1000
0000
0100
0000
1000
0000
0001
0000
0100
0000
,
1000
0000
0100
0000
0001
0000
0010
0000
0100
0000
1010
0000
0000
0101
0000
0000
,
1001
0000
0000
0010
0100
0000
0001
0000
0010
0000
0001
0000
1000
0000
0100
0000
,
0001
0000
0100
0000
1000
0000
0010
0000
0100
0000
0011
0000
0000
1100
0000
0000
,
1001
0000
1000
0100
0001
0100
1000
0001
,
0010
0100
2002
0000
0000
0000
0000
0000
,
0000
0000
3003
0000
;

//---------------dance-single - ----------------
#NOTES:
     dance-single:
     :
     Medium:
     5:
     0.324,0.395,0.081,0.104,0.052:
0000
0000
0000
0000
,
0000
0000
0000
0000
,
0000
0000
0000
0000
,
0000
0000
0000
0000
,
0000
0000
0000
0000
,
0000
1000
0000
0000
,
0000
0001
0000
0000
,
0000
1001
0000
0000
,
0000
0100
0010
1000
,
0100
1000
0100
0010
,
0001
0010
0100
1000
,
0001
0010
0001
0010
,
0100
1000
0010
0100
,
0010
1000
0100
0010
,
0001
1001
0100
0010
,
1000
0000
0001
0010
0001
0000
0100
0010
,
0100
0000
0000
0000
0001
0000
0000
0010
0000
0000
0001
0000
0000
0010
0000
0000
,
0001
0000
0000
0000
0000
0000
1000
0000
0000
0010
0000
0000
1000
0000
0000
0010
,
0000
0000
1000
0000
0001
0000
0000
0100
0000
0000
0001
0000
0000
0100
0000
0000
,
0001
0000
0000
0000
0000
0000
1000
0000
0000
0001
0000
0000
1000
0000
0000
0001
,
0000
0000
1000
0000
0000
0100
0000
0000
1000
0000
0000
0000
0010
0000
0000
0000
,
0100
0000
0001
0010
0001
0000
1000
0000
,
0010
0000
0100
0010
1000
0000
0100
0000
,
1000
0000
0001
0010
0100
1000
0100
0010
,
0001
0100
1001
0000
0100
0010
1000
0000
,
0010
0000
0100
0001
0010
0001
0100
0001
,
1000
0001
0010
0100
1000
0000
0010
0100
,
0001
2002
0000
0000
,
3003
0000
0011
0000
1000
0000
0010
0200
,
0001
0001
0001
0001
,
0301
0000
0010
0000
0001
0000
1000
0020
,
0100
0100
0100
0100
,
0130
0001
1000
0100
,
0010
0002
1000
0000
1000
0000
1000
0000
,
1000
1003
0100
0010
,
0001
2002
0000
0000
,
3003
0100
0010
1000
,
0001
0000
0010
0001
0010
0100
1000
0001
,
0010
0100
1000
0000
0010
0000
0100
0000
,
0001
0000
1000
0001
0010
0100
1000
0001
,
0100
0010
1000
0000
0001
0000
0010
0000
,
0001
0000
0100
0010
0100
0001
1000
0001
,
0010
0100
1000
0000
0010
0000
1000
0000
,
0001
0000
1000
0010
0001
0010
1000
0001
,
0010
0100
2002
0000
0000
0000
0000
0000
,
0000
0000
3003
0000
;

//---------------dance-single - ----------------
#NOTES:
     dance-single:
     :
     Beginner:
     2:
     0.124,0.205,0.046,0.000,0.000:
0000
0000
0000
0000
,
0000
0000
0000
0000
,
0000
0000
0000
0000
,
0000
0000
0000
0000
,
0000
0000
0000
0000
,
0000
0000
0000
0000
,
0000
1000
0000
0000
,
0000
0001
0000
0000
,
0000
1000
0100
1000
,
0100
1000
0000
0000
,
0000
0001
0010
0001
,
0010
0001
0000
0000
,
0000
1000
0010
1000
,
0010
1000
0000
0000
,
0000
0001
0100
0001
,
0100
0001
0000
0000
,
0000
1001
0000
0000
,
0000
0000
0000
0000
,
0000
1000
0000
0000
,
0000
0001
0000
0000
,
0000
1000
0000
0000
,
0000
0001
0000
0000
,
0000
0100
0000
0000
,
0000
0010
0000
0000
,
0000
1001
0000
0000
,
0000
0100
0000
0000
,
0000
0010
0000
0000
,
0000
1000
0000
0000
,
0000
0100
1000
0000
,
0001
0000
0010
0000
,
0001
0000
0100
0000
,
0010
0000
1000
0000
,
0010
0000
1000
0000
,
0100
0000
0010
0000
,
0001
0000
0100
0000
,
0000
1001
0000
0000
,
0000
0010
0100
0010
,
0100
0000
0000
0000
,
0000
0001
0010
0001
,
0010
0001
0000
0000
,
0000
1000
0100
1000
,
0100
1000
0000
0000
,
0000
0010
0100
0010
,
1000
0100
0010
0001
,
1000
1001
0000
0000
;
