#TITLE:GRADIUS MEDLEY;
#SUBTITLE:;
#ARTIST:Sota Fujimori;
#TITLETRANSLIT:;
#SUBTITLETRANSLIT:;
#ARTISTTRANSLIT:;
#CREDIT:DMAxel;
#BANNER:GRADIUS MEDLEY.png;
#BACKGROUND:GRADIUS MEDLEY-bg.png;
#LYRICSPATH:GRADIUS MEDLEY.lrc;
#CDTITLE:Konami original.png;
#MUSIC:GRADIUS MEDLEY.mp3;
#OFFSET:-0.520;
#SAMPLESTART:53.094;
#SAMPLELENGTH:12.000;
#SELECTABLE:YES;
#BPMS:0.000=146.000;
#STOPS:;
#BGCHANGES:;

//---------------dance-single - ----------------
#NOTES:
     dance-single:
     :
     Hard:
     7:
     0.379,0.480,0.144,0.117,0.172:
0000
0000
0000
0000
,
0000
0000
0000
0000
,
0000
0000
0000
0000
,
0000
0000
0000
0000
,
0000
0000
0000
0000
,
0000
0000
0000
0000
,
0000
0000
0000
0000
,
0011
0101
1010
1100
,
0001
0011
0010
0110
,
0100
1100
1000
1010
,
0100
0110
0010
0101
,
1000
0001
1000
1100
,
0100
0110
0001
1001
,
0001
0011
0010
0110
,
1000
0000
0010
1000
0010
0000
0100
0001
,
0100
0010
0100
0010
1000
0000
0001
0100
,
1000
0000
0001
0100
0010
0000
0010
0100
,
0001
0000
1000
0010
0100
0000
0001
0100
,
1000
0000
0001
0010
0001
0000
1000
0100
,
1000
0000
0010
0100
0010
0000
1000
0010
,
0001
0000
1000
0010
0100
0000
0100
0010
,
1000
0000
0001
0100
0010
0000
1000
0010
,
0001
0000
0010
0001
0010
0000
0100
1000
,
0100
0010
0001
0010
,
1000
0000
0010
0000
1000
0000
0000
0010
0000
0100
0000
0001
1000
0000
0010
0000
,
0100
0000
0010
0000
0100
0000
0000
0001
0000
1000
0000
0010
0100
0000
0001
0000
,
1000
0000
0001
0000
1000
0000
0000
0001
0000
1000
0000
0010
0100
0000
0000
0000
,
0000
0000
0000
0000
0001
0010
0100
1000
,
0001
0000
0001
0010
0000
0100
0000
1000
0000
0010
0000
0100
0010
0000
1000
0000
,
0001
0000
0001
1000
0000
0001
0000
0010
0000
0001
0000
0100
0010
0000
1000
0000
,
0010
0000
0010
0100
0000
0001
0000
1000
0000
0001
0000
0100
0010
0000
0000
0000
,
1000
0100
0010
0001
,
1000
0000
0000
0000
0001
0000
0000
1000
0010
0000
0200
0000
0000
0000
0301
0000
,
2000
0010
0000
3020
,
1030
0000
0000
0100
0000
0000
0010
0000
0000
0000
0001
0000
0100
0000
0000
0001
,
0000
0000
0100
0000
0000
0010
0000
0000
1000
0000
0010
0000
0000
0100
0010
0000
,
1000
0000
0000
0000
0001
0000
0000
0100
0010
0000
2000
0000
0000
0000
3001
0000
,
0020
0001
0000
0032
,
0103
0000
0010
0100
0000
0000
0001
0000
1000
0000
0020
0000
0000
0000
0130
0000
,
0001
0000
0000
1000
0020
0000
0000
0000
0000
0000
0000
0000
0130
0000
0000
0000
,
0001
0000
0000
0100
0000
0000
2000
0000
0000
0000
0000
0000
3010
0000
0000
0000
,
1000
0000
0000
0100
0000
0000
0002
0000
0000
0000
0000
0000
0000
0000
0000
0000
,
0103
0000
0000
0010
0000
0000
1000
0000
0010
0000
0000
0100
0000
0000
0001
0000
,
0100
0000
0000
0010
0000
0000
1000
0000
0010
0000
0000
0100
0000
0000
0001
0000
,
0200
0001
0001
0001
,
0320
1000
1000
1000
,
1030
0000
0001
0100
0000
0100
0001
0000
,
0100
0000
0010
1000
0000
1000
0100
0000
,
1000
0100
0010
0001
,
1000
0100
0010
0001
0000
0001
1000
0000
,
0010
0000
1000
0010
0000
0010
0100
0000
,
0001
0010
0100
1000
0000
0010
1000
0010
,
0000
1000
0010
0001
0000
0100
0010
0200
,
0000
0000
0000
0301
0000
0001
0010
0100
,
1000
0000
0010
0100
0000
0100
0001
0000
,
1000
0000
0010
0100
0000
0100
0001
0000
,
1001
0000
0000
0000
;

//---------------dance-single - ----------------
#NOTES:
     dance-single:
     :
     Easy:
     2:
     0.170,0.228,0.009,0.172,0.000: // measure 1
0000
0000
0000
0000
,  // measure 2
0000
0000
0000
0000
,  // measure 3
0000
0000
0000
0000
,  // measure 4
0000
0000
0000
0000
,  // measure 5
0000
0000
0000
0000
,  // measure 6
0000
0000
0000
0000
,  // measure 7
0000
0000
0000
0000
,  // measure 8
0001
0001
0001
0001
,  // measure 9
1000
0010
0000
0010
,  // measure 10
0000
0010
0000
0100
,  // measure 11
0000
0001
0000
0001
,  // measure 12
0000
0001
0000
1000
,  // measure 13
0000
0100
0000
0100
,  // measure 14
0000
0100
0000
1000
,  // measure 15
0000
0010
0000
0010
,  // measure 16
0000
0010
0000
0100
,  // measure 17
0000
0001
0010
0100
,  // measure 18
0010
0001
1000
0020
,  // measure 19
0000
1030
0100
0010
,  // measure 20
0100
1000
0001
0020
,  // measure 21
0000
0031
0100
0010
,  // measure 22
0100
0001
1000
0020
,  // measure 23
0000
1030
0010
0100
,  // measure 24
0020
0000
0000
0000
,  // measure 25
1030
0000
0100
0000
,  // measure 26
0010
0000
0001
0000
,  // measure 27
0010
0000
0100
0000
,  // measure 28
1000
0000
0001
1000
,  // measure 29
0001
0000
0010
0000
,  // measure 30
0100
0000
1000
0000
,  // measure 31
0100
0000
0010
0000
,  // measure 32
0001
0001
0001
0001
,  // measure 33
1001
0100
1000
0000
,  // measure 34
0020
0000
0000
0130
,  // measure 35
0001
0010
0010
0001
,  // measure 36
1000
1000
0100
0100
,  // measure 37
0010
0001
0100
0000
,  // measure 38
0020
0000
0000
1030
,  // measure 39
0001
0000
0100
0000
,  // measure 40
0020
0000
0000
0000
,  // measure 41
2030
0000
0000
0000
,  // measure 42
3002
0000
0000
0000
,  // measure 43
0203
0000
0320
0000
,  // measure 44
0230
0000
0320
0000
,  // measure 45
2030
0000
0000
0000
,  // measure 46
3002
0000
0000
0000
,  // measure 47
1003
0010
0000
0100
,  // measure 48
0000
0001
0000
0010
,  // measure 49
0020
0000
0000
0000
,  // measure 50
0032
0000
0000
0000
,  // measure 51
1003
0010
0000
0100
,  // measure 52
0000
0010
0000
1000
,  // measure 53
0000
0100
0000
0010
,  // measure 54
0000
0001
0000
0200
,  // measure 55
0000
0000
0000
0302
,  // measure 56
0000
0000
0000
0000
,  // measure 57
1003
0000
0000
0000
;

//---------------dance-single - ----------------
#NOTES:
     dance-single:
     :
     Medium:
     5:
     0.264,0.379,0.063,0.135,0.027: // measure 1
0000
0000
0000
0000
,  // measure 2
0000
0000
0000
0000
,  // measure 3
0000
0000
0000
0000
,  // measure 4
0000
0000
0000
0000
,  // measure 5
0000
0000
0000
0000
,  // measure 6
0000
0000
0000
0000
,  // measure 7
0000
0000
0000
0000
,  // measure 8
0011
1100
0011
1100
,  // measure 9
0000
0001
0000
1000
,  // measure 10
0000
0001
0000
0010
,  // measure 11
0000
0100
0000
1000
,  // measure 12
0000
0010
0000
0100
,  // measure 13
0000
0010
0000
0100
,  // measure 14
0000
0001
0000
0010
,  // measure 15
0000
0100
0000
1000
,  // measure 16
0000
0010
0000
0100
,  // measure 17
0000
0001
1000
0001
,  // measure 18
1000
0100
0010
0001
,  // measure 19
0000
1000
0100
0010
,  // measure 20
0001
0100
0010
0100
,  // measure 21
0010
1000
0010
1000
,  // measure 22
0001
0100
0010
1000
,  // measure 23
0001
0010
0100
1000
,  // measure 24
0010
0100
0001
1000
,  // measure 25
0001
1000
0001
1000
0001
0000
0100
0000
,  // measure 26
0010
0100
0010
0100
0010
0000
1000
0000
,  // measure 27
0001
1000
0001
1000
0001
0000
0100
0010
,  // measure 28
0100
0000
0000
0000
0001
1000
0001
0000
,  // measure 29
1000
0100
0010
0001
0100
0010
1000
0000
,  // measure 30
0001
0010
0100
1000
0010
0100
0001
0000
,  // measure 31
1000
0100
0010
0001
0100
0010
1000
0000
,  // measure 32
0001
0010
0100
1001
,  // measure 33
1000
0000
0000
0000
0001
0000
0000
0100
0010
0000
0000
0000
1000
0000
0000
0000
,  // measure 34
0001
0000
0000
0010
0000
0000
0000
0000
0000
0000
0002
0000
0000
0000
0000
0000
,  // measure 35
1003
0000
0000
1000
0000
0000
0010
0000
0000
0000
0100
0000
0002
0000
0000
0000
,  // measure 36
2003
0000
3020
0000
,  // measure 37
0130
0000
0000
0000
0010
0000
0000
0100
0010
0000
0000
0000
1000
0000
0000
0000
,  // measure 38
0001
0000
0000
0200
0000
0000
0000
0000
0000
0000
0302
0000
0000
0000
0000
0000
,  // measure 39
1003
0000
0000
0010
0100
0000
0001
0000
1000
0000
0001
0000
0000
0000
0100
0000
,  // measure 40
0020
2030
0000
0000
,  // measure 41
3002
0000
0000
0100
,  // measure 42
0203
0000
0000
0000
,  // measure 43
0310
0000
0011
0000
,  // measure 44
1100
0000
0000
0000
0020
0000
0000
2030
,  // measure 45
0000
0000
0000
0000
,  // measure 46
3002
0000
0000
0000
,  // measure 47
1003
0010
1000
0001
,  // measure 48
0100
0010
0100
0001
,  // measure 49
2000
0000
0000
0000
,  // measure 50
3001
0010
0100
1000
0000
0010
0100
0000
,  // measure 51
0001
1000
0010
1000
,  // measure 52
0001
0010
0100
1000
0000
0010
0100
0001
,  // measure 53
0000
1000
0010
0100
0000
0001
1000
0002
,  // measure 54
0000
0000
0000
0103
0000
0010
1000
0000
,  // measure 55
0010
0100
0010
0100
,  // measure 56
0001
1000
0001
0100
,  // measure 57
0010
0000
0000
0000
;

//---------------dance-single - ----------------
#NOTES:
     dance-single:
     :
     Challenge:
     8:
     0.513,0.574,0.262,0.045,0.537:
0000
0000
0000
0000
,
0000
0000
0000
0000
,
0000
0000
0000
0000
,
0000
0000
0000
0000
,
0000
0000
0000
0000
,
0000
0000
0000
0000
,
0000
0000
0000
0000
,
1100
1010
0101
0011
,
1001
0000
0010
1000
0010
0000
0100
0001
,
0100
0000
0001
0010
0100
1000
0010
0100
,
0001
0000
1000
0100
1000
0000
0001
0010
,
0001
0000
1000
0010
0100
0001
0010
0100
,
1000
0000
0000
0000
0001
0000
0000
0010
0000
0001
0000
0000
1000
0000
0000
0010
,
0000
0100
0000
0000
0001
0000
0000
0010
0000
0000
0001
0000
0100
0000
0000
1001
,
0000
0000
0000
0000
1000
0000
0000
0100
0000
1000
0000
0000
0001
0000
0000
0100
,
0000
0010
0000
0000
1000
0000
0000
0010
0000
0000
1000
0000
0100
0000
0000
1001
,
0000
0000
0000
0000
0010
0000
0100
0010
0000
0100
0000
0000
0001
0000
0010
0001
,
0000
0010
0000
0000
0100
0000
1000
0100
0000
0000
1000
0000
0010
0100
0000
1001
,
0000
0000
0000
0000
0100
0000
0001
0010
0000
0001
0000
0000
0100
0000
0010
1000
,
0000
0010
0000
0000
1000
0000
0100
1000
0000
0000
0010
0000
0100
0010
0000
1001
,
0000
0000
0000
0000
1000
0000
0010
0100
0000
0010
0000
0000
0100
0000
0001
0010
,
0000
0001
0000
0000
1000
0000
0100
1000
0000
0000
0100
0000
0010
0001
0000
1001
,
0000
0000
0000
0000
0010
0000
0001
0100
0000
0010
0000
0000
0100
0000
1000
0010
,
0000
0100
0000
0000
0011
0000
0000
0000
1100
0000
0000
0000
1001
0000
0000
0000
,
0010
1000
0010
1000
0000
0100
0000
1000
0000
0100
0000
1000
0100
0000
0010
0000
,
0001
0100
0001
0100
0000
0010
0000
1000
0000
0010
0000
1000
0001
0000
0010
0000
,
0100
1000
0100
1000
0000
0010
0000
0100
0000
0010
0000
0100
0001
0000
0000
0000
,
0100
0000
0000
0000
0010
0000
0000
0000
1000
0010
1000
0010
0000
0100
0010
0000
,
0100
0001
0100
0001
0000
0010
0000
0001
0000
0010
0000
0001
0010
0000
0100
0000
,
1000
0010
1000
0010
0000
0100
0000
0001
0000
0100
0000
0001
1000
0000
0100
0000
,
0010
0001
0010
0001
0000
0100
0000
0010
0000
0100
0000
0010
1000
0000
0000
0000
,
1100
1010
0101
0011
,
0001
0000
0000
0000
0100
0000
0000
0010
0100
0000
0020
0000
0000
0000
0130
0000
,
0001
0000
0000
0100
0010
0000
0000
0000
1000
0000
0001
1000
0001
1000
0001
0000
,
1100
0000
0000
0011
0000
0000
1001
0000
0000
0000
1100
0000
0001
0010
0000
0010
,
0001
0000
1000
0100
0000
0010
0000
0001
0100
0000
0010
1000
0000
0100
1000
0000
,
0010
0000
0000
0000
0100
0000
0000
0001
0100
0000
0020
0000
0000
0000
1030
0000
,
0100
0000
0000
0010
0001
0000
0000
0000
1000
0000
0001
1000
0001
1000
0001
0000
,
0100
0000
0010
0100
0010
0000
1000
0000
0100
0000
0002
0000
0000
0000
0013
0000
,
0100
0000
0000
1000
0100
0000
0000
0000
0010
0000
0000
0001
0010
0000
0000
0000
,
1100
0000
0000
0101
0000
0000
2002
0000
0000
0000
3003
0000
0001
0100
0001
0000
,
1010
0000
0000
0011
0000
0000
1001
0000
0000
0000
0000
0010
0100
0000
0000
0000
,
1000
0010
1000
0010
0000
0000
0100
0000
0001
0010
0001
0010
0000
0000
0100
0000
,
1000
0001
1000
0001
0000
0000
0100
0000
0001
1000
0001
1000
0000
0000
0010
0000
,
1100
0000
0000
0100
0010
0000
0000
0010
0001
0000
0000
0001
1000
0000
0000
0000
,
0011
0000
0000
0010
0100
0000
0000
0100
1000
0000
0000
1000
0001
0000
0000
0000
,
0010
0001
0010
0001
0000
0001
0010
0100
,
1000
0010
1000
0010
0000
0010
0100
0001
,
0100
0000
0000
0001
0100
0000
0000
0100
0010
0000
0000
0010
1000
0000
0000
0000
,
0001
0010
0100
1000
0000
1000
0001
0000
,
0100
0001
0100
0001
0000
0001
1000
0000
,
1000
0100
0010
0001
0000
0100
0010
0100
,
0000
0001
0100
1000
0000
0010
0100
0010
,
0000
1000
0100
0001
0000
0001
0100
0010
,
1000
0100
1000
0100
0000
1000
0010
0100
,
0010
0100
0001
0100
0000
0001
0100
0010
,
0100
0000
0000
0001
0100
0000
0000
0100
0010
0000
0000
0010
1000
0000
0000
0000
,
0001
0010
0100
1000
0000
1000
0001
0000
;

//---------------dance-single - ----------------
#NOTES:
     dance-single:
     :
     Beginner:
     1:
     0.081,0.152,0.090,0.000,0.000: // measure 1
0000
0000
0000
0000
,  // measure 2
0000
0000
0000
0000
,  // measure 3
0000
0000
0000
0000
,  // measure 4
0000
0000
0000
0000
,  // measure 5
0000
0000
0000
0000
,  // measure 6
0000
0000
0000
0000
,  // measure 7
0000
0000
0000
0000
,  // measure 8
1001
0000
0000
0000
,  // measure 9
0000
0010
0000
0000
,  // measure 10
0000
0000
0000
0000
,  // measure 11
0000
0100
0000
0000
,  // measure 12
0000
0000
0000
0000
,  // measure 13
0000
0010
0000
0000
,  // measure 14
0000
0000
0000
0000
,  // measure 15
0000
1000
0000
0000
,  // measure 16
0000
0000
0000
0000
,  // measure 17
0000
0001
0000
0010
,  // measure 18
0000
0001
0000
0000
,  // measure 19
0000
1000
0000
0100
,  // measure 20
0000
1000
0000
0000
,  // measure 21
0000
0010
0000
0100
,  // measure 22
0000
0010
0000
0000
,  // measure 23
0000
1000
0000
0001
,  // measure 24
0000
1000
0000
0000
,  // measure 25
0010
0000
0000
0000
,  // measure 26
0000
0000
0000
0000
,  // measure 27
0100
0000
0000
0000
,  // measure 28
0000
0000
0000
0000
,  // measure 29
1001
0000
0000
0000
,  // measure 30
0000
0000
0000
0000
,  // measure 31
0110
0000
0000
0000
,  // measure 32
1001
0000
0000
0000
,  // measure 33
0001
0000
0000
0000
,  // measure 34
1001
0000
0000
0000
,  // measure 35
0100
0000
0000
0000
,  // measure 36
1001
0000
1001
0000
,  // measure 37
0010
0000
0000
0000
,  // measure 38
1001
0000
0000
0000
,  // measure 39
1000
0000
0001
0000
,  // measure 40
1001
0000
0000
0000
,  // measure 41
0010
0000
0000
0000
,  // measure 42
0100
0000
0000
0000
,  // measure 43
0001
0000
0000
0000
,  // measure 44
1000
0000
0000
0000
,  // measure 45
0100
0000
0000
0000
,  // measure 46
0010
0000
0000
0000
,  // measure 47
1001
0000
0000
0000
,  // measure 48
0000
0000
0000
0000
,  // measure 49
0001
0000
0000
0000
,  // measure 50
1000
0000
0000
0000
,  // measure 51
0100
0000
0000
0000
,  // measure 52
1000
0000
0000
0001
,  // measure 53
0000
0010
0000
0001
,  // measure 54
0000
1000
0000
0100
,  // measure 55
0000
1000
0000
0010
,  // measure 56
0000
0100
0000
0001
,  // measure 57
0000
1000
0000
0000
;
