#TITLE:GLIDE;
#SUBTITLE:;
#ARTIST:TËЯRA;
#TITLETRANSLIT:;
#SUBTITLETRANSLIT:;
#ARTISTTRANSLIT:TERRA;
#CREDIT:DMAxel;
#BANNER:GLIDE.png;
#BACKGROUND:GLIDE-bg.png;
#LYRICSPATH:GLIDE.lrc;
#CDTITLE:GUITAR FREAKS & drummania.png;
#MUSIC:GLIDE.mp3;
#OFFSET:-0.520;
#SAMPLESTART:86.837;
#SAMPLELENGTH:12.000;
#SELECTABLE:YES;
#BPMS:0.000=200.000;
#STOPS:;
#BGCHANGES:-5.000=GLIDE.AVI=1.000=1=1=0,
99999=-nosongbg-=1.000=0=0=0 // don't automatically add -songbackground-
;

//---------------dance-single - ----------------
#NOTES:
     dance-single:
     :
     Easy:
     3:
     0.212,0.323,0.105,0.070,0.000: // measure 1
0000
0000
0000
0000
,  // measure 2
0000
0000
0000
0000
,  // measure 3
0000
0000
0000
0000
,  // measure 4
0000
0000
0000
0000
,  // measure 5
0000
0000
0000
0000
,  // measure 6
0000
0000
0000
0000
,  // measure 7
0000
0000
0000
0000
,  // measure 8
0000
0000
0000
0000
,  // measure 9
0000
0000
0000
0000
,  // measure 10
1000
0000
1000
0000
,  // measure 11
1000
0000
1000
0000
,  // measure 12
0001
0000
0001
0000
,  // measure 13
0001
0000
0001
0000
,  // measure 14
1000
0000
1000
0000
,  // measure 15
1000
0000
1000
0000
,  // measure 16
0001
0000
0001
0000
,  // measure 17
0001
0000
0000
0000
,  // measure 18
2002
0000
0000
0000
,  // measure 19
3003
0000
0000
0000
,  // measure 20
0220
0000
0000
0000
,  // measure 21
0330
0000
0000
0000
,  // measure 22
1001
0000
0000
0000
,  // measure 23
0001
0000
0010
0000
,  // measure 24
0001
0000
0000
0000
,  // measure 25
1000
0000
0000
0000
,  // measure 26
0100
0000
0100
0000
,  // measure 27
1000
0000
1000
0000
,  // measure 28
0001
0000
0001
0000
,  // measure 29
0010
0000
0100
0000
,  // measure 30
1000
0000
0001
0000
,  // measure 31
1000
0000
0010
0000
,  // measure 32
0100
0000
0010
0000
,  // measure 33
1000
0000
0000
0000
,  // measure 34
1000
0000
0100
0000
,  // measure 35
0010
0000
0001
0000
,  // measure 36
0100
0000
0010
0000
,  // measure 37
0100
0000
0001
0000
,  // measure 38
0001
0000
1000
0000
,  // measure 39
1000
0000
0001
0000
,  // measure 40
0001
0000
0000
0000
,  // measure 41
1001
0000
0000
0000
,  // measure 42
1000
0000
0100
0000
,  // measure 43
1000
0000
0100
0000
,  // measure 44
1000
0000
0001
0000
,  // measure 45
1000
0000
0001
0000
,  // measure 46
0010
0000
0001
0000
,  // measure 47
0010
0000
0001
0000
,  // measure 48
0100
0000
0100
0000
,  // measure 49
0100
0000
0100
0000
,  // measure 50
0002
0000
1000
0000
,  // measure 51
1003
0000
0100
0000
,  // measure 52
2000
0000
0001
0000
,  // measure 53
3001
0000
0010
0000
,  // measure 54
1001
0000
1001
0000
,  // measure 55
0110
0000
0110
0000
,  // measure 56
0110
0000
0000
0000
,  // measure 57
1000
0000
0000
0000
,  // measure 58
0001
0000
1000
0000
,  // measure 59
0001
0000
1000
0000
,  // measure 60
0010
0000
0010
0000
,  // measure 61
0100
0000
0100
0000
,  // measure 62
0001
0000
0010
0000
,  // measure 63
0001
0000
1000
0000
,  // measure 64
0100
0000
1000
0000
,  // measure 65
0100
0000
1000
0000
,  // measure 66
0001
0000
1000
0000
,  // measure 67
0001
0000
1000
0000
,  // measure 68
0001
0000
0100
0000
,  // measure 69
0001
0000
0010
0000
,  // measure 70
0001
0000
0010
0000
,  // measure 71
0010
0000
0100
0000
,  // measure 72
0100
0000
0000
0000
,  // measure 73
1001
0000
0000
0000
,  // measure 74
1001
0000
1000
0000
,  // measure 75
0100
0000
1000
0000
,  // measure 76
0010
0000
1000
0000
,  // measure 77
0100
0000
1000
0000
,  // measure 78
0001
0000
0010
0000
,  // measure 79
0001
0000
0100
0000
,  // measure 80
0001
0000
0010
0000
,  // measure 81
0100
0000
1000
0000
,  // measure 82
1000
0000
0001
0000
,  // measure 83
1000
0000
0001
0000
,  // measure 84
1000
0000
1000
0000
,  // measure 85
0010
0000
0010
0000
,  // measure 86
1000
0000
0001
0000
,  // measure 87
1000
0000
0001
0000
,  // measure 88
0001
0000
0001
0000
,  // measure 89
0100
0000
0100
0000
,  // measure 90
1002
0000
0000
0000
,  // measure 91
2003
0000
0000
0000
,  // measure 92
3001
0000
0000
0000
0100
0000
0001
1000
;

//---------------dance-single - ----------------
#NOTES:
     dance-single:
     :
     Medium:
     6:
     0.443,0.525,0.202,0.026,0.000:
0000
0000
0000
0000
,
0000
0000
0000
0000
,
0000
0000
0000
0000
,
0000
0000
0000
0000
,
0000
0000
0000
0000
,
0000
0000
0000
0000
,
0000
0000
0000
0000
,
0000
0000
0000
0000
,
0000
0000
0000
0000
,
0001
1000
0001
1000
,
0001
1000
0001
0100
,
1000
0001
1000
0001
,
1000
0001
1000
0010
,
0001
1000
0001
1000
,
0001
1000
0001
0100
,
1000
0001
1000
0001
,
2200
0000
0000
3300
,
1000
0001
0000
1000
0001
0000
0001
0100
,
0000
0001
1000
0000
0000
0000
0000
0000
,
0001
1000
0000
0001
1000
0000
1000
0010
,
0000
1000
0001
0000
0000
0000
0000
0000
,
1001
0000
0000
0001
,
1000
0001
0100
0010
,
2000
0000
0001
0000
,
3001
0000
0100
0010
0100
0000
0000
0000
,
0001
0010
0001
1000
,
0010
0100
0010
1000
,
0001
0100
0001
1000
,
0100
0010
0001
1000
,
0001
0010
1000
0000
,
0100
0010
0001
0000
,
0010
0001
0100
0010
,
1000
0000
0100
0010
,
0001
1000
0001
0000
,
1000
0010
1000
0000
,
0010
0100
0010
1000
,
0010
0100
0001
0010
,
0100
1000
0001
0010
,
0001
0000
0100
0010
,
0100
0001
0010
0100
,
1000
0001
1000
0000
1000
0000
1000
0000
,
1001
0000
0010
0001
,
0010
0000
0010
0100
,
0010
0000
0010
1000
,
0010
1000
0001
0010
,
0100
0000
0100
1000
,
0100
1000
0001
1000
,
0010
0100
0010
0000
0010
0000
0010
0000
,
0100
0010
0100
0000
0100
0000
0100
0000
,
0001
1001
1000
0010
,
0100
0001
0010
0100
,
1000
1001
0001
0100
,
0010
1000
0100
0010
,
1001
1001
1001
0001
,
0110
0110
0110
1000
,
1001
0000
0000
0000
,
0001
1000
0001
1000
0001
0000
1000
0000
,
0011
0100
1000
0001
,
1000
0100
0010
0001
,
0100
0010
0100
0000
0001
0100
0001
0000
,
0100
0010
0100
0000
0001
0000
0010
0000
,
1100
0010
0001
1000
,
0001
0010
0100
1000
,
0010
0100
0010
1000
,
0001
0000
1000
0000
0010
0100
0010
0100
,
0010
1000
0001
0010
,
1000
0001
1000
0000
0010
0000
0100
0000
,
0101
0001
0101
1000
,
1010
1000
1010
0001
,
1000
0001
1000
0000
0010
0000
1000
0000
,
0010
0100
0001
0010
,
0001
0010
0001
0110
,
1000
0010
1000
0000
0001
0100
0001
0000
,
1001
0010
0100
1000
,
0100
0010
0001
0010
,
0100
1000
0100
0010
,
0001
1000
0001
1000
,
0001
0010
0001
1000
,
0100
1000
0100
1000
,
0001
1000
0001
1000
,
0100
0000
0000
0000
,
1000
0100
0010
0001
,
0100
0010
1000
0001
,
1000
0100
0001
0100
,
1000
0010
0100
0001
,
1001
0010
0100
1000
,
0010
0100
0001
0100
,
1000
0010
0000
1000
0001
1000
0000
0001
,
0100
0000
0100
0100
,
1001
0001
0001
0001
,
1001
1000
1000
1000
,
1000
0100
1000
0001
0010
0000
1000
0001
;

//---------------dance-single - ----------------
#NOTES:
     dance-single:
     :
     Beginner:
     1:
     0.065,0.121,0.000,0.000,0.000:
0000
0000
0000
0000
,
0000
0000
0000
0000
,
0000
0000
0000
0000
,
0000
0000
0000
0000
,
0000
0000
0000
0000
,
0000
0000
0000
0000
,
0000
0000
0000
0000
,
0000
0000
0000
0000
,
0001
0000
0000
0000
,
0001
0000
0000
0000
,
0000
0000
0000
0000
,
1000
0000
0000
0000
,
0000
0000
0000
0000
,
0001
0000
0000
0000
,
0000
0000
0000
0000
,
1000
0000
0000
0000
,
0000
0000
0000
0000
,
1000
0000
0000
0000
,
0000
0000
0000
0000
,
0010
0000
0000
0000
,
0000
0000
0000
0000
,
0100
0000
0000
0000
,
0100
0000
0000
0000
,
0100
0000
0000
0000
,
0000
0000
0000
0000
,
0010
0000
0000
0000
,
0010
0000
0000
0000
,
0010
0000
0000
0000
,
0000
0000
0000
0000
,
1000
0000
0000
0000
,
0000
0000
0000
0000
,
0001
0000
0000
0000
,
0000
0000
0000
0000
,
0001
0000
0000
0000
,
0100
0000
0000
0000
,
0010
0000
0000
0000
,
0010
0000
0000
0000
,
0010
0000
0000
0000
,
0000
0000
0000
0000
,
0100
0000
0000
0000
,
0000
0000
0000
0000
,
0001
0000
0000
0000
,
0000
0000
0000
0000
,
1000
0000
0000
0000
,
0000
0000
0000
0000
,
0001
0000
0000
0000
,
0000
0000
0000
0000
,
0100
0000
0000
0000
,
0000
0000
0000
0000
,
0100
0000
0000
0000
,
0000
0000
0000
0000
,
0010
0000
0000
0000
,
0000
0000
0000
0000
,
0010
0000
0000
0000
,
0000
0000
0000
0000
,
0100
0000
0000
0000
,
0000
0000
0000
0000
,
0001
0000
0000
0000
,
0000
0000
0000
0000
,
1000
0000
0000
0000
,
0000
0000
0000
0000
,
0001
0000
0000
0000
,
0000
0000
0000
0000
,
1000
0000
0000
0000
,
0000
0000
0000
0000
,
1000
0000
0000
0000
,
0000
0000
0000
0000
,
0001
0000
0000
0000
,
0000
0000
0000
0000
,
1000
0000
0000
0000
,
0000
0000
0000
0000
,
0001
0000
0000
0000
,
0000
0000
0000
0000
,
1000
0000
0000
0000
,
1000
0000
0000
0000
,
1000
0000
0000
0000
,
0000
0000
0000
0000
,
0100
0000
0000
0000
,
0100
0000
0000
0000
,
0100
0000
0000
0000
,
0000
0000
0000
0000
,
0010
0000
0000
0000
,
0010
0000
0000
0000
,
0010
0000
0000
0000
,
0000
0000
0000
0000
,
0001
0000
0000
0000
,
0001
0000
0000
0000
,
0001
0000
0000
0000
,
0000
0000
0000
0000
,
0001
0000
0000
0000
,
0000
0000
0000
0000
,
1000
0000
0000
0010
;

//---------------dance-single - ----------------
#NOTES:
     dance-single:
     :
     Hard:
     8:
     0.596,0.646,0.255,0.053,0.000:
0000
0000
0000
0000
,
0000
0000
0000
0000
,
0000
0000
0000
0000
,
0000
0000
0000
0000
,
0000
0000
0000
0000
,
0000
0000
0000
0000
,
0000
0000
0000
0000
,
0000
0000
0000
0000
,
0000
0000
0000
0000
,
0001
0010
0100
0010
,
0100
1000
0100
0001
,
1000
0100
0010
0100
,
0010
0001
0010
1000
,
0001
0010
0100
0010
,
0100
1000
0100
0001
,
1000
0100
0010
0100
,
0010
0000
0001
1000
0001
1000
0001
0000
,
0001
1000
0000
1000
0010
0000
0010
1000
,
0000
1000
0001
0000
1000
0100
1000
0100
,
1000
0001
0000
0001
0100
0000
0100
0001
,
0000
0001
1000
0000
0001
0100
0010
0000
,
1001
0000
0010
0000
1000
0000
0010
0100
,
0001
0000
0100
0000
0001
0000
0100
0010
,
2000
0000
0001
0000
,
3001
0010
0100
1000
0010
0000
0000
0000
,
1001
0000
0001
0000
0100
0001
0010
0000
,
0100
0000
1000
0000
0100
1000
0010
0000
,
0100
0001
0100
0000
0100
0010
0100
0000
,
0001
0011
0001
1000
,
1001
1000
0100
1000
,
0010
0000
0100
0000
0001
0100
0010
0000
,
1010
1000
0001
0100
,
1001
0000
1000
0000
0010
0100
0010
0100
,
0010
0000
1000
0000
0010
0100
0001
0000
,
0001
0000
0100
0000
0001
0100
0010
0000
,
0100
0001
0100
0000
0100
0010
0100
0000
,
0001
1100
1000
0001
,
1001
0001
1000
0100
,
1000
0011
0001
1000
,
1001
0000
1000
0010
0000
0010
0100
0000
,
0001
1000
0001
1000
0001
1000
0001
0000
,
1001
0000
0001
0100
0001
0000
0001
1000
,
0001
0000
0001
0100
0001
0000
0010
0100
,
1000
0000
1000
0010
1000
0000
1000
0001
,
1000
0000
1000
0010
1000
0000
0100
0010
,
0001
0000
0001
0010
0001
0000
0001
1000
,
0001
0000
0001
0010
0001
0000
0100
0010
,
2000
0000
0001
0000
,
3001
0010
0001
0010
0001
0010
0001
0000
,
1000
0100
1000
0000
0010
1000
0010
0000
,
1000
0100
1000
0000
0010
1000
0010
0100
,
0001
0100
0001
0000
0010
0001
0010
0000
,
0001
0100
0001
0000
0010
0001
0010
0000
,
1001
1001
1001
1010
,
0110
0110
0110
0101
,
2002
0000
0000
3003
,
1000
0010
0100
0001
0100
0010
0100
0000
,
1001
0000
0001
0100
0000
0100
0010
0000
,
1001
0000
1000
0010
0000
0010
0100
0010
,
0100
0001
0100
0000
0100
0010
0100
0000
,
0001
1100
1000
0001
,
1001
0001
1000
0001
,
1000
0000
0100
0000
0010
0001
0100
0000
,
0001
0000
1000
0010
0000
0010
0100
0000
,
0001
0000
1000
0000
0010
0100
0010
0100
,
0010
0000
0010
1000
0010
0000
0010
0100
,
0010
0000
1000
0100
1000
0000
0001
0010
,
0001
0100
0110
0010
,
1010
0000
1000
0100
1000
0000
0001
0000
,
0001
1000
0001
0000
0100
0000
0001
0100
,
0000
0100
0010
0000
1000
0100
1000
0100
,
1000
0000
0010
1000
0000
1000
0100
1000
,
0001
0100
0001
0100
0001
0100
0001
0000
,
1000
0100
1000
0000
0010
1000
0010
0000
,
0100
0001
0100
0000
0001
0010
0001
0000
,
0100
0010
0100
0010
0100
0000
0001
0000
,
1000
0010
1000
0010
1000
0001
0100
0000
,
0001
0010
0001
0000
1000
0010
1000
0000
,
0010
0100
0010
0000
0100
0001
0100
0000
,
0001
0010
0001
0010
0001
1000
0010
0000
,
2002
0000
0000
3003
,
1000
0100
1000
0000
0010
1000
0010
0000
,
0100
0010
0100
0000
0001
0010
0001
0000
,
1000
0100
1000
0100
1000
0001
0100
0000
,
0001
0100
0001
0100
0001
1000
0100
0000
,
1000
0001
1000
0000
0010
0100
0010
1000
,
0100
0000
0010
0001
0010
0000
1001
0000
,
0001
0100
0000
0001
1000
0001
0000
1000
,
0010
0000
0000
0000
0010
0100
0010
0000
,
1000
0001
0100
0001
0010
0000
0100
1000
,
0001
0100
0001
1000
0010
1000
0001
0000
,
0001
0100
0001
1000
0100
0000
0001
1001
;

//---------------dance-single - ----------------
#NOTES:
     dance-single:
     :
     Challenge:
     9:
     0.716,0.686,0.378,0.000,0.000:
0000
0000
0000
0000
,
0000
0000
0000
0000
,
0000
0000
0000
0000
,
0000
0000
0000
0000
,
0000
0000
0000
0000
,
0000
0000
0000
0000
,
0000
0000
0000
0000
,
0000
0000
0000
0000
,
0000
0000
0000
0000
,
1001
0100
1000
0100
,
0001
0010
1000
0001
,
1001
0010
0001
0010
,
1000
0100
0001
1000
,
1001
0010
1000
0010
,
0001
0100
1000
0001
,
1001
0100
0001
0100
,
1001
0000
0010
1000
0010
1000
0010
0000
,
0101
0100
0000
0001
1001
0000
1010
0010
,
0000
1000
1001
0000
0100
0001
0100
0000
,
1010
0010
0000
1000
1001
0000
0101
0001
,
0000
1000
1001
0000
0010
1000
0010
1000
,
0001
0010
0001
0000
0010
0001
0010
0001
,
0100
0000
0010
0100
0010
0000
0100
0010
,
1000
0001
1001
1000
,
1000
0100
0010
0001
0100
0000
0001
0010
,
0001
0000
0001
0100
0001
1000
0100
1000
,
0010
0000
1000
0010
1000
0001
0010
0001
,
1000
0100
0001
0100
1000
0100
0001
0100
,
1000
0001
1000
0000
1100
0000
0011
0000
,
1001
0000
0001
0010
0001
0000
0100
0010
,
0100
0000
0001
0010
0001
1000
0010
1000
,
0010
0000
1000
0100
1000
0001
0100
0000
,
0010
0100
0001
0100
0001
0010
0001
0000
,
1000
0010
1000
0000
1000
0100
1000
0001
,
0100
0000
0010
0100
0010
1000
0100
0010
,
0001
0000
1000
0010
1000
0000
0001
0100
,
0001
1000
0001
0000
0011
0000
1100
0000
,
1001
0000
1000
0010
1000
0000
0010
0100
,
0010
1000
0001
0000
0101
0000
0101
0000
,
1001
0000
0001
0100
0010
0100
0001
1000
,
0100
0010
0100
0010
0100
0010
0001
0000
,
1001
0000
1000
0010
1000
0001
0100
0001
,
1000
0000
0010
0100
0010
0000
1000
0100
,
0010
0000
0001
0100
0001
1000
0010
1000
,
0001
0000
0100
0010
0100
0000
0001
0010
,
0100
0000
1000
0100
1000
0001
0010
0001
,
1000
0000
0010
0100
0010
0000
1000
0100
,
0010
0000
0001
0000
1001
0000
1000
0001
,
1000
0100
1000
0100
1000
0100
1000
0000
,
0001
0010
0001
0100
0010
0000
0100
0001
,
0000
0010
0001
0010
0100
0010
0001
0000
,
1000
0100
1000
0010
0100
0000
0010
1000
,
0000
0100
1000
0100
0010
0100
1000
0000
,
1001
1001
1001
1100
,
0101
0101
0101
0011
,
0001
1000
0001
1000
0001
1000
0001
1000
,
0001
0010
1000
0100
0010
0001
0100
0010
,
0100
0000
0001
0100
0000
0100
0010
1000
,
0010
0000
1000
0010
0000
0010
0100
0010
,
1000
0100
0001
0100
1000
0100
0001
0100
,
1000
1010
1010
0110
,
1001
0000
1000
0001
1000
0000
0010
0100
,
0001
0100
0000
0001
0100
0010
0100
0010
,
0100
0000
0001
0100
0000
0100
0010
1000
,
0010
0100
0010
0100
0001
0010
0001
0010
,
0001
0000
1000
0010
0000
0010
0100
0010
,
1000
0000
0001
0100
0000
0100
0010
0100
,
0001
0010
0001
0000
1000
0010
1000
0100
,
1000
1010
1010
0110
,
1001
0000
0001
1000
0001
0000
1000
0010
,
0000
0010
0100
0010
0100
0001
0010
0001
,
0100
0000
0001
0100
0000
0100
0010
1000
,
0001
1000
0001
1000
0001
1000
0001
0000
,
1000
0010
0001
0010
1000
0100
0010
0001
,
0100
1000
0100
0001
0010
0100
1000
0100
,
0001
0100
1000
0100
0001
0010
0100
1000
,
0010
0001
0010
1000
0100
0010
0001
0000
,
1000
0100
0001
0100
1000
0100
0010
0001
,
0010
1000
0010
0001
0010
0100
1000
0100
,
0001
0010
0100
0010
0001
1000
0010
1000
,
1000
0000
0001
0100
0001
0100
0001
0100
,
0001
0010
1000
0010
0001
0010
0100
1000
,
0100
0010
0100
1000
0100
0001
0100
1000
,
0010
0100
0010
0100
0010
1000
0001
0010
,
0001
0010
0001
1000
0100
0010
0100
0000
,
1000
0100
0001
0100
1000
0100
0010
0001
,
0010
0100
0010
0001
0010
0100
1000
0010
,
0001
0100
0000
0001
0010
0100
0000
1000
,
0010
0100
0010
0000
0010
0100
0010
1000
,
0001
0010
0001
0010
1000
0000
0010
1000
,
0000
0100
0010
0001
0010
1000
0010
0000
,
0001
0010
0001
1000
0100
0000
1001
1001
;
