#TITLE:GIRIGILI門前雀羅;
#SUBTITLE:(FROM NONSTOP MEGAMIX);
#ARTIST:Remixed by DJ Mass MAD Izm*;
#TITLETRANSLIT:GIRIGILI Monzen Jakura;
#SUBTITLETRANSLIT:;
#ARTISTTRANSLIT:;
#CREDIT:DMAxel;
#BANNER:GIRIGILI Monzen Jakura (FROM NONSTOP MEGAMIX).png;
#BACKGROUND:GIRIGILI Monzen Jakura (FROM NONSTOP MEGAMIX)-bg.png;
#LYRICSPATH:;
#CDTITLE:Konami original REMIX.png;
#MUSIC:GIRIGILI Monzen Jakura (FROM NONSTOP MEGAMIX).mp3;
#OFFSET:-0.260;
#SAMPLESTART:55.374;
#SAMPLELENGTH:12.000;
#SELECTABLE:YES;
#BPMS:0.000=147.950;
#STOPS:;
#BGCHANGES:;

//---------------dance-single - ----------------
#NOTES:
     dance-single:
     :
     Easy:
     4:
     0.298,0.367,0.233,0.000,0.000:
0000
0000
0000
0000
,
0000
0000
0000
0000
,
0000
0000
0000
0000
,
0000
0000
0000
0000
,
1000
0000
0100
0000
,
0010
0000
0001
0000
,
0010
0000
0100
0000
,
1000
1000
1000
1000
,
1001
0010
0001
0010
,
0001
0010
0100
1000
,
0100
1000
0100
1000
,
0100
0010
0001
0001
,
0100
0001
0100
0001
,
0010
0100
1000
0010
,
1000
0010
1000
0100
,
0010
0010
0010
0010
,
1001
0010
0000
0001
,
0000
0010
0000
0001
,
1001
0000
1001
0000
,
1000
0000
0100
0000
,
1000
0000
0100
0000
,
1001
0000
1001
0000
,
0100
0000
0001
0000
,
0100
0100
0010
0010
,
1001
0000
0100
0000
,
0001
0000
1000
0000
,
1001
0000
0010
0000
,
1000
0000
1001
0000
,
0100
0000
0001
0000
,
1001
0000
0100
0000
,
1000
0000
0010
0000
,
0100
0100
0100
0100
,
0010
0010
0010
0010
,
1000
1000
1000
1001
,
0001
0010
0001
0100
,
1001
0010
1000
0100
,
1001
0010
0001
0100
,
1001
0010
1000
0100
,
1001
0001
0001
0001
,
0010
0010
0010
0000
,
0001
1000
0100
1000
,
1100
0010
0001
0100
,
0010
1000
0100
1000
,
1001
0010
0001
0100
,
1001
0010
1000
0100
,
1001
0010
0001
0100
,
1001
0100
0100
1000
,
1000
0010
0010
0100
,
0100
0010
0010
0100
,
0100
0001
0001
0010
,
1001
0100
0000
1000
,
0001
1000
0000
0010
,
0100
0001
0010
0000
,
0001
1000
0100
0000
,
1000
0010
0100
0000
,
0010
0100
0010
0000
,
0100
0001
0010
0000
,
0001
0010
1000
1001
;

//---------------dance-single - ----------------
#NOTES:
     dance-single:
     :
     Challenge:
     9:
     0.633,0.828,0.244,0.000,0.276: // measure 1
0000
0000
0000
0000
,  // measure 2
0000
0000
0000
0000
,  // measure 3
0000
0000
0000
0000
,  // measure 4
0000
0000
0000
0000
,  // measure 5
1000
0100
0000
0000
0001
0100
0000
0000
,  // measure 6
1000
0010
0000
0000
0001
0100
0000
0000
,  // measure 7
1000
0100
0000
0000
0001
0010
0000
0000
,  // measure 8
1100
0000
1010
0000
1100
0000
1010
1000
,  // measure 9
1000
0100
0000
0001
0100
1000
0000
0100
,  // measure 10
1000
0100
0010
0001
0000
0010
0001
0010
,  // measure 11
0100
0000
1100
0000
1000
0010
0001
0000
,  // measure 12
0011
0000
0001
0100
1000
0100
0100
0100
,  // measure 13
1000
0100
0010
0001
0100
0001
0000
0010
,  // measure 14
0100
1000
0100
0001
0000
0010
0100
1000
,  // measure 15
0100
0000
1010
0000
1000
0100
0001
0000
,  // measure 16
0010
0001
0010
0001
0010
1000
0010
1000
,  // measure 17
0010
1000
0100
0010
0001
0001
0001
0010
,  // measure 18
1000
0010
0001
0010
0100
1000
0100
1000
,  // measure 19
1000
1001
0000
0001
0001
1001
0000
1000
,  // measure 20
0100
0010
0001
0010
0100
1000
0010
0100
,  // measure 21
0001
0100
1000
0100
0001
0000
1100
0000
,  // measure 22
1001
0000
0011
0000
1001
0000
0001
0010
,  // measure 23
0100
1000
0100
0010
0001
0000
0100
0010
,  // measure 24
0000
0100
0100
0001
0001
1000
1000
1000
,  // measure 25
0001
0010
1000
0000
0100
0010
0001
0000
,  // measure 26
1000
0100
0001
0000
0010
0100
1000
0001
,  // measure 27
0001
0010
1000
0001
0001
1000
0100
1000
,  // measure 28
1000
0100
0001
0100
1000
0010
0010
0010
,  // measure 29
0100
0001
0010
0000
0001
0010
1000
0010
,  // measure 30
0001
0000
1001
0000
0100
1000
0100
0000
,  // measure 31
1000
0100
0001
0000
0100
0010
1000
0000
,  // measure 32
0100
1000
0100
1000
0100
0001
0100
0000
,  // measure 33
0010
0100
0010
0000
0100
0010
0100
0000
0001
1000
0001
0000
1000
0001
1000
0000
,  // measure 34
0001
0000
0001
0100
0001
0000
1000
0000
1000
0010
1000
0000
1001
0000
0000
0000
,  // measure 35
0010
0001
0000
0000
0010
0000
0001
0000
0010
0000
0100
0000
1000
0000
0000
0000
,  // measure 36
0100
1000
0000
0000
0100
0000
1000
0000
0100
0000
0010
0000
0001
0000
0000
0000
,  // measure 37
0100
0001
0000
0000
0010
0000
0001
0000
0100
0000
0010
0000
1000
0000
0000
0000
,  // measure 38
0010
1000
0000
0000
0100
0000
1000
0000
0010
0000
0100
0000
0001
0000
0000
0000
,  // measure 39
1001
0000
0000
0010
0001
0000
0000
0010
0100
0000
0000
1000
0100
0000
0000
0010
,  // measure 40
0100
0000
0000
1000
0001
0000
0000
0010
0100
0000
1000
0001
1000
0000
0000
0000
,  // measure 41
0010
0100
0010
0000
1000
0000
0100
0000
0001
0000
0100
0000
1000
0000
0000
0000
,  // measure 42
0011
0000
0000
0000
1010
0000
0000
0000
0011
0000
0001
0000
1000
0100
1000
0100
,  // measure 43
1000
0001
0010
0100
1000
0100
0001
0000
,  // measure 44
1001
0000
0010
0001
0010
1000
0010
0000
,  // measure 45
1001
0000
0100
1000
0100
0001
0100
0000
,  // measure 46
1001
0000
0010
0001
0010
1000
0010
0000
,  // measure 47
1000
0000
0010
0000
0100
0000
0000
0010
0000
0000
1000
0000
0100
0000
0000
0010
,  // measure 48
0000
0000
0001
0000
0100
0000
0000
0010
0000
0000
1000
0000
0100
0000
0000
0010
,  // measure 49
0000
0000
0001
0000
0010
0000
0000
0100
0000
0000
1000
0000
0010
0000
0000
0100
,  // measure 50
0000
0001
0010
0000
0001
1000
0010
0010
,  // measure 51
1010
0000
0000
0100
0001
0000
0010
0000
0001
0010
0001
0000
0010
0000
0100
0000
,  // measure 52
1000
0010
1000
0010
1000
0000
0001
0100
0001
0100
0001
0000
1000
0000
1000
0100
,  // measure 53
0010
0000
0000
0001
0100
0000
0010
0000
0100
0001
0100
0000
0010
0000
1000
0000
,  // measure 54
0010
0000
0000
1000
0010
0000
0100
0000
0010
1000
0010
0000
0100
0000
0001
0000
,  // measure 55
0001
0010
0100
0000
1000
0000
1000
0100
0010
0000
0001
0000
1000
0000
0010
0100
,  // measure 56
0010
1000
0100
0010
0001
0010
1000
0001
,  // measure 57
1000
0100
1000
0100
1000
0100
1000
0100
1000
0000
0010
0100
0001
0010
0000
0000
,  // measure 58
0001
0010
0001
0010
0001
0000
0100
0010
1000
0100
1000
0100
1000
0100
1000
0000
;

//---------------dance-single - ----------------
#NOTES:
     dance-single:
     :
     Beginner:
     1:
     0.088,0.153,0.042,0.000,0.000:
0000
0000
0000
0000
,
0000
0000
0000
0000
,
0000
0000
0000
0000
,
0000
0000
0000
0000
,
1000
0000
0000
0000
,
0001
0000
0000
0000
,
1000
0000
0000
0000
,
0001
0000
0000
0000
,
0100
0000
0000
0000
,
0000
0000
0000
0000
,
0100
0000
0000
0000
,
0000
0000
0000
0000
,
0010
0000
0000
0000
,
0000
0000
0000
0000
,
0010
0000
0000
0000
,
1000
0000
0000
0000
,
0001
0000
0000
0000
,
0000
0000
0000
0000
,
0100
0000
0100
0000
,
0000
0000
0000
0000
,
0010
0000
0000
0000
,
1000
0000
1000
0000
,
0001
0000
0000
0000
,
0000
1000
0000
0000
,
0010
0000
0000
0000
,
0100
0000
0000
0000
,
0010
0000
0000
0000
,
0100
0000
0000
0000
,
0001
0000
0000
0000
,
1000
0000
0000
0000
,
0001
0000
0000
0000
,
1000
0000
1000
0000
,
0001
0000
0000
0000
,
0010
0000
0000
0000
,
1001
0000
0000
0000
,
1000
0000
0000
0000
,
0100
0000
0000
0000
,
0010
0000
0000
0000
,
0001
0000
0000
0000
,
0010
0000
0000
0000
,
0100
0000
0000
0000
,
1000
0000
1000
0000
,
1001
0000
0000
0000
,
0010
0000
0000
0000
,
0100
0000
0000
0000
,
1000
0000
0000
0000
,
0100
0000
0000
0000
,
0100
0000
0000
0000
,
0010
0000
0000
0000
,
0010
0000
0000
0000
,
1001
0000
0000
0000
,
0010
0000
0000
0000
,
0001
0000
0000
0000
,
0010
0000
0000
0000
,
0001
0000
0000
0000
,
1000
0000
0000
0000
,
0100
0000
0000
0000
,
1000
0000
0000
1001
;

//---------------dance-single - ----------------
#NOTES:
     dance-single:
     :
     Hard:
     8:
     0.553,0.552,0.403,0.064,0.005:
0000
0000
0000
0000
,
0000
0000
0000
0000
,
0000
0000
0000
0000
,
0000
0000
0000
0000
,
2000
0000
3200
0000
,
0320
0000
0032
0000
,
0203
0000
0320
0000
,
1030
0000
0101
0000
1010
0000
1001
1000
,
0001
0010
0001
0000
1000
0100
1000
0000
,
0001
0100
0001
0000
1000
0010
1000
0000
,
0001
0100
1000
0000
0100
0010
0001
0000
,
0010
0001
0010
0000
0001
0001
1000
0100
,
0001
0010
0100
0000
1000
0010
1000
0000
,
0010
0100
0010
0000
0100
0001
1000
0000
,
0010
0100
0001
0000
1000
0010
0100
0000
,
0001
0010
0001
0010
0001
0010
0100
1000
,
0001
0010
0100
1000
0001
0010
0001
1000
,
0001
0001
1000
0100
0010
0001
1000
0000
,
1010
1001
0101
1001
,
1000
0100
0010
0001
1000
0100
1000
0001
,
0100
1100
1001
0100
,
1001
0010
1001
0100
,
1000
0100
0001
0100
1000
0000
0001
0100
,
0000
0001
0001
1000
1000
0001
0001
0001
,
1000
0100
0010
0000
0001
0010
0100
0000
,
1000
0100
0010
0000
0001
0010
0100
1000
,
1000
0100
0010
0001
0001
0010
0100
1000
,
1000
0100
0010
0100
1000
0001
0001
0001
,
1000
0100
0010
0000
0001
0010
1000
0000
,
0010
0000
1001
0000
1000
0100
0001
0000
,
0100
0010
0100
0000
0001
0100
1000
0000
,
0100
1000
0100
1000
0100
0000
1001
0000
,
1000
0100
1000
0100
1000
0100
1000
0100
,
0010
0001
0010
0001
0010
0001
0010
0000
,
1001
0000
0010
0001
0010
0100
1000
0000
,
1001
0000
0100
1000
0100
0010
0001
0000
,
1001
0000
0010
0001
0100
0010
1000
0000
,
1001
0000
0100
1000
0010
0100
0001
0000
,
1001
0011
0101
1010
,
1100
0000
0110
0000
1001
0001
0001
0000
,
1000
1000
0100
1000
0010
1000
0100
0000
,
0011
0000
0000
0000
1010
0000
0000
0000
0011
0000
0001
0000
1000
0010
1000
0000
,
0001
0001
0010
0001
0100
0001
0010
0000
,
1001
0000
0010
1000
0100
1000
0010
0000
,
1001
0000
0100
0001
0010
0001
0100
0000
,
1001
0000
0010
1000
0100
1000
0010
0000
,
1000
0010
0100
0000
0000
0001
0100
0000
,
0000
1000
0100
0000
0000
0001
0100
0000
,
0000
1000
0010
0000
0000
0001
0010
0000
,
1010
0000
1010
0000
0001
0100
0010
0010
,
1001
0000
0010
0000
0001
0100
0010
1000
,
0100
0000
1100
0000
0010
1000
0100
0010
,
0001
0000
0011
0000
0001
0100
0010
1000
,
0010
0000
1010
0000
1000
0010
0100
0001
,
0100
0000
0101
0000
0001
0010
1000
0010
,
1000
0000
1010
0000
1000
0100
0001
0100
,
0001
0010
0001
0010
0001
0010
0001
0010
,
1000
0100
1000
0100
1000
0100
1000
0100
;

//---------------dance-single - ----------------
#NOTES:
     dance-single:
     :
     Medium:
     6:
     0.477,0.491,0.403,0.064,0.000:
0000
0000
0000
0000
,
0000
0000
0000
0000
,
0000
0000
0000
0000
,
0000
0000
0000
0000
,
0002
0000
2003
0000
,
3002
0000
2003
0000
,
3020
0000
0230
0000
,
0010
0010
0010
0310
,
1001
0100
1000
0100
,
1000
0100
0001
0100
,
1000
0001
0010
0001
,
0010
0001
0010
1000
,
0010
0001
1000
0001
,
1000
0100
0010
0001
,
1000
0001
1000
0001
,
0100
0010
0100
0010
0100
0010
0100
0000
,
1001
0000
0100
1000
0000
0100
1000
0000
,
0010
0000
1000
0010
0000
1000
0010
0000
,
1001
0100
1001
0010
,
1001
0000
0001
0100
0000
0001
0100
0000
,
0010
0000
1000
0100
0000
1000
0100
0000
,
1001
0000
0100
0000
1001
0000
0010
1000
,
0010
0000
0100
0010
0100
0000
0010
1000
,
0000
0010
0100
0010
0100
0010
0100
0000
,
1001
0001
0110
1000
,
0110
0001
0110
1000
,
1001
1000
0110
0001
,
0110
1000
0110
0110
,
1001
1001
0010
0100
,
1000
0001
0010
0010
,
1000
1001
0001
1001
,
0010
0001
0010
0000
0010
0001
0010
0000
,
0100
1000
0100
0000
0100
1000
0100
0000
,
1000
0001
1000
0001
1000
0000
1001
0000
,
1000
0000
0100
1000
0100
1000
0100
0000
,
1001
0000
0010
0001
0010
0001
0010
0000
,
1001
0000
0010
1000
0010
1000
0010
0000
,
1001
0000
0100
0001
0100
0001
0100
0000
,
0001
1000
0000
1100
0000
0011
0000
1010
,
0000
0101
0000
1001
0000
0001
0001
0000
,
1000
0010
0100
0001
1000
0000
1100
0000
,
1001
0000
1001
0000
0001
1000
0001
0001
,
0001
0000
0100
0010
0100
0001
1000
0000
,
1000
0000
0010
0100
0010
1000
0001
0000
,
0001
0000
0100
0010
0100
0001
1000
0000
,
1000
0000
0010
0100
0010
1000
0001
0000
,
1000
0100
1000
0000
0100
1000
0100
0000
,
1000
0100
1000
0000
0100
1000
0100
0000
,
0010
0001
0010
0000
0001
0010
0001
0000
,
0010
0001
0010
0000
0110
0000
0110
0000
,
1001
0000
0001
0000
0100
1000
0100
0000
,
1001
0000
1000
0000
0010
0001
0010
0000
,
1001
0000
1000
0000
0100
0001
0100
0000
,
1001
0000
0001
0000
0010
1000
0010
0000
,
1000
0100
0010
0000
0001
0001
0001
0000
,
0100
0010
0100
0010
0100
0010
0100
0000
,
0001
0010
0100
0000
1000
1000
1000
0000
,
0010
0100
0001
1000
0100
0001
0001
0001
;
