#TITLE:GHOSTBUSTERS;
#SUBTITLE:;
#ARTIST:Remixed by DJ Yoshitaka;
#TITLETRANSLIT:;
#SUBTITLETRANSLIT:;
#ARTISTTRANSLIT:;
#CREDIT:DMAxel;
#BANNER:GHOSTBUSTERS.png;
#BACKGROUND:GHOSTBUSTERS-bg.png;
#LYRICSPATH:GHOSTBUSTERS.lrc;
#CDTITLE:beatmaniaIIDX.png;
#MUSIC:Ghostbusters.mp3;
#OFFSET:-10.040;
#SAMPLESTART:40.700;
#SAMPLELENGTH:12.000;
#SELECTABLE:YES;
#BPMS:0.000=125.000;
#STOPS:;
#BGCHANGES:;

//---------------dance-single - ----------------
#NOTES:
     dance-single:
     :
     Easy:
     2:
     0.159,0.268,0.088,0.000,0.000:
1000
0000
0000
0000
,
0001
0000
0000
0000
,
1000
0000
0000
0000
,
0001
0000
0000
0000
,
1000
0100
1000
0000
,
0000
0001
0010
0001
,
0000
1000
0010
1000
,
0001
0100
0001
1000
,
0001
0000
0000
0000
,
1000
0100
0000
0000
,
0010
0001
0000
0100
,
0010
0000
0000
0000
,
1000
0001
0000
0000
,
0010
0001
0000
0000
,
1000
0100
0000
1000
,
0010
0100
0001
0010
,
0001
0000
0000
1000
,
0000
0000
0100
1000
,
0001
0000
0000
0010
,
0000
0000
0001
1000
,
0010
0010
0010
1001
,
0000
1000
0001
1000
,
0010
0010
0010
1001
,
0100
0100
1001
1001
,
0001
0000
0000
0000
,
1000
0000
0000
0000
,
0001
0000
0000
0000
,
0100
0000
0000
0000
,
0010
0000
0000
0000
,
0100
0000
0000
0000
,
0001
0000
0000
0000
,
1000
0001
1000
0001
,
1000
0000
0000
0000
,
0010
0100
0010
1000
,
0001
0000
0000
0000
,
0100
0010
0100
0001
,
1000
0000
0000
0000
,
0010
0100
0010
1000
,
0001
0000
0000
0000
,
0100
0100
1001
1001
,
0001
0000
0000
0000
,
0100
0000
0000
0000
,
0010
0000
0000
0000
,
0100
0000
0000
0000
,
0010
1000
0010
0000
,
0100
0001
0100
0000
,
0010
0100
0010
0000
,
1000
0001
1000
0001
,
1001
0000
0000
0100
,
0000
0000
0010
0100
,
0010
0000
0000
0100
,
0000
0000
0010
0100
,
0010
1000
0001
1001
,
0000
1000
0001
0100
,
0010
1000
0001
1000
,
1001
0000
0110
0110
;

//---------------dance-single - ----------------
#NOTES:
     dance-single:
     :
     Hard:
     7:
     0.445,0.381,0.360,0.152,0.000: // measure 1
1000
0000
1001
0000
0010
0100
0001
0000
,  // measure 2
0001
0000
1001
0000
0100
0010
1000
0100
,  // measure 3
1000
0000
1001
0000
0010
0100
0001
0000
,  // measure 4
0001
0000
1001
0000
0100
0010
1000
0100
,  // measure 5
1000
0001
0010
0100
1000
0100
0001
0100
,  // measure 6
1000
1000
0001
0010
0100
1000
0001
0000
,  // measure 7
0001
1000
0100
0010
0001
1000
0010
0000
,  // measure 8
0110
0110
1001
1001
,  // measure 9
1000
0100
0010
0001
1000
0000
0000
0100
,  // measure 10
0010
0001
1000
0010
0100
0010
1000
0000
,  // measure 11
0001
0010
0100
1000
0001
0000
0100
0000
,  // measure 12
0110
0000
0010
0000
0100
0001
1000
0000
,  // measure 13
1001
0010
0100
1000
0001
0000
0000
0010
,  // measure 14
0100
1000
0001
0100
0010
0100
0001
0000
,  // measure 15
1000
0100
0010
0001
1000
0000
0010
0000
,  // measure 16
0110
0110
1001
1001
,  // measure 17
0002
0000
0000
0203
0000
0000
0302
0000
,  // measure 18
0000
2003
0000
0000
3001
0010
0100
1000
,  // measure 19
0020
0000
0000
0230
0000
0000
0320
0000
,  // measure 20
0000
0230
0000
0000
0301
0010
0100
1000
,  // measure 21
0001
0010
0001
1000
0010
1000
1001
0000
,  // measure 22
1000
0100
1000
0001
0100
0100
0001
0001
,  // measure 23
1000
0100
1000
0001
0100
0001
1001
0000
,  // measure 24
0001
0010
0001
1000
1010
0000
1001
0000
,  // measure 25
0001
0010
0100
1000
0001
0000
0000
0100
,  // measure 26
0010
0100
0001
0100
1000
0100
0001
0000
,  // measure 27
1000
0100
0010
0001
1000
0000
0010
0000
,  // measure 28
0110
0000
0100
0000
0010
1000
0001
0000
,  // measure 29
1000
0100
0010
0001
1000
0000
0000
0010
,  // measure 30
0100
0010
1000
0100
0001
0100
1000
0000
,  // measure 31
0001
0010
0100
1000
0001
0000
0100
0000
,  // measure 32
0110
0110
1001
1001
,  // measure 33
0100
1100
1001
1100
,  // measure 34
0020
0000
0000
0031
1000
0100
0010
0001
,  // measure 35
0010
0011
1001
0011
,  // measure 36
0200
0000
0000
1300
0001
0010
0100
1000
,  // measure 37
0010
1010
1001
1010
,  // measure 38
0200
0000
0000
0301
1000
0100
0010
0001
,  // measure 39
0100
0101
1001
0101
,  // measure 40
0110
0110
1001
1001
,  // measure 41
0001
0010
0100
1000
0100
0010
0001
0000
,  // measure 42
1000
0100
0010
0001
0010
0100
1000
0000
,  // measure 43
0010
0100
0010
1000
0100
0010
0001
0000
,  // measure 44
1001
0000
1000
0001
1000
0010
0100
0001
,  // measure 45
1000
1000
0100
0010
0001
0001
1000
0000
,  // measure 46
0001
0001
0010
0100
1000
1000
0001
0000
,  // measure 47
1000
1000
0100
0010
0001
0001
1000
0000
,  // measure 48
0001
0010
0100
1000
0001
0010
0100
1000
,  // measure 49
0020
0000
0000
2030
0000
0000
3020
0000
,  // measure 50
0000
2030
0000
0000
3001
0010
0100
1000
,  // measure 51
0002
0000
0000
0203
0000
0000
0302
0000
,  // measure 52
0000
0203
0000
0000
0301
0010
0100
1000
,  // measure 53
0001
0010
0001
1000
0010
1000
1001
0000
,  // measure 54
1000
0100
1000
0001
0100
0100
0010
0010
,  // measure 55
1000
0100
0010
0001
0100
0001
1000
0100
,  // measure 56
1100
1100
1001
1001
,  // measure 57
0001
0000
0000
0000
;

//---------------dance-single - ----------------
#NOTES:
     dance-single:
     :
     Challenge:
     8:
     0.519,0.470,0.352,0.120,0.196:
1001
0000
1001
0000
0100
0001
1000
1000
,
0001
0000
1001
0000
0010
1000
0001
0001
,
0010
0100
1000
0001
0100
0100
0101
0000
,
0100
0010
0001
1000
0010
0010
1000
1000
,
0001
0000
0100
0001
0100
0000
0010
0000
1000
0000
0002
0000
1000
0000
0000
0000
,
1003
0000
0000
0000
0010
1000
0010
1000
0010
0000
0100
0000
0001
0000
0001
0000
,
1000
0000
0010
1000
0010
0000
0100
0000
0001
0000
2000
0000
0001
0000
0000
0000
,
3001
0000
0010
0000
0100
0000
1000
0000
0010
1000
0010
0000
0100
0010
0100
0000
,
1001
0000
0000
0000
0001
0000
0100
0001
0000
0000
0000
0000
1000
0000
0010
0000
,
0100
0001
0100
0000
0020
1000
2030
0000
,
3001
0000
0000
0000
1000
0000
0010
1000
0000
0000
0000
0000
1001
0000
0000
0000
,
0010
1000
0001
0000
0200
0001
0301
0000
,
1001
0000
0000
0000
1000
0000
0010
2000
0000
0000
0001
0000
3001
0000
0000
0000
,
0100
0001
1000
0000
0020
1000
1030
0000
,
0010
1000
0002
0010
0013
0000
1001
0000
,
1000
0000
0010
0000
1000
0000
0001
0000
0100
0001
0100
0000
0010
0100
0010
0000
,
1001
0000
0000
1000
0000
0000
0010
0000
0000
1000
0000
0000
0110
0000
0000
0001
,
0000
0000
0100
0000
0000
0001
0000
0000
0100
0000
0010
0000
0100
0010
0100
0000
,
1001
0000
0000
0001
0000
0000
0010
0000
0000
0001
0000
0000
0110
0000
0000
1000
,
0000
0000
0100
0000
0000
1000
0000
0000
0010
0100
0010
0000
0100
0010
0100
0000
,
1001
0010
0100
1000
0001
0100
0101
0000
,
0010
0000
1000
0000
0001
0000
0010
0000
0100
0000
0100
0000
1000
0001
1000
0000
,
0001
0010
0100
1000
0001
0100
0101
0000
,
0010
1000
0001
0100
0110
0000
1001
0000
,
1001
0000
0000
0000
1000
0000
0010
1000
0000
0000
0000
0000
0010
0000
1000
0000
,
0001
0010
0001
0000
2000
0010
3010
0000
,
0010
1000
0002
0100
0103
0000
0100
0000
,
1001
0001
1000
0100
2000
0000
3001
0000
,
0100
0000
0001
0000
1000
0000
0100
1000
0000
0000
0000
0000
0100
0000
1000
0000
,
0001
0001
0100
0000
0020
1000
1030
0000
,
1000
0000
0010
0000
0001
0000
0010
0001
0000
0000
0001
0000
0100
0000
0000
0000
,
0001
0100
0001
1000
0100
1000
0100
0010
,
1001
0011
0011
1001
,
0200
0000
0000
0000
0000
0000
0010
0000
0310
0000
1000
0000
0001
0100
0001
0000
,
1001
1100
1100
1001
,
0020
0000
0000
0000
0000
0000
0100
0000
0130
0000
0001
0000
1000
0010
1000
0000
,
1001
0101
0101
1001
,
0200
0000
0000
0000
0000
0000
1000
0000
1300
0000
0010
0000
0100
0001
0100
0000
,
1001
1010
1010
1001
,
0001
0000
0001
0000
1000
0000
1000
0000
0010
1000
0010
0000
0100
0001
1000
0000
,
1001
0000
0100
0000
0010
0000
0001
0000
0100
0000
0010
0100
0010
0000
1000
0000
,
0001
0010
0100
1000
0001
0010
1000
0010
,
0001
0000
0010
0000
0100
0000
1000
0000
0010
0000
0100
0001
0100
0000
0010
0000
,
1000
0100
0010
0001
0100
1000
0100
0001
,
1000
0000
0100
1000
0100
0000
0010
0000
0001
0000
1000
0000
0010
0000
0100
0000
,
0010
0000
0000
0000
1000
0100
1000
0100
1000
0000
0001
0000
0100
0000
0000
0000
,
0001
0000
0010
0001
0010
0000
0100
0000
1000
0000
0001
0000
0100
0000
0010
0000
,
0100
0001
0010
0001
0100
0010
1000
0100
,
0011
0000
0000
0100
0000
0000
1000
0000
0000
0100
0000
0000
0011
0000
0000
0100
,
0000
0000
1000
0000
0000
0001
0000
0000
0100
0000
0010
0000
1000
0100
1000
0000
,
1100
0000
0000
0010
0000
0000
0001
0000
0000
0010
0000
0000
1100
0000
0000
0010
,
0000
0000
0001
0000
0000
1000
0000
0000
0010
0100
0010
0000
1000
0001
1000
0000
,
0001
0010
0100
1000
0100
0010
1001
0100
,
0010
0000
0001
0000
0010
0000
0100
0000
1000
0000
1000
0000
0001
0100
0001
0000
,
1000
0100
0010
0001
0010
0100
1000
0100
,
0011
0100
1000
0001
0101
0000
1100
0000
,
1000
0000
0000
0000
;

//---------------dance-single - ----------------
#NOTES:
     dance-single:
     :
     Medium:
     5:
     0.315,0.357,0.376,0.088,0.000:
1000
0100
1000
0100
,
0010
0001
0010
0001
,
1000
0001
1000
0001
,
0100
0010
0100
0010
,
1001
1000
0001
1000
,
0001
0000
0100
0010
0100
0010
0100
0000
,
0001
1000
0001
0100
,
0010
0000
0100
0010
0100
0010
0100
0000
,
1001
0000
0000
0101
0000
0000
0000
0000
,
1001
0000
0000
0101
0000
0000
0000
0000
,
1001
0000
0000
1010
0000
0000
0000
0000
,
1001
0000
0000
1010
0000
0000
0000
0000
,
1001
0000
0000
0011
0000
0000
0000
0000
,
1001
0000
0000
0011
0000
0000
0000
0000
,
1001
0000
0000
1100
0000
0000
0000
0000
,
0010
0001
0010
0100
,
1001
0000
0000
0010
0000
0000
0100
0000
,
0000
0010
0000
0000
1000
0100
0010
0001
,
1000
0000
0000
0001
0000
0000
1000
0000
,
0000
0010
0000
0000
0100
0010
0100
0000
,
0001
0010
0100
1000
0001
0000
1001
0000
,
1000
0100
0010
0001
0100
0010
0100
0010
,
1000
0100
0010
0001
1000
0000
1001
0000
,
0001
0010
0100
1000
0001
0000
1001
0000
,
1001
0000
0000
1100
0000
0000
0000
0000
,
1001
0000
0000
1010
0000
0000
0000
0000
,
1001
0000
0000
0011
0000
0000
0000
0000
,
1001
0000
0000
0101
0000
0000
0000
0000
,
1001
0000
0000
1100
0000
0000
0000
0000
,
1001
0000
0000
0011
0000
0000
0000
0000
,
1001
0000
0000
0110
0000
0000
0000
0000
,
1000
0010
0100
0001
,
1001
0100
0100
0100
,
0002
0000
0000
0000
1003
0100
1000
0000
,
1001
0010
0010
0010
,
2000
0000
0000
0000
3001
0010
0001
0000
,
1001
0010
0010
0010
,
0002
0000
0000
0000
1003
0010
1000
0000
,
1001
0100
0100
0100
,
1001
1001
1001
1001
,
0010
0100
0010
0000
0100
0001
0100
0000
,
0010
0100
0010
0000
0100
0001
0100
0000
,
0010
1000
0100
0000
1000
0000
1001
0000
,
1001
0000
0100
0000
0100
0010
0100
0000
,
1001
0000
1000
0100
1000
0000
0001
0000
,
1000
0000
0001
0010
0001
0000
1000
0000
,
0001
0000
1000
0010
1000
0000
0001
0000
,
1000
0100
1000
0000
0001
0100
0001
0000
,
2001
0000
0000
3100
0000
0000
0020
0000
,
0000
0031
0000
0000
0001
1000
0001
1000
,
0002
0000
0000
0103
0000
0000
0020
0000
,
0000
1030
0000
0000
1000
0001
1000
0001
,
2000
0000
0000
3010
0000
0000
0020
0000
,
0000
0130
0000
0000
0010
0100
0010
1000
,
0002
0000
0000
1003
0000
0000
0200
0000
,
0000
0310
0000
0000
1001
0000
1001
0000
;

//---------------dance-single - ----------------
#NOTES:
     dance-single:
     :
     Beginner:
     1:
     0.072,0.112,0.088,0.000,0.000:
0001
0000
0000
0000
,
0001
0000
0000
0000
,
0001
0000
0000
0000
,
0001
0000
0000
0000
,
1001
0000
0000
0000
,
0000
1000
0000
0000
,
0001
0000
0000
0000
,
1000
0000
0000
0000
,
1001
0000
0000
0000
,
0100
0000
0000
0000
,
0100
0000
0000
0000
,
0000
0000
0000
0000
,
1001
0000
0000
0000
,
0010
0000
0000
0000
,
0010
0000
0000
0000
,
0000
0000
0000
0000
,
1001
0000
0000
0001
,
0000
0000
0000
0000
,
1001
0000
0000
1000
,
0000
0000
0000
0000
,
0001
0000
0000
0100
,
0000
0000
0000
0000
,
0010
0000
0000
1000
,
0000
0000
0000
0000
,
0001
0000
0000
0000
,
0000
0000
0000
0000
,
0001
0000
0000
0000
,
0000
0000
0000
0000
,
1000
0000
0000
0000
,
0000
0000
0000
0000
,
1000
0000
0000
0000
,
1000
0000
0000
0000
,
1001
0000
0000
0000
,
0001
0000
0000
0000
,
1000
0000
0000
0000
,
0001
0000
0000
0000
,
0100
0000
0000
0000
,
0010
0000
0000
0000
,
1000
0000
0000
0000
,
1001
0000
0000
0000
,
0001
0000
0000
0000
,
0000
0000
0000
0000
,
0001
0000
0000
0000
,
1000
0000
0000
0000
,
1001
0000
0000
0000
,
0001
0000
0000
0000
,
1000
0000
0000
0000
,
0001
0000
0000
0000
,
1001
0000
0000
0001
,
0000
0000
0000
0000
,
1001
0000
0000
1000
,
0000
0000
0000
0000
,
0010
0000
0000
0100
,
0000
0000
0000
0000
,
0001
0000
0000
0000
,
1001
0000
1000
0000
,
1000
0000
0000
0000
;
