#TITLE:GET WILD;
#SUBTITLE:;
#ARTIST:NMR;
#TITLETRANSLIT:;
#SUBTITLETRANSLIT:;
#ARTISTTRANSLIT:;
#CREDIT:DMAxel;
#BANNER:GET WILD.png;
#BACKGROUND:GET WILD-bg.png;
#LYRICSPATH:GET WILD.lrc;
#CDTITLE:pop'n music.png;
#MUSIC:GET WILD.mp3;
#OFFSET:-7.520;
#SAMPLESTART:50.420;
#SAMPLELENGTH:12.000;
#SELECTABLE:YES;
#BPMS:0.000=150.000;
#STOPS:;
#BGCHANGES:0.000=snow.avi=1.000=1=0=1,
8.000=Green Geometry.avi=1.000=0=0=1,
16.000=Blue Bars.avi=1.000=0=0=1,
24.000=Vortex.avi=1.000=0=0=1,
31.500=white.PNG=1.000=0=0=1,
32.000=popup2=1.000=1=0=1,
36.000=blueball.avi=1.000=1=0=1,
51.500=Vortex.avi=1.000=1=0=1,
68.000=Hearts.avi=1.000=1=0=1,
84.000=Fireworks.avi=1.000=1=0=1,
92.000=Blocks.avi=1.000=1=0=1,
104.000=white.PNG=1.000=1=0=1,
108.000=trance8=1.000=1=0=1,
109.000=GET WILD-bg.png=1.000=0=0=1,
110.000=popup2=1.000=0=0=1,
112.000=Blue Bars.avi=1.000=0=0=1,
115.500=cube_a.avi=1.000=0=0=1,
124.000=popup2=1.000=0=0=1,
125.000=GET WILD-bg.png=1.000=0=0=1,
126.000=trance8=1.000=0=0=1,
128.000=Green Geometry.avi=1.000=0=0=1,
131.500=Vortex.avi=1.000=0=0=1,
140.000=trance8=1.000=0=0=1,
141.000=GET WILD-bg.png=1.000=0=0=1,
142.000=popup2=1.000=0=0=1,
143.000=Hearts.avi=1.000=0=0=1,
148.000=snow.avi=1.000=0=0=1,
156.000=popup2=1.000=0=0=1,
157.000=GET WILD-bg.png=1.000=0=0=1,
158.000=trance8=1.000=0=0=1,
160.000=Fireworks.avi=1.000=0=0=1,
164.000=Blocks.avi=1.000=0=0=1,
171.500=white.PNG=1.000=0=0=1,
172.000=snow.avi=1.000=1=0=1,
180.000=Green Geometry.avi=1.000=0=0=1,
188.000=Blue Bars.avi=1.000=0=0=1,
196.000=Vortex.avi=1.000=0=0=1,
203.000=white.PNG=1.000=0=0=1,
204.000=trance8=1.000=1=0=1,
205.000=GET WILD-bg.png=1.000=0=0=1,
206.000=popup2=1.000=0=0=1,
207.500=Blocks.avi=1.000=0=0=1,
212.000=Fireworks.avi=1.000=0=0=1,
220.000=popup2=1.000=0=0=1,
221.000=GET WILD-bg.png=1.000=0=0=1,
222.000=trance8=1.000=0=0=1,
224.000=snow.avi=1.000=0=0=1,
228.000=Hearts.avi=1.000=0=0=1,
236.000=trance8=1.000=0=0=1,
237.000=GET WILD-bg.png=1.000=0=0=1,
238.000=popup2=1.000=0=0=1,
240.000=Vortex.avi=1.000=0=0=1,
244.000=Green Geometry.avi=1.000=0=0=1,
252.000=popup2=1.000=0=0=1,
253.000=GET WILD-bg.png=1.000=0=0=1,
254.000=trance8=1.000=0=0=1,
256.000=cube_a.avi=1.000=0=0=1,
260.000=Blue Bars.avi=1.000=0=0=1,
263.000=white.PNG=1.000=0=0=1,
264.000=trance8=1.000=1=0=1,
265.000=GET WILD-bg.png=1.000=0=0=1,
266.000=popup2=1.000=0=0=1,
267.000=white.PNG=1.000=0=0=1,
267.500=GET WILD-bg.png=1.000=1=0=1,
99999=-nosongbg-=1.000=0=0=0 // don't automatically add -songbackground-
;

//---------------dance-single - ----------------
#NOTES:
     dance-single:
     :
     Easy:
     4:
     0.329,0.363,0.377,0.126,0.000: // measure 1
1001
0001
0010
0001
,  // measure 2
1001
1000
0100
1000
,  // measure 3
1001
0001
0010
0001
,  // measure 4
1001
1000
0100
1000
,  // measure 5
0100
0010
0001
0001
,  // measure 6
0010
0100
1000
1000
,  // measure 7
0001
1000
0010
0100
,  // measure 8
0010
0010
0010
0010
,  // measure 9
0220
0000
0000
0330
,  // measure 10
1001
0100
1000
0100
,  // measure 11
2000
0000
3001
0000
,  // measure 12
1001
0010
0001
0010
,  // measure 13
0002
0000
0003
0000
,  // measure 14
0010
0100
1000
0100
,  // measure 15
0010
0000
1001
0000
,  // measure 16
0100
0010
0001
0010
,  // measure 17
0100
1000
1000
1000
,  // measure 18
1001
0000
0000
0000
,  // measure 19
0001
0000
0001
0000
,  // measure 20
0001
1000
0001
1000
,  // measure 21
0002
0000
0000
0003
,  // measure 22
1001
0100
1000
0100
,  // measure 23
1000
0100
0010
0001
,  // measure 24
2000
0000
0000
3000
,  // measure 25
1001
0010
0001
0010
,  // measure 26
0200
0000
0320
0000
,  // measure 27
0031
0100
1000
0000
,  // measure 28
1001
0010
1001
0000
,  // measure 29
0200
0000
1300
0000
,  // measure 30
0100
0010
0001
0010
,  // measure 31
0100
1000
0001
0000
,  // measure 32
1001
0010
1001
0000
,  // measure 33
0020
0000
0031
0000
,  // measure 34
0010
0100
1000
0100
,  // measure 35
0010
0001
1000
0000
,  // measure 36
1001
0010
1001
0000
,  // measure 37
0100
1000
0100
0000
,  // measure 38
1000
0100
0010
0001
,  // measure 39
0100
0010
0100
0000
,  // measure 40
1001
0010
1001
0000
,  // measure 41
0100
0001
0100
0000
,  // measure 42
0001
0010
0100
1000
,  // measure 43
0010
0100
0010
0000
,  // measure 44
1000
1000
1001
1001
,  // measure 45
0001
0001
1001
1001
,  // measure 46
1000
1000
1001
1001
,  // measure 47
0001
0010
0100
1000
,  // measure 48
0001
0001
0110
0110
,  // measure 49
1000
1000
0110
0110
,  // measure 50
0001
0001
0110
0110
,  // measure 51
1000
1000
0001
0001
,  // measure 52
0110
0110
0110
0000
,  // measure 53
0002
0000
0103
0000
,  // measure 54
0001
1000
0010
1000
,  // measure 55
0002
0000
1003
0000
,  // measure 56
0110
0110
0110
0000
,  // measure 57
2000
0000
3010
0000
,  // measure 58
1000
0001
0100
0001
,  // measure 59
2000
0000
3001
0000
,  // measure 60
1001
0110
1001
0000
,  // measure 61
0010
0001
0010
0000
,  // measure 62
0001
0010
0100
1000
,  // measure 63
0001
0010
0100
1000
,  // measure 64
1001
0110
1001
0000
,  // measure 65
0010
1000
0010
0000
,  // measure 66
1000
0100
0010
0001
,  // measure 67
1002
0000
0103
1001
;

//---------------dance-single - ----------------
#NOTES:
     dance-single:
     :
     Medium:
     7:
     0.475,0.447,0.268,0.092,0.092:
1000
0010
1000
0010
2000
0000
3001
0000
,
0001
0010
0001
0010
0002
0000
1003
0000
,
1000
0100
1000
0100
2000
0000
3001
0000
,
0001
0100
0001
0100
0002
0000
1003
0000
,
1000
0010
0100
0000
0010
0100
0010
0000
,
0100
0010
1000
0000
0001
1000
0001
0000
,
0001
0100
0010
0000
0100
0010
0100
0000
,
0010
0100
0001
0000
1000
0001
1000
0000
,
0010
0000
0000
0010
0000
0000
0010
0000
0000
0000
0000
0000
0000
0000
0000
0000
,
1000
0001
0000
0100
0000
0001
0000
0100
,
0001
1000
0100
0000
1000
0100
1000
0000
,
0001
1000
0000
0010
0000
1000
0000
0010
,
1000
0001
0010
0000
0001
0010
0001
0000
,
1000
0010
1000
0010
1000
0010
1000
0010
,
2000
0000
0001
0000
3001
0000
0001
1000
,
0010
0000
0100
0001
0100
0001
1000
0100
,
1000
1000
0001
0001
,
2002
0000
0000
3003
,
0200
0000
0020
0330
,
0100
0010
0100
0010
,
0100
0000
0000
0001
0000
0000
1000
0000
0100
0000
0000
0000
0000
0000
0000
0000
,
1100
0000
1100
0000
1000
0001
1000
0000
,
0011
0000
0011
0000
0001
1000
0001
0000
,
0110
1000
0001
1000
,
0001
0101
1000
1100
,
0002
0000
0203
0000
,
0301
0010
0100
1000
0001
0001
0000
0000
,
0101
0000
0100
0000
1100
0000
0000
0001
,
1000
0000
0000
1000
0000
0000
1000
0000
0001
0000
0000
0000
0000
0000
1000
0000
,
0010
0000
1000
0000
0000
0001
0000
0000
0010
0000
0000
0001
0000
0000
1000
0000
,
0000
0000
0100
0000
0000
1000
0000
0000
0100
0000
0000
1000
0000
0000
0100
0000
,
1000
0000
0100
0000
0101
0000
0000
1000
,
0001
0000
0000
0001
0000
0000
0001
0000
1000
0000
0000
0000
0001
0000
1000
0000
,
0010
0000
1000
0000
0000
0010
0000
0000
1000
0000
0000
0001
0000
0000
0010
0000
,
0000
0000
0001
0000
0000
1000
0000
0000
0010
0000
0000
1000
0000
0000
0001
0000
,
1000
1001
1001
0010
,
0010
0000
0000
0001
0000
0000
1000
0000
0010
0000
0000
0000
1000
0000
0001
0000
,
1000
0000
0010
1000
0100
0000
1000
0100
,
1000
0000
0100
0010
0100
0000
1010
0000
,
1001
1001
1001
0010
,
0010
0000
0000
1000
0000
0000
0001
0000
0010
0000
0000
0000
0001
0000
1000
0000
,
0001
0000
0100
0001
0010
0000
0001
0010
,
0001
0000
0000
0010
0000
0000
0100
0000
0010
0000
0000
0000
0001
0000
0100
0000
,
1000
0000
1100
0000
0010
0001
1000
0000
,
0001
0000
0101
0000
0010
1000
0001
0000
,
1000
0100
0010
0000
0100
0010
0100
1000
,
0001
0010
0100
0000
0010
0100
0010
0001
,
1000
0000
1100
0000
0010
0001
1000
0000
,
0001
0000
0101
0000
0010
1000
0001
0000
,
1000
0100
0010
0000
0100
0010
0100
1000
,
0001
0010
0100
0000
0010
0100
0010
0001
,
1000
0000
1001
0000
1001
0000
0000
0001
,
0100
0000
0000
0100
0000
0000
0100
0000
0001
0000
0000
0000
0000
0000
1000
0000
,
0001
0000
0100
0001
0100
0000
0001
1000
,
0001
0000
0000
0001
0000
0000
0001
0000
1000
0000
0000
0000
0000
0000
0000
0000
,
0001
0000
1001
0000
1001
0000
0000
1000
,
0100
0000
0000
0100
0000
0000
0100
0000
1000
0000
0000
0000
0000
0000
0001
0000
,
1000
0000
0010
1000
0010
0000
1000
0001
,
1000
0000
0000
1000
0000
0000
1000
0000
0001
0000
0000
0000
0000
0000
0000
0000
,
1001
0000
0110
0000
1001
0000
0001
0100
,
0001
0000
0000
1000
0000
0000
1000
0000
0100
0000
0000
0000
1000
0000
0001
0000
,
1000
0010
1000
0010
1000
0001
0010
0001
,
0010
0100
1000
0010
0100
0010
1000
0000
,
1001
0000
0110
0000
1001
0000
1000
0100
,
1000
0000
0000
0001
0000
0000
0001
0000
0100
0000
0000
0000
0001
0000
0100
0000
,
0001
0100
0001
1000
0100
1000
0100
0010
,
0001
0000
0000
0100
0000
0000
0010
0000
0100
0000
0000
0000
1001
0000
0000
0000
;

//---------------dance-single - ----------------
#NOTES:
     dance-single:
     :
     Challenge:
     9:
     0.633,0.643,0.285,0.075,0.389:
1000
0000
0001
0000
0100
0001
0100
0000
0001
0000
0000
0100
0000
0000
1000
0000
,
0001
0000
1000
0000
0100
1000
0100
0000
1000
0000
0000
0100
0000
0000
0001
0000
,
1000
0000
0001
0000
1000
0100
1000
0000
0001
0000
0000
0100
0000
0000
1000
0000
,
0001
0000
1000
0000
0001
0010
0001
0000
1000
0000
0000
0100
0000
0000
0001
0000
,
1000
0000
0100
0000
1000
0001
1000
0001
1000
0000
0000
0010
0000
0000
1000
0000
,
0001
0000
0100
0000
0001
1000
0001
1000
0001
0000
0000
0010
0000
0000
0001
0000
,
1000
0000
0010
0000
1000
0001
1000
0001
1000
0000
0000
0100
0000
0000
1000
0000
,
0001
0000
0010
0000
0001
1000
0001
1000
0001
0000
0000
0100
0000
0000
0001
0000
,
1000
0000
0000
0010
0000
0000
1000
0000
0100
0000
0010
0000
0001
0000
1000
0000
,
0010
0100
0010
0000
0100
0001
1000
0100
,
1000
0000
0000
0001
0000
0000
0100
0000
0001
0000
0000
0000
0100
0000
0001
0000
,
1000
0000
0100
1000
0001
0000
0100
0001
,
1000
0100
1000
0000
0001
0100
0001
1000
,
0100
0010
0100
0010
0001
1000
0001
1000
,
0010
0000
0000
0100
0000
0000
0010
0000
1000
0000
0100
0000
0010
0000
0001
0000
,
1001
0000
1000
0100
1100
0000
0001
0100
,
0101
0000
0101
0000
1000
0100
0010
0001
,
2000
0000
0000
0100
0000
0000
0000
0000
3002
0000
0000
0100
0000
0000
0000
0000
,
2003
0000
0000
0100
0000
0000
0000
0000
0002
0000
0000
0000
3003
0000
0000
0000
,
0010
0100
0010
0000
0100
0010
0100
0000
,
0010
0000
0000
1000
0000
0000
0001
0000
0010
0000
0000
0100
0000
0000
1000
0000
,
0001
0000
0000
0100
0001
0000
1000
0000
0100
0000
0000
1000
0001
0000
0010
0000
,
0001
0000
0000
0100
0001
0000
1000
0000
0100
0000
0010
0000
0100
0000
0000
0000
,
2010
0000
0000
0000
3001
0000
0000
1000
0010
0000
1000
0000
0001
0000
0010
0000
,
0001
0011
1000
1010
,
0012
1003
2010
3001
,
0001
0000
0010
0000
0100
0000
1000
0000
0001
0100
0001
0000
0000
0000
0000
0000
,
0100
0000
0101
0000
1001
0000
0000
0100
,
0001
0000
0000
1000
0000
0000
0100
0000
1000
0000
0000
0000
0000
0000
0001
0100
,
0001
0000
2000
0000
0000
0100
0000
0000
0100
0000
0000
0100
0000
0000
3001
0000
,
1000
0000
0002
0000
0000
0100
0000
0000
0100
0000
0000
0100
0000
0000
1003
0000
,
0010
0000
1010
0000
1001
0000
0000
0010
,
1000
0000
0000
0001
0000
0000
0010
0000
0001
0000
0000
0000
0000
0000
1000
0010
,
1000
0000
0001
0000
0010
0000
0100
0010
0100
0000
0010
0000
0001
0000
1000
0000
,
0100
0010
0100
1000
0001
0000
0100
0001
,
1001
0000
0110
0000
1001
0000
0001
1000
,
0010
0000
0000
1000
0010
0000
0100
0000
0010
0000
0000
0000
1000
0000
0001
0100
,
0001
1000
0100
0010
0001
0100
1000
0100
,
0001
0010
0100
0010
0001
1000
0100
0010
,
1001
0000
0110
0000
1001
0000
1000
0001
,
0100
0000
0000
0001
0100
0000
0010
0000
0100
0000
0000
0000
0001
0000
1000
0010
,
1000
0001
0100
0010
1000
0100
0001
0100
,
1000
0000
0000
0100
0000
0000
0010
0000
0100
0000
1000
0000
0001
0100
0001
0100
,
0001
0000
1000
0000
0010
1000
0010
0000
1000
0000
0001
0100
0000
0000
0001
0000
,
1000
0000
0001
0000
0100
0001
0100
0000
0001
0000
1000
0010
0000
0000
1000
0000
,
0001
0000
1000
0000
0100
1000
0100
0000
1000
0000
0001
0010
0000
0000
0001
0000
,
1000
0000
0001
0000
0010
0001
0010
0000
0001
0000
1000
0100
0000
0000
1000
0000
,
0001
0000
0100
0000
0001
1000
0001
1000
0001
0000
1000
0100
0000
1000
0100
0000
,
1000
0000
0010
0000
1000
0001
1000
0001
1000
0000
0001
0010
0000
0001
0010
0000
,
0001
0000
1000
0000
0001
0100
0001
0100
0001
0000
0100
0010
0000
0100
0010
0000
,
1000
0000
0001
0000
1000
0010
1000
0010
1000
0000
0010
0100
0000
0010
0100
0000
,
0001
0000
0101
0000
1001
0000
1000
0001
,
0100
0000
0000
0001
0000
0000
1000
0000
0100
0000
0000
0000
1000
0000
0001
0100
,
0001
1000
0100
1000
0100
0010
0001
1000
,
0010
0000
0000
0110
0000
0000
1000
0000
0001
0000
0000
0000
0100
0000
0001
0000
,
1000
0000
1100
0000
1001
0000
0001
1000
,
0010
0000
0000
1000
0000
0000
0001
0000
0010
0000
0000
0000
0001
0000
1000
0010
,
1000
0001
0010
0001
0010
0100
1000
0010
,
0100
0000
0000
0110
0000
0000
0001
0000
1000
0000
0100
1000
0100
1000
0100
0000
,
1001
0000
0110
0000
1001
0000
1000
0001
,
0010
0000
0000
0001
0010
0000
0100
0000
0010
0000
0000
0000
0001
0000
1000
0100
,
1000
0000
0001
0000
0100
1000
0000
1000
0100
0000
0001
0000
1000
0000
0100
0000
,
0010
0000
0001
0000
0100
0001
0000
0001
0100
0000
0010
0000
1000
0000
0001
0000
,
1001
0000
0110
0000
1001
0000
0001
1000
,
0100
0000
0000
1000
0100
0000
0010
0000
0100
0000
0000
0000
1000
0000
0001
0010
,
0001
0000
1000
0000
0010
0001
0000
0001
0010
0000
1000
0000
0001
0000
0010
0000
,
1100
0000
0000
0101
0000
0000
1000
0000
0001
0100
0001
0000
1001
0000
0000
0000
;

//---------------dance-single - ----------------
#NOTES:
     dance-single:
     :
     Hard:
     8:
     0.529,0.587,0.209,0.075,0.260:
0010
0000
1000
0000
0001
0000
0000
0000
0011
0000
0000
1000
0000
0000
1000
0000
,
0010
0000
1000
0000
0001
0000
0000
0000
0011
0000
0000
1000
0000
0000
1000
0000
,
0010
0000
1000
0000
0001
0000
0000
0000
1001
0000
0000
0001
0000
0000
0010
0000
,
0001
0000
1000
0000
0010
0000
0000
0000
1000
0000
0000
0001
0000
0000
0001
0000
,
1000
0000
0010
0000
1000
0001
1000
0000
0001
0000
0000
0100
0000
0000
0001
0000
,
1000
0000
0100
0000
1000
0001
1000
0000
0001
0000
0100
0001
0000
0000
0100
0000
,
0001
0000
0100
0000
0001
1000
0001
0000
1000
0000
0000
0100
0000
0000
1000
0000
,
0001
0000
0100
0000
0001
1000
0001
0000
1000
0000
0100
1000
0000
0000
0001
0000
,
1000
0000
0000
0001
0000
0000
0001
0000
0200
0000
0000
0000
0000
0000
0301
0000
,
1000
0010
1000
0000
0001
0010
0001
0000
,
1000
0000
0000
1000
0000
0000
0001
0000
0100
0000
0010
0000
1000
0000
0000
0000
,
0001
0010
0100
0000
1000
0100
0010
0000
,
0001
0010
0001
0000
1000
0010
1000
0000
,
0001
0100
0010
0000
0100
0010
0100
0000
,
0001
0000
0000
0001
0000
0000
1000
0000
0010
0000
0100
0000
0001
0000
0100
0000
,
0001
1000
1010
0001
,
0011
0000
0011
0000
1000
0100
0010
0001
,
2000
0000
0020
3000
,
2000
0030
3002
0000
,
1003
0100
0010
0001
,
1000
0000
0000
1000
0000
0000
1000
0000
0001
0000
0000
0001
0000
0000
0001
0000
,
1000
0000
0000
0010
0000
0000
1000
0000
0001
0000
0000
0010
0000
0000
0001
0000
,
1000
0000
0000
0100
0000
0000
0010
0000
0110
0000
0000
0000
1000
0000
0001
0000
,
1001
0000
0000
0000
0001
0000
0000
1000
0000
0000
0010
0000
1000
0000
0001
0000
,
0010
0000
1100
0000
0001
1000
0100
0000
,
0012
0000
2003
0000
,
3001
0000
0010
0000
0100
0000
1000
0000
0010
0100
0010
0000
0000
0000
0000
0000
,
0011
1000
0010
0001
,
0010
0000
0000
1000
0000
0000
0010
0000
1000
0000
0000
0000
0001
0000
0000
0000
,
1000
0000
0010
0000
0000
1000
0000
0000
0010
0000
0000
1000
0000
0000
0001
0000
,
0000
0000
0010
0000
0000
0001
0000
0000
0010
0000
0000
0001
0000
0000
1000
0000
,
1010
0001
0010
1000
,
0010
0000
0000
0001
0000
0000
0010
0000
0001
0000
0000
0000
1000
0000
0000
0000
,
0001
0000
0100
0000
0000
0001
0000
0000
0100
0000
0000
0001
0000
0000
1000
0000
,
0000
0000
0100
0000
0000
1000
0000
0000
0100
0000
0000
1000
0000
0000
0001
0000
,
0100
0000
0101
0000
1100
0000
0010
0001
,
1000
0000
0000
0010
0000
0000
1000
0000
0001
0000
0000
0000
0001
0000
0000
0000
,
1000
0010
1000
0010
0100
0001
0010
1000
,
0010
0001
0100
0000
1010
0000
1010
0000
,
0010
0000
1010
0000
0011
0000
0100
1000
,
0001
0000
0000
0100
0000
0000
0001
0000
1000
0000
0000
0000
1000
0000
0000
0000
,
0001
0100
0001
0100
0010
1000
0010
0001
,
0010
0000
0000
1000
0000
0000
0001
0000
0010
0000
0000
0000
0001
0000
0010
0000
,
1000
0000
0010
0000
0001
1000
0001
0000
1000
0000
0000
0010
0000
0000
1000
0000
,
0001
0000
0010
0000
1000
0001
1000
0000
0001
0000
0000
0100
0000
0000
0001
0000
,
1000
0000
0010
0000
0001
1000
0001
0000
0100
0000
0000
0010
0000
0000
0100
0000
,
0001
0000
0010
0000
1000
0001
1000
0000
0010
0000
0000
0100
0000
0000
0010
0000
,
1000
0000
0001
0000
0010
0001
0010
0000
0001
0000
1000
0010
0000
1000
0010
0000
,
1000
0000
0001
0000
1000
0100
1000
0000
0001
0000
0100
0001
0000
0100
0001
0000
,
1000
0000
0001
0000
1000
0010
1000
0000
0001
0000
0010
0001
0000
0010
0001
0000
,
1000
0000
0001
0000
0100
0001
0100
0000
0001
0000
1000
0100
0000
1000
0100
0000
,
2000
0010
3001
0001
,
1000
0000
0000
1000
0000
0000
0001
0000
0010
0000
0000
0000
0001
0000
1000
0000
,
0001
0000
0100
0001
0010
0000
0100
1000
,
0001
0000
0000
0001
0000
0000
1000
0000
0010
0000
0000
0000
0010
0000
1000
0000
,
0002
0010
1003
1000
,
0001
0000
0000
0001
0000
0000
1000
0000
0010
0000
0000
0000
1000
0000
0001
0000
,
1000
0000
0010
1000
0100
0000
0010
0001
,
1000
0000
0000
1000
0000
0000
0001
0000
0100
0000
0000
0000
0010
0000
1000
0000
,
0001
0000
0011
0000
1001
0000
0001
1000
,
0010
0000
0000
1000
0000
0000
0001
0000
0010
0000
0000
0000
0001
0000
1000
0000
,
0001
0010
0100
1000
0010
1000
0001
0010
,
0100
1000
0010
0001
0010
0000
1001
0000
,
1000
0000
1010
0000
1001
0000
1000
0001
,
0010
0000
0000
0001
0000
0000
1000
0000
0010
0000
0000
0000
1000
0000
0001
0000
,
1000
0100
0010
0001
0010
1000
0010
0100
,
0001
0000
0000
0101
0000
0000
1000
0000
0010
0000
0000
0000
1001
0000
0000
0000
;

//---------------dance-single - ----------------
#NOTES:
     dance-single:
     :
     Beginner:
     2:
     0.099,0.168,0.101,0.000,0.000:
1000
0000
0000
0000
,
0001
0000
0000
0000
,
1000
0000
0000
0000
,
0001
0000
0000
0000
,
1000
0000
1000
0000
,
1000
0000
1000
0000
,
0001
0000
0001
0000
,
0001
0000
0001
0000
,
1001
0000
0000
0000
,
1000
0000
0000
0000
,
0000
0000
0000
0000
,
0001
0000
0000
0000
,
0000
0000
0000
0000
,
1000
0000
0000
0000
,
0000
0000
0000
0000
,
0001
0000
0000
0000
,
1000
0000
0000
0000
,
1001
0000
0000
0000
,
0000
0000
0000
0000
,
0010
0000
0000
0000
,
0010
0000
0000
0000
,
1001
0000
0000
0000
,
0001
0000
0000
0000
,
1000
0000
0000
0000
,
0001
0000
0000
0000
,
1000
0000
0000
0000
,
0001
0000
0000
0000
,
1001
0000
0000
0000
,
0000
0000
0000
0000
,
0100
0000
0000
0000
,
0000
0000
0000
0000
,
0100
0000
0000
0000
,
0000
0000
0000
0000
,
0010
0000
0000
0000
,
0100
0000
0000
0000
,
1001
0000
0000
0000
,
1000
0000
0000
0000
,
1000
0000
0000
0000
,
0001
0000
0000
0000
,
1001
0000
0000
0000
,
0001
0000
0000
0000
,
0001
0000
0000
0000
,
1000
0000
0000
0000
,
1001
0000
0001
0000
,
0001
0000
0001
0000
,
1000
0000
1000
0000
,
1000
0000
1000
0000
,
0001
0000
0000
0000
,
1000
0000
0000
0000
,
0001
0000
0000
0000
,
1000
0000
0000
0000
,
1001
0000
0000
0000
,
0000
0000
0000
0000
,
0100
0000
0000
0000
,
0000
0000
0000
0000
,
0110
0000
0000
0000
,
0001
0000
0000
0000
,
1000
0000
0001
0000
,
1000
0000
0000
0000
,
0110
0000
0000
0000
,
0010
0000
0000
0000
,
1000
0000
0001
0000
,
1000
0000
0001
0000
,
0110
0000
0000
0000
,
0100
0000
0000
0000
,
0001
0000
1000
0000
,
0001
0000
0000
1001
;
