#TITLE:GET IT ALL;
#SUBTITLE:(FROM NONSTOP MEGAMIX);
#ARTIST:Remixed by WALL5;
#TITLETRANSLIT:;
#SUBTITLETRANSLIT:;
#ARTISTTRANSLIT:;
#CREDIT:DMAxel;
#BANNER:GET IT ALL (FROM NONSTOP MEGAMIX).png;
#BACKGROUND:GET IT ALL (FROM NONSTOP MEGAMIX)-bg.png;
#LYRICSPATH:;
#CDTITLE:Dance ManiaX.png;
#MUSIC:GET IT ALL (FROM NONSTOP MEGAMIX).mp3;
#OFFSET:-0.140;
#SAMPLESTART:41.573;
#SAMPLELENGTH:12.000;
#SELECTABLE:YES;
#BPMS:0.000=140.080;
#STOPS:;
#BGCHANGES:;

//---------------dance-single - ----------------
#NOTES:
     dance-single:
     :
     Easy:
     4:
     0.320,0.437,0.355,0.292,0.000: // measure 1
0000
0000
0000
0000
,  // measure 2
0000
0000
0000
0000
,  // measure 3
0000
0000
0000
0000
,  // measure 4
0000
0000
0000
0000
,  // measure 5
0000
0000
1000
0000
0000
0001
0000
0000
,  // measure 6
0000
0000
0000
0100
0010
0000
2000
0000
,  // measure 7
0000
3002
0000
0000
,  // measure 8
0000
0203
0000
0000
,  // measure 9
0000
0302
0000
0000
,  // measure 10
0000
2003
0000
0000
,  // measure 11
0000
3020
0000
0000
,  // measure 12
0000
0130
1001
0010
,  // measure 13
1001
0100
1001
0010
,  // measure 14
1001
0100
0100
0010
,  // measure 15
0010
1000
0100
0010
,  // measure 16
0001
1001
0000
0000
,  // measure 17
0000
1000
0200
0000
,  // measure 18
1000
0000
1300
0010
,  // measure 19
0100
0001
0020
0000
,  // measure 20
0001
0000
0031
0100
,  // measure 21
0010
1000
0002
0000
,  // measure 22
0010
0000
0013
0001
,  // measure 23
0100
0010
1000
0100
,  // measure 24
0100
1001
0000
0000
,  // measure 25
0000
1000
1000
1000
,  // measure 26
1001
0000
0000
0020
0000
0000
0130
0000
,  // measure 27
0000
0001
0001
0001
,  // measure 28
1001
0000
0000
0200
0000
0000
0320
0000
,  // measure 29
0000
0130
0100
0100
,  // measure 30
1001
0000
0000
0200
0000
0000
0001
0000
,  // measure 31
0301
0010
0010
0010
,  // measure 32
1001
0000
0000
0200
0000
0000
1300
0000
,  // measure 33
1001
0000
0011
0000
0000
0011
0000
0000
,  // measure 34
0000
0000
0000
2002
0000
0000
0000
0000
,  // measure 35
3003
0000
1100
0000
0000
1100
0000
0000
,  // measure 36
0000
0000
0000
2002
0000
0000
0000
0000
,  // measure 37
3003
1000
0110
0001
,  // measure 38
0110
1000
0110
0001
,  // measure 39
0110
1000
0110
0001
,  // measure 40
0110
1000
0002
0000
,  // measure 41
1003
0202
0303
2020
,  // measure 42
3030
2002
0000
0000
,  // measure 43
3003
0010
0001
0010
,  // measure 44
0001
0010
0100
1000
,  // measure 45
0100
1000
0100
1000
,  // measure 46
0100
0010
0001
1001
,  // measure 47
0000
0000
0010
0100
,  // measure 48
0010
1000
0100
0010
,  // measure 49
0001
0010
0001
0100
,  // measure 50
0001
1000
0010
1000
,  // measure 51
0010
1001
2002
0000
,  // measure 52
3003
0010
0010
0010
,  // measure 53
1001
0000
0000
0200
0000
0000
0310
0000
,  // measure 54
0000
0100
0100
0100
,  // measure 55
1001
0000
0000
0020
0000
0000
0100
0000
,  // measure 56
0130
1001
0010
0000
,  // measure 57
0100
0000
0010
1000
,  // measure 58
0002
0000
1003
0000
,  // measure 59
0001
0000
1000
0000
,  // measure 60
0001
0200
0000
0000
,  // measure 61
0310
2000
0000
0000
,  // measure 62
3001
0020
0000
0000
,  // measure 63
0031
0200
0000
1000
,  // measure 64
1300
0100
1000
0100
,  // measure 65
0010
0001
0010
0100
,  // measure 66
1001
1000
0100
0010
,  // measure 67
1001
0010
0100
1000
,  // measure 68
1000
1001
0010
1001
,  // measure 69
0100
1001
0010
1001
,  // measure 70
0100
1001
1001
0011
,  // measure 71
0011
1000
0001
1100
,  // measure 72
1100
0000
0000
0020
,  // measure 73
0000
0130
2002
0000
,  // measure 74
3003
0100
0010
0100
;

//---------------dance-single - ----------------
#NOTES:
     dance-single:
     :
     Hard:
     8:
     0.487,0.582,0.403,0.134,0.375: // measure 1
0000
0000
0000
0000
,  // measure 2
0000
0000
0000
0000
,  // measure 3
0000
0000
0000
0000
,  // measure 4
0000
0000
0000
0000
0000
0000
0000
0000
0000
0000
0000
0000
0100
0010
0000
0000
,  // measure 5
0100
0010
0000
0000
1000
0000
0000
0000
0000
0000
0001
0000
0000
1000
0000
0010
,  // measure 6
0000
0000
0000
0000
0000
0000
0100
0000
0010
0000
0000
0000
1000
0000
0000
0001
,  // measure 7
0000
0000
0100
0000
0010
0000
0100
0000
0001
0000
1000
0000
0000
0010
0000
0100
,  // measure 8
0000
0000
0000
0010
0000
0000
0100
0000
0001
1000
0000
0000
0010
0000
0000
0100
,  // measure 9
0000
0010
2000
0000
0000
0000
0000
0000
,  // measure 10
0000
3002
0000
0000
,  // measure 11
0000
0203
0000
0000
,  // measure 12
0000
0310
1001
0100
,  // measure 13
1001
0010
1001
0010
,  // measure 14
1100
0011
1010
0101
,  // measure 15
1001
0000
0001
1000
0001
1000
0010
0100
,  // measure 16
0010
0100
1001
0000
0000
0000
0000
0000
,  // measure 17
0000
0000
0100
0001
0100
0000
0010
1000
,  // measure 18
0010
0000
0000
0000
1000
0000
0010
0000
1000
0000
0010
0100
0010
0000
0100
0000
,  // measure 19
0001
0000
0000
1001
0000
0000
0100
0000
0000
0100
0000
0000
0100
0000
0000
0010
,  // measure 20
0000
0000
0010
0000
0000
0000
1000
0000
0001
0000
1000
0000
0001
0000
0000
0100
,  // measure 21
0000
0010
0100
0000
2002
0000
0000
0000
,  // measure 22
0000
0000
0000
0000
3003
0000
0000
0000
0000
0000
0010
0100
0010
0000
1000
0000
,  // measure 23
0010
0000
0000
1001
0000
0000
0010
0000
0000
0010
0000
0000
0010
0000
0000
0100
,  // measure 24
0000
0100
2002
0000
0000
0000
0000
0000
,  // measure 25
3003
0000
0000
0000
0100
0100
0000
0000
1000
1000
0000
0000
0100
0100
0000
1000
,  // measure 26
0000
0000
0000
0000
0000
0000
0010
0000
0000
0100
0000
0000
0010
0100
0000
1001
,  // measure 27
0000
0000
0000
0000
0010
0010
0000
0000
0001
0001
0000
0000
0010
0010
0000
0001
,  // measure 28
0000
0000
0000
0000
0000
0000
0100
0000
0000
0010
0000
0100
0010
0000
0000
1000
,  // measure 29
0000
0000
0001
0000
0100
0100
0000
0000
0010
0010
0000
0000
0100
0100
0000
0010
,  // measure 30
0000
0000
0000
0000
0000
0000
0100
0000
0010
0000
0000
1000
0000
0010
0000
0001
,  // measure 31
0000
0000
0000
0000
1000
1000
0000
0000
0001
0001
0000
0000
1000
1000
0000
0001
,  // measure 32
0000
0000
0000
0000
0000
0000
0100
0000
0000
0010
0000
1000
0001
0000
0000
0000
,  // measure 33
0001
1000
0000
0000
0010
0010
0000
0000
0000
0000
0100
0100
0000
0001
0000
1000
,  // measure 34
0000
0000
0000
0000
0000
0000
0011
0000
0000
1010
0000
0000
1001
0000
0000
0100
,  // measure 35
0000
0000
0010
0000
0100
0100
0000
0000
0000
0000
0010
0010
0000
1000
0000
0001
,  // measure 36
0000
0000
0000
0000
0000
0000
0100
0000
0000
0010
0000
0000
0100
0000
0000
0001
,  // measure 37
0000
0100
0010
0000
0011
0000
0100
0000
,  // measure 38
1100
0010
0011
0100
,  // measure 39
1100
0010
0101
0100
,  // measure 40
1010
0000
0000
0000
0100
0000
0000
0000
1001
0000
0000
1000
0000
0000
0001
0000
,  // measure 41
0100
0010
0100
0010
0100
0000
0001
0000
0020
0000
0000
0000
0130
0000
1000
0000
,  // measure 42
0200
0000
0000
0000
0310
0000
0001
0000
0100
0010
0000
0100
0010
0000
1000
0000
,  // measure 43
0002
0000
0103
0001
0100
0010
0100
0001
,  // measure 44
0100
0010
0100
0001
0100
0000
0010
0000
,  // measure 45
0100
0010
0000
0010
1000
0010
0100
0010
,  // measure 46
1000
0000
0010
0000
0100
0000
0010
0100
0000
0001
0000
0000
0010
0001
0000
0010
,  // measure 47
0000
0100
0000
1000
0000
0000
0010
0000
0100
0000
0010
0000
1000
0000
0010
0000
,  // measure 48
0100
0000
0010
0000
1000
0000
0100
0000
0010
0000
0001
0000
0100
0000
0000
0010
,  // measure 49
0000
0100
0000
0001
0010
0100
1000
0010
,  // measure 50
0100
0010
1000
0100
0001
0100
0010
1000
,  // measure 51
1001
0011
2020
0000
,  // measure 52
3030
0000
0000
0000
1000
1000
0000
0000
0010
0010
0000
0000
0100
0100
0000
1001
,  // measure 53
0000
0000
0000
0000
0000
0000
0100
0000
0000
0010
0000
0000
0100
0010
0000
1001
,  // measure 54
0000
0000
0000
0000
0001
0001
0000
0000
0010
0010
0000
0000
0100
0100
0000
1001
,  // measure 55
0000
0000
0000
0000
0000
0000
0100
0000
0000
0010
0000
0100
0001
0000
0000
0010
,  // measure 56
0000
0100
1001
0000
0100
0000
0100
0000
,  // measure 57
1001
0000
0010
0000
0100
0000
0001
0010
,  // measure 58
0001
0100
0100
0000
1001
0000
0100
0000
,  // measure 59
1001
0010
0100
0002
,  // measure 60
0000
0000
0000
0000
0013
0000
0000
0010
0000
0000
0010
0000
1001
0000
0000
0000
,  // measure 61
0000
0000
0000
0000
0100
0000
0000
0100
0000
0000
0100
0000
1001
0000
0000
0000
,  // measure 62
0000
0000
0000
0000
0010
0000
0000
0010
0000
0000
0010
0000
1001
0000
0000
0000
,  // measure 63
0000
0000
0000
0000
0100
0000
0000
0100
0000
0000
0100
0000
1001
0000
0000
0000
,  // measure 64
0011
0100
0010
1000
,  // measure 65
1001
0010
0100
0001
,  // measure 66
1001
0100
0010
1000
,  // measure 67
1001
0010
0100
0011
,  // measure 68
1010
0000
0000
0000
1001
0000
0000
0010
0000
0000
0010
0000
0001
0000
0000
0100
,  // measure 69
0000
0000
0100
0000
0010
0000
0000
1000
0000
0000
1000
0000
0001
0000
0000
0100
,  // measure 70
0000
0010
1000
0000
1100
0000
0101
0000
,  // measure 71
1010
0000
0100
0010
0100
0010
1001
0000
,  // measure 72
2002
0000
0000
0000
0000
0000
0000
0000
3003
0000
0000
0000
0010
0000
0000
0100
,  // measure 73
0000
0000
0001
1000
0001
0000
0000
0000
2200
0000
0000
0000
0000
0000
0000
0000
,  // measure 74
3300
0000
0001
0010
0001
0010
0001
0000
;

//---------------dance-single - ----------------
#NOTES:
     dance-single:
     :
     Challenge:
     9:
     0.598,0.699,0.505,0.055,0.505: // measure 1
0000
0000
0000
0000
,  // measure 2
0000
0000
0000
0000
,  // measure 3
0000
0000
0000
0000
,  // measure 4
0000
0000
0000
0000
0000
0000
0000
0000
0000
0000
0000
0000
0001
1000
0000
0000
,  // measure 5
0001
1000
0000
0000
0011
0000
0000
0000
0000
0000
1010
0000
0000
1000
0000
0001
,  // measure 6
0000
0000
0000
0000
0000
0000
0100
0000
0010
0000
0000
0000
0110
0000
0000
0001
,  // measure 7
0000
0000
1000
0000
0001
0000
0010
0000
0001
0000
0010
0000
0000
0001
0000
1000
,  // measure 8
0000
0000
0000
0000
0010
0000
1000
0000
0010
0100
0000
0000
0011
0000
0000
1010
,  // measure 9
0000
0000
1001
0000
0010
0000
1000
0001
0000
0010
0000
0100
0000
1000
0001
0000
,  // measure 10
1000
0000
0010
0000
0100
0000
0010
1000
0000
0100
0000
0010
0000
0001
0100
0000
,  // measure 11
0010
0000
0100
0000
0010
0000
1000
0001
0000
0010
0000
0100
0000
1000
0010
0000
,  // measure 12
0100
0000
0010
0000
1001
0000
0000
0000
1000
0100
0000
0000
1001
0000
0000
0000
,  // measure 13
0001
0010
0000
0000
1001
0000
0000
0000
1000
0010
0000
0000
1001
0000
0000
0000
,  // measure 14
0001
0100
0000
0000
1010
0000
0000
0000
1100
0000
0000
0000
0011
0000
0000
0000
,  // measure 15
0101
0000
1000
0100
0010
0001
0010
0100
,  // measure 16
1000
0010
2002
0000
0000
0000
0000
0000
,  // measure 17
3003
0000
0010
0100
0010
0000
0010
1000
,  // measure 18
0001
0000
0000
0000
0010
0000
0001
0000
1000
0000
0010
1000
0010
0000
0100
0000
,  // measure 19
0001
0000
0000
1001
0000
0000
0001
0000
0000
0010
0000
0000
0010
0000
0000
0010
,  // measure 20
0000
0000
0001
0000
0000
0000
0100
0000
0010
0000
1000
0000
0101
0000
0000
1100
,  // measure 21
0000
0011
1001
0000
0010
0000
0100
0010
,  // measure 22
1000
0000
0000
0000
0001
0000
0100
0000
0010
0000
0100
0001
0100
0000
0010
0000
,  // measure 23
1000
0000
0000
1001
0000
0000
1000
0000
0000
0100
0000
0000
0100
0000
0000
0100
,  // measure 24
0000
0000
1000
0000
1001
0000
0010
0100
0000
0010
0100
0000
0001
0000
0000
0010
,  // measure 25
0000
0000
0100
0000
1000
1000
0000
0000
0010
0010
0000
0000
1000
1000
0000
0001
,  // measure 26
0000
0000
0000
0000
0000
0000
1010
0000
0000
0101
0000
0000
0001
1000
0000
1001
,  // measure 27
0000
0000
0000
0000
0010
0010
0000
0000
0100
0100
0000
0000
0010
0010
0000
0100
,  // measure 28
0000
0000
0000
0000
0000
0000
0100
0000
0000
0100
0000
0001
1000
0000
0000
0010
,  // measure 29
0000
0000
0100
0000
0001
0001
0000
0000
1000
1000
0000
0000
0001
0001
0000
1000
,  // measure 30
0000
0000
0000
0000
0000
0000
0010
0000
0100
0001
0000
0010
0000
0100
0000
1000
,  // measure 31
0000
0000
0000
0000
0010
0010
0000
0000
0100
0100
0000
0000
0010
0010
0000
1001
,  // measure 32
0000
0000
0000
0000
0000
0000
0100
0000
0000
0010
0000
1000
0001
1000
0000
0000
,  // measure 33
0001
1000
0000
0000
0001
0001
0000
0000
0000
0000
1000
1000
0000
0000
0100
0000
,  // measure 34
0001
0000
0010
0000
0000
0000
0011
0000
0000
0100
0000
0000
0010
0000
0000
1001
,  // measure 35
0000
0000
0001
0000
1000
1000
0000
0000
0000
0000
0001
0001
0000
0000
0100
0000
,  // measure 36
0010
0000
1000
0000
0000
0000
1100
0000
0000
0011
0000
0000
0100
0000
0000
0010
,  // measure 37
0000
1000
0001
0010
0101
0000
1000
0100
,  // measure 38
1010
0000
0001
0100
0011
0000
1000
0010
,  // measure 39
1100
0000
0010
0100
1001
0000
0100
0010
,  // measure 40
1001
0000
0000
0000
0001
0000
0100
0000
0010
0000
0000
1010
0000
0000
0100
0000
,  // measure 41
0001
1000
0001
1000
0001
0000
0100
0000
0010
0100
0010
0100
0010
0000
1000
0000
,  // measure 42
0001
1000
0001
1000
0001
0000
1000
0000
0010
0100
0000
0010
0100
0000
0001
0000
,  // measure 43
1000
0001
1000
0001
1000
0000
0100
0000
1000
0000
0010
0000
1000
0000
0100
0000
,  // measure 44
1000
0010
1000
0100
0001
0010
0001
0100
,  // measure 45
0001
0010
0001
0100
0001
0010
0001
0010
,  // measure 46
1000
0000
0100
0000
1000
0001
1000
0001
0000
0100
0010
0000
0100
0001
0000
0010
,  // measure 47
0000
0100
0000
1001
0000
0000
0010
0000
0100
0000
0001
0000
0100
0000
0010
0000
,  // measure 48
0100
0000
0001
0000
0100
0000
1000
0000
0100
0000
0001
0000
0100
0000
0000
0010
,  // measure 49
0000
1001
0000
1000
0010
0100
0010
1000
,  // measure 50
0010
0100
0010
1000
0010
0001
0010
0100
,  // measure 51
1000
0000
0000
0000
0010
0100
0010
0000
2002
0000
0000
0000
0000
0000
0000
0000
,  // measure 52
3003
0000
0000
0000
0010
0010
0000
0000
0001
0001
0000
0000
0100
0100
0000
0001
,  // measure 53
0000
0000
0000
0000
0000
0000
0100
0000
0000
0010
0000
0000
1000
0001
0000
1001
,  // measure 54
0000
0000
0000
0000
0100
0100
0000
0000
0010
0010
0000
0000
1000
1000
0000
0010
,  // measure 55
0000
0000
0000
0000
0000
0000
0100
0000
0000
0010
0000
1000
0001
0000
0000
0100
,  // measure 56
0000
0010
1001
0000
1100
0000
0010
0000
,  // measure 57
1001
0000
0000
0000
0100
0000
0000
0000
0011
0000
0000
0000
0100
0010
0000
0001
,  // measure 58
1000
0000
0010
0100
0010
0000
0000
0000
1001
0000
0000
0000
0001
0000
0000
0000
,  // measure 59
0110
0000
0000
0000
1000
0000
0100
0000
0000
1000
0000
0001
0010
0000
0000
0000
,  // measure 60
0001
1000
0001
0000
0100
0000
0000
1001
0000
0000
0010
0000
1001
0000
0000
0000
,  // measure 61
1100
0000
0000
0000
0010
0000
0000
1001
0000
0000
0100
0000
1001
0000
0000
0000
,  // measure 62
0101
0000
0000
0000
0010
0000
0000
1001
0000
0000
0100
0000
1001
0000
0000
0000
,  // measure 63
1010
0000
0000
0000
0100
0000
0000
1001
0000
0000
0010
0000
1001
0000
0000
0000
,  // measure 64
0010
0000
0100
0010
0100
0001
1000
0000
,  // measure 65
1001
0000
0010
0100
0010
1000
0001
0000
,  // measure 66
1001
0000
0100
0010
0100
0001
1000
0000
,  // measure 67
1001
0000
0010
0100
0010
1000
0001
0000
,  // measure 68
1001
0000
0000
0000
0010
0000
0000
0001
0000
0000
0001
0000
0100
0000
0000
0010
,  // measure 69
0000
0000
0010
0000
1000
0000
0000
0100
0000
0000
0100
0000
1000
0000
0000
0010
,  // measure 70
0000
0010
0100
0010
0100
0001
1000
0001
,  // measure 71
1000
0001
1000
0100
0001
0010
1000
0000
,  // measure 72
2002
0000
0000
0000
0000
0000
0000
0000
3003
0000
0000
0000
1000
0001
0000
0010
,  // measure 73
0000
0001
1000
0001
1000
0000
0000
0000
0120
0000
0000
0000
0100
0000
0000
0000
,  // measure 74
0130
0000
0000
0000
0001
0000
0010
0000
0100
0000
1000
0000
0001
1000
0000
0000
;

//---------------dance-single - ----------------
#NOTES:
     dance-single:
     :
     Medium:
     6:
     0.414,0.495,0.387,0.174,0.186: // measure 1
0000
0000
0000
0000
,  // measure 2
0000
0000
0000
0000
,  // measure 3
0000
0000
0000
0000
,  // measure 4
0000
0000
0000
1001
,  // measure 5
1001
0000
0000
0000
0010
0000
0000
0000
0000
0000
0100
0000
0000
0001
0000
1000
,  // measure 6
0000
0000
0000
0000
0000
0000
0010
0000
0100
0000
0000
0000
0001
0000
0000
0001
,  // measure 7
0000
0000
0001
0000
0100
0000
0001
0000
0010
0000
0001
0000
0000
1000
0000
0001
,  // measure 8
0000
0000
0000
0100
0000
0000
0010
0000
0100
0001
0000
0000
1000
0000
0000
1000
,  // measure 9
0000
1000
0002
0000
0000
0000
0000
0000
,  // measure 10
0000
0203
0000
0000
,  // measure 11
0000
0320
0000
0000
,  // measure 12
0000
0130
1001
0010
,  // measure 13
1100
0100
0011
0010
,  // measure 14
0101
0100
1010
1001
,  // measure 15
1001
0000
0100
0010
0100
0010
1000
0001
,  // measure 16
0010
0100
1000
0000
0000
0000
0000
0000
,  // measure 17
0000
0010
0100
0001
,  // measure 18
0010
0000
0100
0000
1000
0010
0100
0000
,  // measure 19
0001
0000
0000
0001
0000
0000
1000
0000
0000
0001
0000
0000
1000
0000
0000
0001
,  // measure 20
0000
0000
1000
0000
0000
0000
0001
0000
0100
0000
0001
0000
0100
0000
0000
0010
,  // measure 21
0000
0100
0001
0000
1000
0000
0100
0000
,  // measure 22
0010
0000
0001
0000
0010
0001
0100
0000
,  // measure 23
0010
0000
0000
0010
0000
0000
1000
0000
0000
0001
0000
0000
1000
0000
0000
0001
,  // measure 24
0000
1000
0020
0000
0000
0000
0230
0000
,  // measure 25
0000
0000
0000
0000
0301
0000
0000
0000
0100
0000
0000
0000
0010
0000
0000
0010
,  // measure 26
0000
0000
0000
0000
0000
0000
1000
0000
0000
0010
0000
0000
0100
0000
0000
0110
,  // measure 27
0000
0000
0000
0000
1000
0000
0000
0000
0100
0000
0000
0000
0010
0000
0000
0010
,  // measure 28
0000
0000
0000
0000
0000
0000
0001
0000
0000
0010
0000
0000
0100
0000
0000
0100
,  // measure 29
0000
0000
0001
0000
1000
0000
0000
0000
0010
0000
0000
0000
0100
0000
0000
0110
,  // measure 30
0000
0000
0000
0000
0000
0000
0001
0000
0010
0000
0000
0001
0000
0100
0000
1000
,  // measure 31
0000
0000
0000
0000
0001
0000
0000
0000
0100
0000
0000
0000
0010
0000
0000
0110
,  // measure 32
0000
0000
0000
0000
0000
0000
1000
0000
0000
0010
0000
0000
1100
0000
0000
0000
,  // measure 33
0011
0000
0200
0000
0000
0320
0000
0000
,  // measure 34
0000
0000
0000
0000
0000
0000
0130
0000
0000
0100
0000
0000
0001
0000
0000
0110
,  // measure 35
0000
1000
0020
0000
0000
0230
0000
0000
,  // measure 36
0000
0000
0000
0000
0000
0000
0310
0000
0000
1000
0000
0000
0010
0000
0000
0001
,  // measure 37
0000
0010
0010
0000
0011
0000
0100
0000
,  // measure 38
1100
0010
0011
0100
,  // measure 39
0101
0010
1010
0001
,  // measure 40
1001
0000
0000
0000
1000
0000
0000
0000
1001
0000
0000
0010
0000
0000
0001
0000
,  // measure 41
0020
0000
0031
0100
0020
0000
0130
0010
,  // measure 42
2000
0000
0000
0000
3100
0000
1000
0000
0010
0000
0000
0100
0000
0000
0010
0000
,  // measure 43
1001
0000
0000
0100
0000
1000
0000
0010
,  // measure 44
0000
0100
0000
0001
0000
0010
0000
0001
,  // measure 45
0000
0000
0100
0000
0000
0000
0001
0000
0010
0000
0100
0000
1000
0000
0000
1000
,  // measure 46
0000
0000
0000
0000
0010
0000
0000
0100
0000
0000
0001
0000
2000
0000
0000
0000
,  // measure 47
0000
0000
3000
0010
0000
0100
0000
0010
,  // measure 48
0000
0000
1000
0000
0100
0000
0010
0000
0001
0000
0100
0000
0010
0000
0000
0010
,  // measure 49
0000
0010
0000
1000
0100
0010
0001
0010
,  // measure 50
0001
0000
0100
0000
0001
0000
1000
0000
0100
0000
1000
0000
0010
0000
0000
0010
,  // measure 51
0000
0010
1001
0000
2002
0000
0000
0000
,  // measure 52
3003
0000
0000
0000
0001
0000
0000
0000
0100
0000
0000
0000
0010
0000
0000
0101
,  // measure 53
0000
0000
0000
0000
0000
0000
0010
0000
0000
0100
0000
0000
0010
0000
0000
1001
,  // measure 54
0000
0000
0000
0000
1000
0000
0000
0000
0010
0000
0000
0000
0100
0000
0000
1010
,  // measure 55
0000
0000
0000
0000
0000
0000
0010
0000
0000
0100
0000
0000
0010
0000
0000
1001
,  // measure 56
0000
0010
0100
0001
,  // measure 57
0110
0000
1000
0000
1001
0000
0001
0100
,  // measure 58
0100
0001
0110
1000
,  // measure 59
1001
0010
1001
0100
,  // measure 60
1001
0000
0000
0000
0010
0000
0000
0001
0000
0000
0010
0000
0001
0000
0000
0000
,  // measure 61
1001
0000
0000
0000
0100
0000
0000
1000
0000
0000
0100
0000
1000
0000
0000
0000
,  // measure 62
1001
0000
0000
0000
0010
0000
0000
0100
0000
0000
0010
0000
0100
0000
0000
0000
,  // measure 63
1001
0000
0000
0000
0100
0000
0000
0010
0000
0000
0100
0000
0010
0000
0000
0000
,  // measure 64
1001
0010
0001
0100
,  // measure 65
0100
0010
1000
0010
,  // measure 66
0010
0100
0001
1000
,  // measure 67
1000
0010
0100
1001
,  // measure 68
1001
0020
0000
0230
,  // measure 69
0000
0302
0000
2003
,  // measure 70
0000
3001
0011
0110
,  // measure 71
1100
1001
1001
1010
,  // measure 72
0101
0000
0000
0020
,  // measure 73
0000
0130
2002
0000
,  // measure 74
3003
0000
0010
0100
0010
0100
0010
0000
;

//---------------dance-single - ----------------
#NOTES:
     dance-single:
     :
     Beginner:
     2:
     0.125,0.173,0.126,0.000,0.000: // measure 1
0000
0000
0000
0000
,  // measure 2
0000
0000
0000
0000
,  // measure 3
0000
0000
0000
0000
,  // measure 4
0000
0000
0000
0000
,  // measure 5
0000
1000
0000
0000
,  // measure 6
0000
0000
0000
0000
,  // measure 7
0000
0001
0000
0000
,  // measure 8
0000
0000
0000
0000
,  // measure 9
0000
1000
0000
0000
,  // measure 10
0000
0100
0000
0000
,  // measure 11
0000
0010
0000
0000
,  // measure 12
0000
1001
0000
0001
,  // measure 13
0000
0001
0000
1000
,  // measure 14
0000
1000
0000
0010
,  // measure 15
0000
0100
0000
0000
,  // measure 16
0000
1001
0000
0000
,  // measure 17
0000
0000
0001
0000
,  // measure 18
0001
0000
0001
0000
,  // measure 19
0010
0000
0010
0000
,  // measure 20
0100
0000
0100
0000
,  // measure 21
1000
0000
1001
0000
,  // measure 22
1000
0000
0001
0000
,  // measure 23
1000
0000
0001
0000
,  // measure 24
1000
0000
0000
0000
,  // measure 25
0000
0001
0000
0001
,  // measure 26
0000
0000
0000
0000
,  // measure 27
0000
1000
0000
1000
,  // measure 28
0000
0000
0000
0000
,  // measure 29
0000
0010
0000
0010
,  // measure 30
0000
0000
0000
0000
,  // measure 31
0000
0100
0000
0100
,  // measure 32
0000
0000
0000
0000
,  // measure 33
0000
1001
0000
0000
,  // measure 34
0000
0000
1000
0000
,  // measure 35
0000
1001
0000
0000
,  // measure 36
0000
0000
0001
0000
,  // measure 37
0000
0000
1000
0000
,  // measure 38
1000
0000
0001
0000
,  // measure 39
0001
0000
0100
0000
,  // measure 40
0100
0000
0010
0000
,  // measure 41
0000
1001
0000
1001
,  // measure 42
0000
1001
0000
0000
,  // measure 43
0000
0000
0100
0000
,  // measure 44
0100
0000
0010
0000
,  // measure 45
0010
0000
1000
0000
,  // measure 46
1000
0000
0001
0000
,  // measure 47
0000
0000
0100
0000
,  // measure 48
0100
0000
0010
0000
,  // measure 49
0010
0000
1000
0000
,  // measure 50
1000
0000
0001
0000
,  // measure 51
0001
0000
1001
0000
,  // measure 52
0000
1000
0000
1000
,  // measure 53
0000
0000
0000
0000
,  // measure 54
0000
0010
0000
0010
,  // measure 55
0000
0000
0000
0000
,  // measure 56
0000
0100
0000
0100
,  // measure 57
0000
0000
0000
0000
,  // measure 58
0000
0001
0000
0001
,  // measure 59
0000
0000
0000
0000
,  // measure 60
0000
1001
0000
0000
,  // measure 61
0000
0110
0000
0000
,  // measure 62
0000
1001
0000
0000
,  // measure 63
0000
1001
0000
0000
,  // measure 64
0000
0000
1000
0000
,  // measure 65
1000
0000
0100
0000
,  // measure 66
0100
0000
0010
0000
,  // measure 67
0010
0000
0001
0000
,  // measure 68
0001
0000
1000
0000
,  // measure 69
1000
0000
1000
0000
,  // measure 70
0001
0000
0010
0000
,  // measure 71
0010
0000
0010
0000
,  // measure 72
1001
0000
0000
0000
,  // measure 73
0000
0000
0110
0000
,  // measure 74
0000
1001
0000
0000
;
