#TITLE:Forever Loving;
#SUBTITLE:;
#ARTIST:xRGTMx;
#TITLETRANSLIT:;
#SUBTITLETRANSLIT:;
#ARTISTTRANSLIT:;
#CREDIT:DMAxel;
#BANNER:Forever Loving.png;
#BACKGROUND:Forever Loving-bg.png;
#LYRICSPATH:;
#CDTITLE:DMAxel original simfile.png;
#MUSIC:Forever Loving.mp3;
#OFFSET:-7.100;
#SAMPLESTART:83.239;
#SAMPLELENGTH:12.000;
#SELECTABLE:YES;
#DISPLAYBPM:145.000;
#BPMS:0.000=145.000,90.000=290.000,122.000=145.000;
#STOPS:24.000=2.483
,186.000=2.483
;
#BGCHANGES:0.000=11.avi=1.000=1=0=1,
16.000=CardsS.avi=1.400=0=0=1,
20.000=Heart4.avi=1.200=0=0=1,
23.500=white.PNG=1.600=0=0=1,
24.000=Forever Loving-bg.png=1.000=1=0=1,
25.000=Helix1.avi=1.600=0=0=1,
26.500=Heart7.avi=1.000=1=0=1,
42.000=heart6.avi=1.000=0=0=1,
53.000=popup2=1.400=0=0=1,
57.000=Helix1.avi=1.600=0=0=1,
58.500=Heart4.avi=1.000=1=0=1,
74.000=Heart9.avi=1.000=0=0=1,
86.000=popup2=1.400=0=0=1,
89.000=Helix1.avi=1.800=0=0=1,
89.500=white.PNG=1.000=0=0=1,
90.000=popup2=2.000=1=0=1,
120.000=Helix1.avi=2.000=0=0=1,
121.500=white.PNG=1.000=0=0=1,
122.000=11.avi=0.700=1=0=1,
138.000=CardsS.avi=0.700=1=0=1,
154.000=Heart1.avi=0.800=0=0=1,
162.000=Heart4.avi=0.800=0=0=1,
170.000=Heart9.avi=1.200=0=0=1,
174.000=11.avi=1.400=0=0=1,
178.000=Heart7.avi=1.600=0=0=1,
180.000=Helix1.avi=1.800=0=0=1,
182.000=popup2=2.000=0=0=1,
185.500=white.PNG=1.000=0=0=1,
186.000=Forever Loving-bg.png=1.000=1=0=1,
187.000=Helix1.avi=2.000=0=0=1,
188.500=Heart7.avi=1.000=1=0=1,
204.000=heart6.avi=1.000=0=0=1,
220.000=Heart1.avi=1.000=0=0=1,
228.000=Heart4.avi=1.000=0=0=1,
236.000=Heart9.avi=1.000=0=0=1,
240.000=CardsS.avi=1.200=0=0=1,
244.000=Heart1.avi=1.400=0=0=1,
246.000=heart6.avi=1.600=0=0=1,
248.000=Helix1.avi=1.800=0=0=1,
251.500=white.PNG=1.000=0=0=1,
252.000=11.avi=1.000=1=0=1,
268.000=Heart9.avi=1.000=0=0=1,
272.000=heart6.avi=1.200=0=0=1,
276.000=Heart4.avi=1.400=0=0=1,
278.000=11.avi=1.600=0=0=1,
280.000=Helix1.avi=1.800=0=0=1,
283.000=Heart1.avi=2.000=0=0=1,
283.500=white.PNG=1.000=0=0=1,
284.000=Forever Loving-bg.png=1.000=1=0=1,
99999=-nosongbg-=1.000=0=0=0 // don't automatically add -songbackground-
;

//---------------dance-single - ----------------
#NOTES:
     dance-single:
     :
     Easy:
     3:
     0.246,0.311,0.079,0.071,0.000:
0001
0001
0001
0001
,
1000
1000
1000
1000
,
0001
0001
0001
0001
,
1000
1000
1000
1000
,
0010
0100
0010
0100
,
0001
1000
0001
1001
,
0110
0000
0001
1000
,
0001
1000
0001
0010
,
0100
1000
0010
0100
,
0010
0100
0001
0010
,
0100
1000
0010
1000
,
0010
1000
0001
0010
,
0100
1000
0001
0100
,
0001
0100
0002
0000
,
0000
0000
1003
0100
,
1000
0100
0010
0001
,
0010
0001
1000
0001
,
1000
0001
0100
0010
,
0100
0010
1000
0010
,
1000
0010
0100
0001
,
0100
0001
0100
0010
,
0100
0010
0100
0100
,
0100
0000
1001
0000
,
0000
0000
0000
0000
,
0000
0000
0000
0000
,
0000
0000
0000
0000
,
0000
0000
0000
0000
,
0000
0000
0000
0000
,
0000
0000
0000
0000
,
0000
0000
0000
0000
,
0000
0000
1001
0000
,
0000
0000
1000
0000
,
0000
0000
1000
0000
,
0000
0000
1000
0000
,
0000
0000
0002
0000
,
0000
0000
0203
0000
,
0000
0000
0302
0000
,
0000
0000
2003
0000
,
0000
0000
3010
0000
,
0100
0000
0010
0000
,
0100
0000
0001
0000
,
1000
0000
0001
0000
,
1000
0000
0100
0000
,
0010
0000
0001
0000
,
1000
0000
0020
0000
,
0000
0000
0130
0000
,
0000
0000
1001
0000
,
0001
1000
0001
1000
,
0010
1000
0010
0000
,
0100
0001
0100
0001
,
1000
0001
1000
0000
,
0100
1000
0100
1000
,
0001
1000
0001
0100
,
0010
1000
0001
1000
,
0001
0010
0100
1000
,
0010
0100
0010
0100
,
0001
0010
0001
0100
,
1000
0100
0001
1000
,
0010
0100
0010
1000
,
0001
0010
0100
1000
,
0001
0100
0001
0100
,
0010
1000
0010
1000
,
0020
0000
0000
0030
,
1001
1000
1000
1000
,
1000
0100
0010
0001
,
0100
0100
0100
0100
,
0001
0010
0100
1000
,
0001
0001
0001
0001
,
0010
0100
1000
0010
,
0110
0000
1001
0000
,
0100
0100
0100
0110
,
2002
0000
3003
0000
;

//---------------dance-single - ----------------
#NOTES:
     dance-single:
     :
     Medium:
     6:
     0.394,0.453,0.285,0.142,0.000:
1000
0001
1000
0001
,
0100
0010
0100
0010
,
1000
0100
1000
0100
,
0010
0001
0010
0001
,
1001
0100
0010
0001
,
1001
0100
0010
1001
,
1100
0000
0000
0000
0001
1000
0001
1000
,
0100
0000
1000
0001
1000
0000
1100
0000
,
1000
0000
1100
0000
1000
0001
1000
0001
,
0010
0000
0001
1000
0001
0000
0011
0000
,
0001
0000
0011
0000
0100
1000
0001
0100
,
0001
0000
0001
0000
0100
0001
1000
0100
,
1000
1000
0010
0110
,
0010
0000
0110
0000
1000
0001
1000
0001
,
1000
0000
1002
0023
,
0031
0010
0100
1000
0001
0000
0001
0000
,
1000
1000
2001
3200
,
1300
0100
0010
0001
1000
0000
1000
0000
,
0001
0001
1001
1100
,
0100
1000
0100
0000
1000
0100
1000
0001
,
0100
0100
1001
0011
,
0010
0001
0010
0000
0001
1000
0001
1000
,
0001
0000
2002
0000
,
0000
0000
0000
0000
,
0000
0000
0000
0000
,
0000
0000
0000
0000
,
0000
0000
0000
0000
,
0000
0000
0000
0000
,
0000
0000
0000
0000
,
0000
0000
3003
0000
,
0000
0000
1002
0000
,
0000
0000
0203
0000
,
0000
0000
0320
0000
,
0000
0000
2030
0000
,
0000
0000
3002
0000
,
0000
0000
0023
0000
,
0000
0000
0230
0000
,
0000
0000
2300
0000
,
0000
0000
3001
0100
,
0001
0100
0010
0100
,
0010
0100
0010
1000
,
0010
1000
0001
0010
,
0001
0010
0100
1000
,
0100
1000
0010
0100
,
0010
0000
0100
0000
0010
0100
0010
0100
,
0010
0100
0010
0100
0002
0000
0000
0000
,
0000
0003
1001
0000
,
1000
0010
1000
0010
1000
0001
0010
0000
,
0100
1100
0001
1001
,
0001
0100
0001
0100
0001
1000
0100
0000
,
0010
0011
1000
1001
,
0100
1000
0100
1000
0001
0100
0001
0000
,
1000
1010
0001
1001
,
0010
0001
0010
0001
1000
0010
1000
0000
,
0001
0101
1000
1001
,
0100
0001
0100
0001
0010
0100
1000
0000
,
0100
1000
0100
0000
1000
0001
1000
0000
,
0010
1000
0010
1000
0100
0010
0001
0000
,
0010
0001
0010
0000
0001
1000
0001
0000
,
0100
0010
0100
0010
0100
0010
0100
0000
,
0001
1000
0001
1000
0001
1000
0001
0000
,
1000
0010
0100
0001
1000
0010
0100
0001
,
0100
0110
0110
0110
,
2001
0001
0001
0001
,
3001
0010
0100
1000
0001
0000
0100
0010
,
1000
0100
1000
0100
1000
0000
0001
0000
,
1000
0100
0010
0001
1000
0010
1000
0000
,
0010
0100
0001
0010
0001
0010
0001
0000
,
1001
0000
0010
1000
0100
0010
0001
0000
,
1001
0100
1100
0010
,
0011
0000
0010
0001
0100
0000
0100
0000
,
2002
0000
3003
0000
;

//---------------dance-single - ----------------
#NOTES:
     dance-single:
     :
     Hard:
     8:
     0.530,0.566,0.285,0.063,0.044:
0001
0010
0100
1000
,
0001
0010
0100
1000
,
0010
0100
0001
1000
,
0010
0100
0001
1000
,
0001
0100
0001
0100
0001
0100
0001
0100
,
0010
1000
0010
1000
0010
1000
1001
0000
,
0101
0000
0000
0000
0010
1000
0010
0100
,
0001
0000
0010
0100
1000
0001
0010
0100
,
1000
0001
0001
0000
0100
0001
0100
0010
,
1000
0000
0100
0010
0001
1000
0100
0010
,
0001
1000
1000
0000
0100
1000
0010
0100
,
0001
0000
0010
0100
1000
0001
0010
0100
,
1000
0001
0001
0000
0010
0001
0100
0010
,
1000
0000
0100
0010
0001
0001
1000
1000
,
1000
0000
0001
1000
0001
0010
0200
0000
,
0310
0001
1000
0100
1000
0000
1100
0000
,
1100
0000
0101
0000
1000
0100
0020
0000
,
0130
1000
0001
0010
0001
0000
0011
0000
,
0011
0000
1010
0000
1001
0010
0100
1000
,
0001
0100
0010
0000
1000
0010
1000
0001
,
0100
1000
0100
0001
1001
0100
0010
0001
,
1000
0010
0100
0000
0001
0001
1000
1000
,
1000
0110
2002
0000
,
0000
0000
0000
0000
,
0000
0000
0000
0000
,
0000
0000
0000
0000
,
0000
0000
0000
0000
,
0000
0000
0000
0000
,
0000
0000
0000
0000
,
0000
0000
3003
0000
,
0001
1000
1001
1000
,
1000
0100
0010
0001
0100
0000
0100
0000
,
0100
0001
0010
0000
0001
0000
0001
0000
,
0001
0010
0100
1000
0010
0000
0010
0000
,
0010
1000
0100
0010
0001
0000
0001
0000
,
0001
0010
0100
1000
0010
0000
0010
0000
,
0010
1000
0100
0010
0001
1000
0001
0000
,
0100
0001
0010
0000
0100
1000
0001
0010
,
0100
1000
0100
0010
1001
0000
0101
0000
,
1001
0101
1001
1010
,
1001
1010
1001
0011
,
1001
0011
1001
1100
,
1001
0000
1100
0000
0010
0001
0010
0001
,
1000
0010
1000
0010
1000
0001
1000
0001
,
0100
0010
0100
0010
1000
0100
0010
0001
,
0010
0100
1000
0001
0200
0000
0000
0000
,
0000
0000
0300
0000
1001
0000
0001
1000
,
0001
0010
0100
0010
0001
0100
1000
0100
,
0001
0010
0100
0010
0001
0001
1000
0001
,
1000
0100
0010
0100
1000
0100
0001
0100
,
1000
0100
0010
0100
1000
1000
0001
1000
,
0001
0010
1000
0010
0100
1000
0001
0001
,
1000
0100
0001
0100
0010
0001
1000
0010
,
1000
0010
0001
0010
0100
0001
1000
1000
,
0001
0100
1000
0100
0010
1000
0001
0100
,
0001
0000
1000
0100
1000
0000
0001
0000
0010
0000
0100
0000
1000
0000
1000
0000
,
0001
0000
0100
0001
0100
0000
0001
0000
1000
0000
0100
0000
0001
0000
0000
0000
,
0100
0000
1000
0001
1000
0000
0001
0000
0010
0000
0100
0000
1000
0000
1000
0000
,
0001
0000
0100
0001
0100
0000
0001
0000
1000
0000
0100
0000
0001
0000
0100
0000
,
1000
0000
0010
0100
0010
0000
1000
0000
0010
0000
0100
0000
0001
0000
1000
0000
,
0001
0000
0100
0010
0100
0000
0001
0000
0100
0000
0010
0000
1000
0000
0001
0000
,
1000
0000
0010
1000
0010
0000
0100
0001
0100
0000
0001
0000
0100
0000
1000
0000
,
0100
0000
0001
1000
0001
0000
1000
0001
1000
0000
0001
1000
0001
0000
0000
0000
,
1002
0100
1000
0100
,
1003
0100
0001
0100
0010
0000
0001
0100
,
1000
0100
0010
1000
0001
0100
0001
1000
,
0001
0100
1000
0100
0010
1000
0001
0100
,
0001
0100
1000
0100
0010
1000
0001
0000
,
1001
0100
0001
0100
1000
0010
0100
0000
,
1001
0000
1000
0001
0101
0000
1000
0001
,
0100
0100
0100
0100
0100
0000
0110
0000
,
2002
0000
3003
0000
;

//---------------dance-single - ----------------
#NOTES:
     dance-single:
     :
     Challenge:
     10:
     0.692,0.735,0.095,0.040,0.455: // measure 1
1001
1001
0001
0101
,  // measure 2
1000
1100
0001
1001
,  // measure 3
0100
0110
0010
1010
,  // measure 4
0001
0011
1000
1001
,  // measure 5
0001
0010
0100
0010
0001
0010
0100
0010
,  // measure 6
0001
0000
0100
0000
1000
0000
0100
0000
0001
0000
1000
0000
0010
0000
0100
0001
,  // measure 7
0100
0000
0000
0000
0001
1000
0001
1000
0001
0000
0010
0000
0100
0000
1000
0000
,  // measure 8
0001
0000
0000
0000
0100
0001
0100
0000
0010
0000
1000
0000
0100
0000
0010
0000
,  // measure 9
0100
0000
1000
0000
0001
1000
0001
0000
1000
0000
0100
0000
0010
0000
0001
0000
,  // measure 10
1000
0000
0000
0000
0010
1000
0010
0000
0100
0000
0001
0000
0010
0000
0100
0000
,  // measure 11
0010
0000
0001
0000
1000
0001
1000
0000
0100
0000
0010
0000
0100
0000
1000
0000
,  // measure 12
0001
0000
0100
0000
0010
1000
0010
0000
1000
0000
0100
0000
0010
0000
0001
0000
,  // measure 13
1000
0000
0010
0000
0100
0001
0100
0000
0001
0000
0010
0000
0100
0000
1000
0000
,  // measure 14
0001
0000
0100
0000
0010
0100
0010
0100
0010
0000
0010
0000
0010
0000
0010
0000
,  // measure 15
0010
0000
0000
0000
1000
0001
1000
0001
1000
0000
0100
0000
0002
0000
0000
0000
,  // measure 16
0103
0000
1000
0000
0010
0100
0010
0000
1000
0000
0100
0000
0010
0000
0001
0000
,  // measure 17
0100
0000
0010
0000
1000
0001
1000
0000
0001
0000
0100
0000
2000
0000
0000
0000
,  // measure 18
3100
0000
0001
0000
0100
0010
0100
0000
0001
0000
0010
0000
0100
0000
1000
0000
,  // measure 19
0010
0000
0100
0000
0001
1000
0001
0000
1001
0000
0100
0000
0010
0000
0100
0000
,  // measure 20
1000
0000
0001
0000
0100
0001
0100
0001
0100
0000
0001
0000
0100
0000
1000
0000
,  // measure 21
0100
0000
0001
0000
1000
0001
1000
0000
1001
0000
0010
0000
0100
0000
0010
0000
,  // measure 22
0001
0000
1000
0000
0010
1000
0010
1000
0010
0000
0010
0000
0010
0000
0010
0000
,  // measure 23
0010
0000
0000
0000
1000
0001
1000
0001
2000
0000
0000
0000
0000
0000
0000
0000
,  // measure 24
0000
0000
0000
0000
,  // measure 25
0000
0000
0000
0000
,  // measure 26
0000
0000
0000
0000
,  // measure 27
0000
0000
0000
0000
,  // measure 28
0000
0000
0000
0000
,  // measure 29
0000
0000
0000
0000
,  // measure 30
0000
0000
0000
3000
,  // measure 31
0001
1000
0001
1000
0001
0100
0001
0100
,  // measure 32
0001
0010
0100
0000
1000
0000
1000
0000
0010
0000
0100
0000
0010
0000
1000
0000
,  // measure 33
0001
0010
0001
0010
0001
0000
0000
0000
1000
0000
0010
0000
1000
0000
0010
0000
,  // measure 34
1000
0100
0010
0000
0001
0000
0001
0000
0100
0000
0010
0000
0100
0000
0001
0000
,  // measure 35
1000
0100
0001
0100
1000
0010
1000
0010
,  // measure 36
1000
0100
0010
0000
0001
0000
0001
0000
0100
0000
0010
0000
0100
0000
0001
0000
,  // measure 37
1000
0100
1000
0100
1000
0000
0001
0000
0100
0000
0001
0100
0001
0000
1000
0000
,  // measure 38
0100
1000
0100
1000
0100
0000
0010
0000
0001
0000
0100
0000
1000
0000
0100
0000
,  // measure 39
0001
1000
0010
0100
0001
0100
0001
0100
,  // measure 40
0010
1000
0010
1000
0001
0010
0001
0010
,  // measure 41
0100
1000
0100
1000
0001
0100
0010
1000
,  // measure 42
0001
0100
0010
1000
0001
0010
0100
1000
,  // measure 43
0001
0010
0100
1000
0100
0001
0100
1000
,  // measure 44
0001
0010
1000
0010
0001
0100
1000
0100
,  // measure 45
0010
0000
1000
0000
0010
0000
0100
0000
0001
1000
0001
1000
0001
1000
0001
0000
,  // measure 46
1000
0001
1000
0001
1000
0001
1000
0000
0020
0000
0000
0000
0100
0000
0000
0000
,  // measure 47
0100
0000
0000
0000
0130
0000
0000
0000
1001
0000
0000
0000
1000
0001
1000
0001
,  // measure 48
1000
0000
0010
1000
0010
0000
1000
0000
0001
0010
0100
1000
0001
0000
0001
0000
,  // measure 49
1000
0000
0100
1000
0100
0000
0010
0000
0001
1000
0001
0000
1000
0000
0100
0000
,  // measure 50
1000
0000
0010
1000
0010
0000
1000
0000
0001
0010
0100
1000
0001
0000
0001
0000
,  // measure 51
1000
0000
0100
1000
0100
0000
0010
0000
0001
0100
0001
0100
0001
1000
0001
1000
,  // measure 52
0001
0000
0100
0001
0100
0000
0001
0000
1000
0100
0010
0001
1000
0000
1000
0000
,  // measure 53
0001
0000
0010
0001
0010
0000
0100
0000
1000
0001
1000
0000
0001
1000
0001
0000
,  // measure 54
0100
0000
0001
0100
0001
0000
1000
0000
0001
0010
0100
1000
0001
0000
0001
0000
,  // measure 55
0010
0001
0010
0000
0100
1000
0100
0000
1000
0001
1000
0000
0001
1000
0001
1000
,  // measure 56
0001
0000
0010
0100
1000
0000
0001
0000
0100
0010
0100
0001
0010
0000
0100
0000
,  // measure 57
1000
0000
0100
0010
0001
0000
1000
0000
0010
0100
0010
1000
0100
0000
0010
0000
,  // measure 58
0001
0000
0100
0010
1000
0000
1000
0000
0010
0100
0001
0010
0001
0000
1000
0000
,  // measure 59
0001
0000
0100
0010
1000
0000
1000
0000
0001
0010
0001
0010
0001
1000
0001
1000
,  // measure 60
0001
0000
0100
0001
1000
0000
0100
1000
0100
1000
0001
1000
0001
0000
0001
0000
,  // measure 61
1000
0000
0010
1000
0001
0000
0001
0000
0010
0001
0010
0001
1000
0001
1000
0001
,  // measure 62
1000
0000
0100
0010
0001
0000
0100
0001
0010
0100
1000
0001
1000
0000
1000
0000
,  // measure 63
0001
0000
0010
0100
1000
0000
0010
0100
0001
0000
0100
0010
0100
0001
1000
0001
,  // measure 64
1000
0000
0010
0000
0100
0000
0010
0000
1000
0000
0010
0000
0100
0010
0100
0000
,  // measure 65
0001
0000
0100
0000
1000
0000
0001
0000
0010
0000
1000
0000
0010
0100
0010
0100
,  // measure 66
0001
0000
0100
0000
0010
0000
0100
0000
0001
0000
0100
0000
0010
0100
0010
0000
,  // measure 67
1000
0000
0100
0000
0001
0000
1000
0000
0010
0000
0001
0000
0100
0010
0100
0010
,  // measure 68
1000
0000
0100
0000
0001
0000
0100
0000
1000
0000
0001
0000
0100
0010
0100
0010
,  // measure 69
1000
0000
0010
0000
0100
0000
0010
0000
1000
0000
0100
0000
0010
0001
0010
0001
,  // measure 70
1000
0000
0100
0000
0001
0000
0100
0000
1000
0000
0001
0000
0100
0010
0100
0010
,  // measure 71
0100
0000
0100
0000
0100
0000
0100
0000
0100
0000
0000
0000
0001
0010
0100
1000
,  // measure 72
0002
0000
0003
0000
;

//---------------dance-single - ----------------
#NOTES:
     dance-single:
     :
     Beginner:
     1:
     0.072,0.112,0.055,0.000,0.000:
1000
0000
0000
0000
,
1000
0000
0000
0000
,
1000
0000
0000
0000
,
1000
0000
0000
0000
,
0001
0000
0000
0000
,
0001
0000
0000
0000
,
0001
0000
1001
0000
,
0000
0000
0001
0000
,
0000
0000
1000
0000
,
0000
0000
0001
0000
,
0000
0000
1000
0000
,
0000
0000
0001
0000
,
0000
0000
0100
0000
,
0000
0000
0010
0000
,
0000
0000
0100
0000
,
0000
0000
0000
0000
,
0000
0000
0100
0000
,
0000
0000
0000
0000
,
0000
0000
0010
0000
,
0000
0000
0000
0000
,
0000
0000
0010
0000
,
0000
0000
1000
0000
,
0000
0000
0001
0000
,
0000
0000
0000
0000
,
0000
0000
0000
0000
,
0000
0000
0000
0000
,
0000
0000
0000
0000
,
0000
0000
0000
0000
,
0000
0000
0000
0000
,
0000
0000
0000
0000
,
0000
0000
1001
0000
,
0000
0000
0000
0000
,
0000
0000
0001
0000
,
0000
0000
0000
0000
,
0000
0000
1000
0000
,
0000
0000
0000
0000
,
0000
0000
0001
0000
,
0000
0000
0000
0000
,
0000
0000
1001
0000
,
0000
0000
1000
0000
,
0000
0000
0001
0000
,
0000
0000
1000
0000
,
0000
0000
0001
0000
,
0000
0000
0010
0000
,
0000
0000
0100
0000
,
0000
0000
1000
0000
,
0000
0000
1001
0000
,
0001
0000
0000
0000
,
1000
0000
0000
0000
,
0001
0000
0000
0000
,
0001
0000
0000
0000
,
1000
0000
0000
0000
,
1000
0000
0000
0000
,
0010
0000
0000
0000
,
0100
0000
0000
0000
,
0001
0000
0000
0000
,
1000
0000
0000
0000
,
0001
0000
0000
0000
,
0001
0000
0000
0000
,
0100
0000
0000
0000
,
0010
0000
0000
0000
,
1000
0000
0000
0000
,
1000
0000
0000
0000
,
1001
0000
0000
0000
,
0000
0000
0000
0000
,
0001
0000
0000
0000
,
0000
0000
0000
0000
,
1000
0000
0000
0000
,
1001
0000
0000
0000
,
0001
0000
0000
0000
,
1000
0000
0000
0000
,
1001
0000
0000
0000
;
