#TITLE:風船ガム;
#SUBTITLE:;
#ARTIST:キャプテンストライダム;
#TITLETRANSLIT:FUUSEN GUM;
#SUBTITLETRANSLIT:;
#ARTISTTRANSLIT:CAPTAIN STRAYDUM;
#CREDIT:DMAxel;
#BANNER:FUUSEN GUM.png;
#BACKGROUND:FUUSEN GUM-bg.png;
#LYRICSPATH:FUUSEN GUM.lrc;
#CDTITLE:DMAxel original simfile.png;
#MUSIC:FUUSEN GUM.mp3;
#OFFSET:-7.620;
#SAMPLESTART:49.038;
#SAMPLELENGTH:12.000;
#SELECTABLE:YES;
#BPMS:0.000=131.010;
#STOPS:89.000=0.916
;
#BGCHANGES:-18.000=FUUSEN GUM.avi=1.000=1=1=0,
99999=-nosongbg-=1.000=0=0=0 // don't automatically add -songbackground-
;

//---------------dance-single - ----------------
#NOTES:
     dance-single:
     :
     Easy:
     3:
     0.254,0.235,0.122,0.144,0.000: // measure 1
0001
1000
0001
0000
,  // measure 2
0100
0001
0100
0000
,  // measure 3
0010
1000
0010
0000
,  // measure 4
1000
0001
1000
0000
,  // measure 5
1002
0000
0000
0000
0000
1000
0000
0000
,  // measure 6
0203
0000
0000
0000
0000
0001
0000
0000
,  // measure 7
0302
0000
0000
0000
0000
1000
0000
0000
,  // measure 8
2003
0000
0001
3001
,  // measure 9
0100
0010
0100
0000
,  // measure 10
0001
1000
0001
0000
,  // measure 11
0100
0001
2000
0000
,  // measure 12
3010
1000
0002
0000
,  // measure 13
1003
0010
0100
0001
,  // measure 14
1000
0100
0010
0000
,  // measure 15
1001
1000
0100
0010
,  // measure 16
1002
0000
0000
1003
,  // measure 17
0001
0100
0010
1000
,  // measure 18
2001
0000
0000
3001
,  // measure 19
1000
0100
0010
0001
,  // measure 20
1002
0000
0000
1003
,  // measure 21
0001
0010
0100
1000
,  // measure 22
2001
0000
3002
0000
,  // measure 23
1003
0001
1000
0100
,  // measure 24
1000
1001
0001
0010
,  // measure 25
0001
0000
0100
0001
,  // measure 26
1000
0000
0100
1000
,  // measure 27
0001
0000
1001
0010
,  // measure 28
0100
1000
0001
0100
,  // measure 29
0001
1000
0010
0010
,  // measure 30
0100
0100
0001
0100
,  // measure 31
1000
0100
1002
0000
,  // measure 32
1003
0100
0010
0001
,  // measure 33
1000
0000
0010
1000
,  // measure 34
0001
0010
0001
1000
,  // measure 35
0100
0010
2001
0000
,  // measure 36
3001
0010
0100
1000
,  // measure 37
0001
0000
0100
0001
,  // measure 38
1000
1000
0001
0010
,  // measure 39
0100
1000
0010
1000
,  // measure 40
0001
0001
1000
0100
,  // measure 41
0010
0001
0100
0000
,  // measure 42
0000
0100
0000
0000
0000
0100
0000
0000
,  // measure 43
0010
0010
1001
0000
;

//---------------dance-single - ----------------
#NOTES:
     dance-single:
     :
     Hard:
     8:
     0.530,0.493,0.243,0.022,0.111: // measure 1
0001
0000
0100
0000
0001
0000
0010
0000
0001
0010
0100
0000
1000
0000
0010
0000
,  // measure 2
0100
0000
0010
0000
1000
0000
0100
0000
0010
0100
1000
0000
0010
0000
0000
0000
,  // measure 3
1000
0000
0010
0000
0100
0000
0010
0000
1000
0100
0010
0000
0001
0000
0100
0000
,  // measure 4
0010
0000
0100
0000
0001
0000
0010
0000
0100
0010
0001
0000
0100
0000
0000
0000
,  // measure 5
0101
0100
0001
1000
0000
0020
0000
1030
,  // measure 6
0100
0001
0100
1000
0000
0200
0000
0301
,  // measure 7
1000
0100
0010
0100
0000
1000
0100
0001
,  // measure 8
0100
1000
0001
0100
0101
0000
1001
0000
,  // measure 9
1000
0000
0010
0000
0100
0000
0001
0000
0100
0010
0100
0000
0001
0000
0100
0000
,  // measure 10
0010
0000
1000
0000
0100
0000
0010
0000
0001
1000
0001
0000
1000
0000
0010
0000
,  // measure 11
0100
0001
0100
1000
0100
0001
0100
0000
,  // measure 12
0010
1000
0010
0001
0010
1000
0010
0000
,  // measure 13
0100
0001
1000
0100
0010
0001
0100
1000
,  // measure 14
0100
0010
0100
1000
0000
1100
1001
0000
,  // measure 15
0011
0000
0100
1000
0100
0001
0100
0000
,  // measure 16
1000
0100
0010
0001
0100
0000
1100
0000
,  // measure 17
0010
0001
0010
1000
0010
0000
0100
0000
,  // measure 18
0001
0010
0100
1000
0001
0000
1001
0000
,  // measure 19
0010
1000
0010
0001
0010
0000
0100
0000
,  // measure 20
1000
0010
0100
0001
1000
0000
1001
0000
,  // measure 21
0100
0001
0100
1000
0100
0001
0100
0000
,  // measure 22
0010
0100
0001
0010
0100
0010
0001
1000
,  // measure 23
0100
0010
0001
0000
1001
0100
0010
0001
,  // measure 24
0100
1000
1100
0001
0010
0100
1000
0010
,  // measure 25
0100
0000
0010
0000
1000
0000
0000
0000
0010
0000
0000
1000
0000
0000
0001
0000
,  // measure 26
0000
0010
0001
1000
0100
0010
0100
1000
,  // measure 27
0001
1000
0001
0000
1000
0000
0000
0000
1001
0000
0010
0000
0100
0000
1000
0000
,  // measure 28
0100
0001
0100
1000
0010
0100
0001
1000
,  // measure 29
0100
1000
0010
0000
0100
0001
0100
0001
,  // measure 30
1000
0100
0010
0100
1000
0001
0100
1000
,  // measure 31
0001
1000
0001
0000
0100
0010
0100
0000
1001
0000
0010
0000
0100
0000
1000
0000
,  // measure 32
0100
0001
0101
1000
0010
0100
0001
0001
,  // measure 33
1000
0001
1000
0000
0001
0000
0000
0000
0100
0000
0000
0010
0000
0000
1000
0000
,  // measure 34
0000
0100
1000
0001
0010
0100
0010
0001
,  // measure 35
1000
0010
1000
0000
0001
0000
0000
0000
1001
0000
0100
0000
0010
0000
0001
0000
,  // measure 36
0010
1000
0010
0001
0100
0010
1000
1000
,  // measure 37
0001
1000
0001
0000
1000
0000
0000
0000
1001
0000
0000
0000
0100
0000
1000
0000
,  // measure 38
0001
0100
0001
0000
0101
0000
0000
0000
1000
0000
0100
0000
0010
0000
0100
0000
,  // measure 39
1000
0010
0100
0000
0010
0000
0000
0000
1001
0000
0000
0000
0010
0000
0001
0000
,  // measure 40
1000
0010
1000
0000
1010
0000
0000
0000
0001
0000
0010
0000
0100
0000
0010
0000
,  // measure 41
0001
0100
0010
0000
1000
0010
1000
0000
1001
0000
0000
0000
0001
0000
0000
0000
,  // measure 42
0100
1000
0100
0000
1000
0100
0001
0000
,  // measure 43
0101
0000
0000
0000
1000
0100
1000
0000
1001
0000
0000
0000
0000
0000
0000
0000
;

//---------------dance-single - ----------------
#NOTES:
     dance-single:
     :
     Medium:
     6:
     0.409,0.376,0.365,0.088,0.000: // measure 1
0001
0100
0010
1000
0000
0001
0000
0001
,  // measure 2
1000
0010
0100
0001
1000
0000
1001
0000
,  // measure 3
1000
0010
0100
0001
0000
1000
0000
1000
,  // measure 4
0001
0100
0010
1000
0001
0000
1001
0000
,  // measure 5
1100
0000
1100
0000
0000
0001
0000
1000
,  // measure 6
0100
0010
0001
0000
0000
0001
0010
0100
,  // measure 7
1000
0001
0100
0001
0000
1000
0100
0010
,  // measure 8
0001
1000
0100
0000
0011
0000
1001
0000
,  // measure 9
0100
0010
0100
0000
0001
0000
0100
0010
,  // measure 10
0000
1000
0000
1000
0000
0001
1000
0000
,  // measure 11
0010
0100
0010
0000
1000
0010
1000
0000
,  // measure 12
0010
0100
0010
0000
0100
0001
0100
0000
,  // measure 13
0010
0100
0010
0100
0010
0000
1000
0001
,  // measure 14
1000
0001
1000
0100
0000
0000
0000
0000
,  // measure 15
1100
1100
0101
0101
,  // measure 16
2002
0000
0000
0000
3003
0001
0100
0010
,  // measure 17
1000
1100
0101
0101
,  // measure 18
2002
0000
0000
3003
,  // measure 19
0011
0011
1010
1010
,  // measure 20
2002
0000
0000
0000
3003
1000
0010
0100
,  // measure 21
0001
0011
1010
1010
,  // measure 22
0100
0001
0100
0010
1000
0100
0010
0001
,  // measure 23
1000
1000
1000
0000
1001
0000
0010
1000
,  // measure 24
0010
1000
1000
0000
0001
0010
0001
0000
,  // measure 25
1000
0010
1000
0000
0001
0000
0100
0000
,  // measure 26
1000
0100
0010
0001
1000
0010
1000
0000
,  // measure 27
0001
0000
1000
0000
1001
0000
0100
0001
,  // measure 28
0100
0000
0001
0010
0100
1000
0001
0100
,  // measure 29
0001
1000
0200
1000
,  // measure 30
1300
0000
0001
0000
1000
0100
0010
0001
,  // measure 31
1000
0000
1001
0000
0100
0001
0100
0001
,  // measure 32
1000
0100
0100
0000
1000
0100
1000
0000
,  // measure 33
0001
0100
0001
0000
1000
0000
0100
0000
,  // measure 34
0001
0000
0100
0001
0010
0100
1000
0001
,  // measure 35
1000
0000
2001
0001
,  // measure 36
3001
0000
0100
0001
0010
0100
1000
0010
,  // measure 37
0000
0000
0000
0000
1001
0000
0100
0001
,  // measure 38
0100
0000
0001
0000
1000
0100
0010
0001
,  // measure 39
0000
0000
0000
0000
1001
0000
0010
1000
,  // measure 40
0010
0000
1000
0000
0001
0010
0100
1000
,  // measure 41
0000
0000
0110
0001
,  // measure 42
0000
1000
0000
0000
0000
0001
1000
0000
,  // measure 43
0110
0110
1001
0000
;

//---------------dance-single - ----------------
#NOTES:
     dance-single:
     :
     Beginner:
     1:
     0.060,0.094,0.022,0.000,0.000: // measure 1
0001
0000
0000
0000
,  // measure 2
0001
0000
0000
0000
,  // measure 3
1000
0000
0000
0000
,  // measure 4
1000
0000
0000
0000
,  // measure 5
1001
0000
0000
0000
,  // measure 6
1000
0000
0000
0000
,  // measure 7
1000
0000
0000
0000
,  // measure 8
0001
0000
0000
0000
,  // measure 9
0001
0000
0000
0000
,  // measure 10
0000
0000
0000
0000
,  // measure 11
0100
0000
0000
0000
,  // measure 12
0000
0000
0000
0000
,  // measure 13
0010
0000
0000
0000
,  // measure 14
0000
0000
0000
0000
,  // measure 15
1000
0000
0000
0000
,  // measure 16
0000
0000
0000
0000
,  // measure 17
0100
0000
0000
0000
,  // measure 18
0000
0000
0000
0000
,  // measure 19
0010
0000
0000
0000
,  // measure 20
0000
0000
0000
0000
,  // measure 21
0001
0000
0000
0000
,  // measure 22
0000
0000
0000
0000
,  // measure 23
0000
0000
1000
0000
,  // measure 24
0000
0000
1000
0000
,  // measure 25
0000
0000
0001
0000
,  // measure 26
0000
0000
0001
0000
,  // measure 27
0000
0000
1000
0000
,  // measure 28
0000
0000
0001
0000
,  // measure 29
0000
0000
1000
0000
,  // measure 30
0000
0000
1000
0000
,  // measure 31
0000
0000
0010
0000
,  // measure 32
0000
0000
0100
0000
,  // measure 33
0000
0000
0010
0000
,  // measure 34
0000
0000
0010
0000
,  // measure 35
0000
0000
0100
0000
,  // measure 36
0000
0000
0100
0000
,  // measure 37
0000
0000
0001
0000
,  // measure 38
0000
0000
0001
0000
,  // measure 39
0000
0000
1000
0000
,  // measure 40
0000
0000
1000
0000
,  // measure 41
0000
0000
0001
0000
,  // measure 42
0000
0000
0000
0000
,  // measure 43
0100
0000
0110
0000
;
