#TITLE:FIRE WIRE;
#SUBTITLE:;
#ARTIST:PINK PONG;
#TITLETRANSLIT:;
#SUBTITLETRANSLIT:;
#ARTISTTRANSLIT:;
#CREDIT:DMAxel;
#BANNER:FIRE WIRE.png;
#BACKGROUND:FIRE WIRE-bg.png;
#LYRICSPATH:;
#CDTITLE:beatmania.png;
#MUSIC:FIRE WIRE.mp3;
#OFFSET:-0.520;
#SAMPLESTART:45.156;
#SAMPLELENGTH:12.000;
#SELECTABLE:YES;
#BPMS:0.000=137.000;
#STOPS:;
#BGCHANGES:;

//---------------dance-single - ----------------
#NOTES:
     dance-single:
     :
     Easy:
     3:
     0.228,0.330,0.158,0.105,0.000: // measure 1
0000
0000
0000
0000
,  // measure 2
0000
0000
0000
0000
,  // measure 3
0000
0000
0000
0000
,  // measure 4
0000
0000
0000
0000
,  // measure 5
0000
0000
0000
0000
,  // measure 6
0000
0000
0000
0000
,  // measure 7
0000
0100
1000
0010
,  // measure 8
0000
0100
0010
1000
,  // measure 9
0000
0010
0100
0001
,  // measure 10
0000
0100
0010
0100
,  // measure 11
0000
0010
0100
0001
,  // measure 12
0000
0100
0010
1000
,  // measure 13
0000
0010
0100
0010
,  // measure 14
0000
1000
0001
1000
,  // measure 15
1002
0000
0000
0000
,  // measure 16
0203
0000
0000
0300
,  // measure 17
1002
0000
0000
0000
,  // measure 18
2003
0000
0000
3000
,  // measure 19
2001
0000
0000
0000
,  // measure 20
3020
0000
0000
0030
,  // measure 21
1002
0000
0000
0000
,  // measure 22
0203
0000
0000
0000
,  // measure 23
0310
0000
0000
0000
,  // measure 24
0010
0000
0000
0000
,  // measure 25
0010
0000
0000
0000
,  // measure 26
0010
0000
1001
0000
,  // measure 27
1000
0100
0001
0100
,  // measure 28
1000
0100
0001
0100
,  // measure 29
1001
0010
1000
0010
,  // measure 30
0001
0010
1000
0010
,  // measure 31
1001
0100
0010
0100
,  // measure 32
0010
1000
0010
1000
,  // measure 33
0100
0010
0001
0010
,  // measure 34
0100
1000
0001
0010
,  // measure 35
1001
0001
0010
0001
,  // measure 36
0100
0100
0010
0100
,  // measure 37
0010
0010
1000
0100
,  // measure 38
1000
1000
0010
0100
,  // measure 39
0001
0001
0100
0010
,  // measure 40
1000
1000
0010
0100
,  // measure 41
1001
0010
0010
0100
,  // measure 42
1001
0010
1100
0101
;

//---------------dance-single - ----------------
#NOTES:
     dance-single:
     :
     Hard:
     8:
     0.456,0.495,0.211,0.079,0.191: // measure 1
0000
0000
0000
0000
,  // measure 2
0000
0000
0000
0000
,  // measure 3
0000
0000
0000
0000
,  // measure 4
0000
0000
0000
0000
,  // measure 5
0000
0000
0000
0000
,  // measure 6
0000
0000
0000
0000
,  // measure 7
1001
0000
0001
0010
0001
0010
1000
0000
,  // measure 8
0010
1000
0100
1000
0100
1000
0001
0000
,  // measure 9
1001
0000
1000
0100
1000
0100
0001
0000
,  // measure 10
0100
0001
0010
0001
0010
0001
1000
0000
,  // measure 11
1001
0000
0001
0100
0001
0100
1000
0000
,  // measure 12
1000
0010
1000
0100
1000
0010
0001
0000
,  // measure 13
1001
0000
1000
0010
1000
0010
0001
0000
,  // measure 14
0001
0100
0001
0010
0001
0100
1000
0000
,  // measure 15
1001
0000
0000
0100
0000
0000
1000
0000
0010
0000
0000
0100
0000
0000
0001
0000
,  // measure 16
0010
0000
0000
0001
0000
0000
0100
0000
0010
0000
0000
1000
0000
0000
0010
0000
,  // measure 17
1001
0000
0000
0100
0000
0000
0001
0000
0010
0000
0000
0001
0000
0000
0100
0000
,  // measure 18
0010
0000
0000
1000
0000
0000
0010
0000
0100
0000
0000
0001
0000
0000
0010
0000
,  // measure 19
1001
0000
0000
0010
0000
0000
0001
0000
0100
0000
0000
0001
0000
0000
0010
0000
,  // measure 20
1000
0000
0000
0100
0000
0000
0001
0000
0100
0000
0000
0001
0000
0000
0100
0000
,  // measure 21
1001
0000
0000
0100
0000
0000
0001
0000
0010
0000
0000
0001
0000
0000
0100
0000
,  // measure 22
1001
0000
0000
0010
0000
0000
1000
0000
0001
0000
1000
0000
0001
0000
1000
0000
,  // measure 23
0220
0000
0000
0330
,  // measure 24
0022
0000
0000
0033
,  // measure 25
2200
0000
0000
3300
,  // measure 26
0010
0000
0000
0001
0100
0000
1010
0000
0000
0000
0000
0000
0000
0000
0000
0000
,  // measure 27
0001
0010
0100
1000
0010
0100
0001
0010
,  // measure 28
0001
0100
0010
1000
0010
0001
0010
1000
,  // measure 29
0010
0100
0001
0100
1000
0100
0001
1000
,  // measure 30
0100
0010
0001
0100
0010
0100
0001
0000
,  // measure 31
1000
0100
0010
0001
0100
0010
0100
0001
,  // measure 32
0010
0001
0010
1000
0010
0001
0100
0010
,  // measure 33
1000
0100
1000
0100
0001
0100
1000
0010
,  // measure 34
0100
0001
0010
0100
1000
0100
0010
0100
,  // measure 35
1001
0000
0010
0000
0000
0001
0000
0000
0010
0000
0000
0001
0000
0000
0010
0000
,  // measure 36
0000
0000
0100
0000
0000
1000
0000
0000
0100
0000
0000
1000
0000
0000
0010
0000
,  // measure 37
0000
0000
0100
0000
0000
0001
0000
0000
0100
0000
0000
0001
0000
0000
0100
0000
,  // measure 38
0000
0000
0010
0000
0000
1000
0000
0000
0010
0000
0000
1000
0000
0000
0010
0000
,  // measure 39
1001
0000
0100
0000
1000
0000
0010
0000
1000
0000
0000
0100
0000
0000
0001
0000
,  // measure 40
0010
0000
0001
0000
0100
0000
0001
0000
1000
0000
0000
0100
0000
0000
0001
0000
,  // measure 41
0100
0000
0010
0000
0100
0000
0001
0000
1000
0000
0000
0010
0000
0000
0001
0000
,  // measure 42
0100
0000
0000
0010
0100
0000
0001
0000
0000
0100
0010
0000
1001
0000
0000
0000
;

//---------------dance-single - ----------------
#NOTES:
     dance-single:
     :
     Challenge:
     9:
     0.531,0.633,0.224,0.066,0.336: // measure 1
0000
0000
0000
0000
,  // measure 2
0000
0000
0000
0000
,  // measure 3
0000
0000
0000
0000
,  // measure 4
0000
0000
0000
0000
,  // measure 5
0000
0000
0000
0000
,  // measure 6
0000
0000
0000
0000
,  // measure 7
1001
0000
1000
0100
1000
0100
0002
0000
,  // measure 8
0103
0001
0010
0001
0010
0001
1000
0000
,  // measure 9
1001
0000
0001
0010
0001
0010
2000
0000
,  // measure 10
3010
1000
0100
1000
0001
0100
1000
0010
,  // measure 11
1001
0000
1000
0010
1000
0010
0001
0000
,  // measure 12
0001
0100
0001
0010
0001
0100
1000
0010
,  // measure 13
1001
0000
0001
0100
0001
0100
1000
0000
,  // measure 14
1000
0000
0010
0000
1000
0000
0100
1000
0100
0000
0010
0001
0000
0100
0010
0000
,  // measure 15
1001
0000
0000
0010
0000
0000
0001
0000
0100
0000
0000
0010
0000
0000
1000
0000
,  // measure 16
0100
0000
0000
1000
0000
0000
0010
0000
0100
0000
0000
0001
0000
0000
0100
0000
,  // measure 17
1001
0000
0000
0010
0000
0000
1000
0000
0100
0000
1000
0010
0000
0000
0010
0000
,  // measure 18
0100
0000
0000
0001
0000
0000
0100
0000
0010
0000
1000
0100
0000
0000
0100
0000
,  // measure 19
1001
0000
0000
0100
0000
0000
1000
0000
0010
0000
1000
0001
0000
0000
0001
0000
,  // measure 20
0100
0000
0000
0010
0000
0000
1000
0000
0010
0100
0010
0000
0100
0000
0010
0000
,  // measure 21
1001
0000
0000
0010
0000
0000
1000
0000
0100
0000
1000
0010
0000
0000
0010
0000
,  // measure 22
1001
0000
0000
0100
0000
0000
0001
0000
1000
0100
1000
0100
1000
0100
1000
0000
,  // measure 23
0012
0000
0010
0000
,  // measure 24
2003
0000
0100
0000
,  // measure 25
3020
0000
0100
0000
,  // measure 26
0130
0000
0000
1000
0010
0000
0101
0000
0000
0000
0000
0000
0000
0000
0000
0000
,  // measure 27
1000
0100
0010
0001
0100
0010
1000
0100
,  // measure 28
1000
0010
0100
0001
0100
1000
0100
0001
,  // measure 29
0100
0010
1000
0010
0001
0010
1000
0001
,  // measure 30
0100
0000
0000
0010
0100
0000
0001
0000
0000
0100
0010
0000
1000
0000
0000
0000
,  // measure 31
0001
0010
0100
1000
0010
0100
0010
1000
,  // measure 32
0100
1000
0100
0001
0100
1000
0010
0100
,  // measure 33
0001
0010
0001
0010
1000
0010
0001
0100
,  // measure 34
0010
0000
0000
0100
0010
0000
1000
0000
0000
0001
0100
0000
0010
0100
0010
0000
,  // measure 35
1001
0000
0100
0000
0000
1000
0000
0000
0100
1000
0100
1000
0100
1000
0100
0000
,  // measure 36
0000
0000
1000
0000
0000
0010
0000
0000
0100
0000
0000
0001
0000
0000
1000
0000
,  // measure 37
1001
0000
0010
0000
0000
0001
0000
0000
0010
0001
0010
0001
0010
0001
0010
0000
,  // measure 38
0000
0000
0001
0000
0000
1000
0000
0000
0001
0000
0100
0010
0100
0000
0010
0000
,  // measure 39
1001
0000
0010
0001
0000
0000
0100
0000
0001
0100
0001
0100
0001
0100
0001
0000
,  // measure 40
0100
0000
0010
1000
0000
0000
0001
0000
1000
0000
0010
0100
0010
0000
0100
0000
,  // measure 41
1001
0000
0010
0001
0100
0000
0010
0000
1000
0010
1000
0010
1000
0010
1000
0000
,  // measure 42
0001
0000
0000
0100
0010
0000
1001
0000
0000
0010
0100
0000
1001
0000
0000
0000
;

//---------------dance-single - ----------------
#NOTES:
     dance-single:
     :
     Medium:
     6:
     0.363,0.468,0.211,0.066,0.000: // measure 1
0000
0000
0000
0000
,  // measure 2
0000
0000
0000
0000
,  // measure 3
0000
0000
0000
0000
,  // measure 4
0000
0000
0000
0000
,  // measure 5
0000
0000
0000
0000
,  // measure 6
0000
0000
0000
0000
,  // measure 7
1001
0000
0001
0000
0100
0010
1000
0000
,  // measure 8
0010
0000
1000
0000
0010
0100
0001
0000
,  // measure 9
1001
0000
1000
0000
0010
0100
0001
0000
,  // measure 10
0100
0000
0001
0000
0100
0010
1000
0000
,  // measure 11
1001
0000
0010
0001
0010
0001
0001
0000
,  // measure 12
0010
0000
0100
1000
0100
1000
1000
0000
,  // measure 13
1001
0000
0010
1000
0010
1000
1000
0000
,  // measure 14
0010
0000
0100
0001
0100
0001
0001
0000
,  // measure 15
1001
0000
1000
0000
0010
0100
0010
0000
,  // measure 16
1000
0000
1001
0000
0010
0100
0010
0100
,  // measure 17
0010
0000
1000
0000
0001
1000
0001
0000
,  // measure 18
1000
0000
0001
0000
0010
0001
0010
0001
,  // measure 19
0010
0001
1000
0010
,  // measure 20
0100
0000
0010
0000
1000
0100
1000
0100
,  // measure 21
1000
0010
0100
0001
,  // measure 22
1001
0000
0010
0000
1000
0001
1000
0001
,  // measure 23
2001
0000
0000
0000
,  // measure 24
3002
0000
0000
0000
,  // measure 25
2003
0000
0000
0000
,  // measure 26
3001
0000
1001
0000
,  // measure 27
0001
0010
0100
1000
,  // measure 28
0100
0010
0001
0100
,  // measure 29
0010
1000
0100
0010
,  // measure 30
2002
0000
0000
3003
,  // measure 31
0001
0010
0001
0100
0001
0010
0001
0000
,  // measure 32
1000
0010
1000
0100
1000
0010
1000
0000
,  // measure 33
0010
0100
0010
1000
0010
0100
0010
0000
,  // measure 34
1001
0000
0010
0100
0000
0100
0010
0000
,  // measure 35
1001
1000
1000
1000
,  // measure 36
0010
0100
0100
0100
,  // measure 37
0001
0010
0010
0010
,  // measure 38
0001
0100
0100
0100
,  // measure 39
1001
0010
0001
1000
0100
0010
0001
0000
,  // measure 40
1000
0100
1000
0001
0010
0100
1000
0000
,  // measure 41
1001
0100
0001
1000
0010
0100
0001
0000
,  // measure 42
1001
0000
0100
0010
0000
0010
1001
0000
;

//---------------dance-single - ----------------
#NOTES:
     dance-single:
     :
     Beginner:
     2:
     0.109,0.193,0.092,0.000,0.000: // measure 1
0000
0000
0000
0000
,  // measure 2
0000
0000
0000
0000
,  // measure 3
0000
0000
0000
0000
,  // measure 4
0000
0000
0000
0000
,  // measure 5
0000
0000
0000
0000
,  // measure 6
0000
0000
0000
0000
,  // measure 7
1000
0000
0000
0000
,  // measure 8
0010
0000
0000
0000
,  // measure 9
1000
0000
0000
0000
,  // measure 10
0001
0000
0000
0000
,  // measure 11
0100
0000
0000
0000
,  // measure 12
0001
0000
0000
0000
,  // measure 13
1001
0000
0000
0000
,  // measure 14
1000
0000
0000
0000
,  // measure 15
0001
0000
0001
0000
,  // measure 16
0001
0000
0100
0000
,  // measure 17
0100
0000
0100
0000
,  // measure 18
0001
0000
0001
0000
,  // measure 19
0100
0000
0100
0000
,  // measure 20
0010
0000
0010
0000
,  // measure 21
1001
0000
1000
0000
,  // measure 22
1000
0000
0010
0000
,  // measure 23
1001
0000
0000
0000
,  // measure 24
0000
0000
0000
0000
,  // measure 25
0000
0000
0000
0000
,  // measure 26
0000
0000
0100
0000
,  // measure 27
0010
0000
0000
0000
,  // measure 28
0010
0000
0000
0000
,  // measure 29
0010
0000
0000
0000
,  // measure 30
0100
0000
0000
0000
,  // measure 31
1001
0000
0000
0000
,  // measure 32
1000
0000
0000
0000
,  // measure 33
0001
0000
0000
0000
,  // measure 34
1000
0000
0000
0000
,  // measure 35
1001
0001
0000
0010
,  // measure 36
0000
0001
0000
0010
,  // measure 37
0000
0001
0000
1000
,  // measure 38
0000
0100
0000
1000
,  // measure 39
0010
0000
0010
0000
,  // measure 40
0100
0000
0100
0000
,  // measure 41
0001
0000
0001
0000
,  // measure 42
1001
0000
0000
1001
;
