#TITLE:FIRE FIRE;
#SUBTITLE:;
#ARTIST:StripE;
#TITLETRANSLIT:;
#SUBTITLETRANSLIT:;
#ARTISTTRANSLIT:;
#CREDIT:DMAxel;
#BANNER:FIRE FIRE.png;
#BACKGROUND:FIRE FIRE-bg.png;
#LYRICSPATH:;
#CDTITLE:beatmaniaIIDX.png;
#MUSIC:FIRE FIRE.mp3;
#OFFSET:0.400;
#SAMPLESTART:67.580;
#SAMPLELENGTH:12.000;
#SELECTABLE:YES;
#BPMS:0.000=150.000;
#STOPS:;
#BGCHANGES:;

//---------------dance-single - ----------------
#NOTES:
     dance-single:
     :
     Easy:
     3:
     0.241,0.264,0.100,0.061,0.000: // measure 1
0000
0000
0000
0000
,  // measure 2
0000
0000
0000
0000
,  // measure 3
0000
0000
0000
0000
,  // measure 4
0000
0000
0000
0000
,  // measure 5
0000
0000
0000
0000
,  // measure 6
0000
0000
1000
0100
,  // measure 7
1000
0100
1000
0001
,  // measure 8
1000
0001
0010
0010
,  // measure 9
0010
0010
1001
0000
,  // measure 10
0000
0000
1001
1000
,  // measure 11
0100
0000
1000
0000
,  // measure 12
0010
0100
0001
0000
,  // measure 13
0010
0000
0001
0000
,  // measure 14
0100
0010
1000
0000
,  // measure 15
0100
0000
1000
1000
,  // measure 16
0010
0000
0100
0000
,  // measure 17
0010
0000
2000
0000
,  // measure 18
0000
0000
3001
0010
,  // measure 19
0001
0000
0100
0000
,  // measure 20
0010
1000
0100
0000
,  // measure 21
1000
0000
0010
0000
,  // measure 22
0100
0010
2000
0000
,  // measure 23
0000
3001
0020
0000
,  // measure 24
0000
0000
0031
0000
,  // measure 25
0100
0000
0010
0010
,  // measure 26
0100
0100
1001
0000
,  // measure 27
0000
0000
1001
0000
,  // measure 28
0000
0000
0000
0000
,  // measure 29
0000
0010
0011
0000
,  // measure 30
0000
0000
0100
1000
,  // measure 31
0100
0010
1001
0000
,  // measure 32
0000
0000
0000
0000
,  // measure 33
0000
0100
1100
0000
,  // measure 34
0000
0000
0010
0010
,  // measure 35
0100
0100
0001
0010
,  // measure 36
0001
0010
0001
1000
,  // measure 37
0001
1000
0100
1000
,  // measure 38
0100
1000
0010
0100
,  // measure 39
0010
1000
0001
0010
,  // measure 40
0100
1000
0100
0010
,  // measure 41
0001
0100
0010
0010
,  // measure 42
1000
1000
0001
0001
,  // measure 43
0100
0100
1001
0000
,  // measure 44
0000
0000
1001
0000
,  // measure 45
0000
0000
0010
0010
,  // measure 46
0100
0001
0010
0010
,  // measure 47
0001
1000
0100
0100
,  // measure 48
1000
0010
0100
0100
,  // measure 49
0010
1000
0100
0100
,  // measure 50
1000
0001
0010
0010
,  // measure 51
0001
0100
0010
0010
,  // measure 52
0100
0100
1001
0000
,  // measure 53
0000
0000
0010
1000
,  // measure 54
0100
0100
1000
0010
,  // measure 55
0100
0100
0001
0010
,  // measure 56
0001
0001
0100
0010
,  // measure 57
1000
1000
0010
1000
,  // measure 58
0100
0100
1000
0010
,  // measure 59
0100
0100
0001
0000
,  // measure 60
1000
0000
1001
0000
,  // measure 61
0000
0000
0020
0000
,  // measure 62
0000
0000
0130
0000
,  // measure 63
0001
0000
2000
0000
,  // measure 64
0000
0000
3010
0000
,  // measure 65
0000
0000
0200
0000
,  // measure 66
0000
0000
0301
0000
,  // measure 67
0010
0000
0002
0000
,  // measure 68
2003
0000
3001
0000
,  // measure 69
0000
0000
0100
0000
,  // measure 70
0010
0000
1001
0100
,  // measure 71
0100
0100
0010
1000
,  // measure 72
0001
0001
0010
0001
,  // measure 73
0100
0100
0010
1000
,  // measure 74
0100
0100
1000
0001
,  // measure 75
0100
0100
0010
0010
,  // measure 76
0100
0100
0001
0010
,  // measure 77
1000
0010
1001
0000
;

//---------------dance-single - ----------------
#NOTES:
     dance-single:
     :
     Hard:
     8:
     0.569,0.625,0.438,0.138,0.092: // measure 1
0000
0000
0000
0000
,  // measure 2
0000
0000
0000
0000
,  // measure 3
0000
0000
0000
0000
,  // measure 4
0000
0000
0000
0000
,  // measure 5
0000
0000
0000
0000
,  // measure 6
0000
0000
1001
1000
,  // measure 7
0001
0100
0110
1000
,  // measure 8
0001
0000
0010
0000
1000
1000
0100
0100
,  // measure 9
0010
0001
0010
0100
2002
0000
0000
0000
,  // measure 10
0000
3003
0000
0000
0010
1000
0010
0100
,  // measure 11
0010
1000
0000
0100
0010
0001
0000
0010
,  // measure 12
0001
0010
0100
0000
1000
0010
1000
0100
,  // measure 13
1000
0010
0000
1000
0001
0000
0010
0100
,  // measure 14
1000
0100
0010
0000
2001
0000
0001
0000
,  // measure 15
3010
0100
1000
0000
1001
0000
0001
0000
,  // measure 16
1000
1000
1100
0000
1002
0000
1000
0000
,  // measure 17
0103
0010
0001
0000
0100
0001
0010
0100
,  // measure 18
1000
0100
0010
0000
2001
0000
0001
0000
,  // measure 19
3001
0010
0100
0000
1001
0000
1000
0000
,  // measure 20
0001
0001
0011
0000
1002
0000
1000
0000
,  // measure 21
0103
0010
0001
0000
1001
0000
0100
0001
,  // measure 22
0010
0100
1000
0000
1100
0000
0001
0000
,  // measure 23
0100
0010
0100
0000
0011
0000
1000
0000
,  // measure 24
0010
0100
0010
0000
1001
0000
0110
0000
,  // measure 25
1001
0000
0011
0000
0100
1000
0010
0100
,  // measure 26
0001
0010
0100
0010
2002
0000
0000
0000
,  // measure 27
0000
3003
1000
0100
,  // measure 28
0001
0100
1000
0010
,  // measure 29
0100
0101
0101
0001
,  // measure 30
0100
1000
0110
0110
,  // measure 31
0011
1100
1001
0010
,  // measure 32
0001
0010
1000
0100
,  // measure 33
0001
1010
1010
0100
,  // measure 34
0010
0000
0001
0000
0100
0001
0100
0010
,  // measure 35
0100
0001
0010
0000
0001
0010
0100
1000
,  // measure 36
0100
0010
0001
0001
1001
0100
0010
0001
,  // measure 37
0010
0100
1000
1000
1001
0010
0100
1000
,  // measure 38
1001
0100
0010
0001
1001
0010
0100
1000
,  // measure 39
1001
0000
0100
0000
0010
0000
0001
0000
0010
0001
0010
0000
0001
0000
0001
0000
,  // measure 40
1000
0100
1000
0000
0100
0000
0100
0000
1000
0010
1000
0000
0010
0000
0010
0000
,  // measure 41
0100
0001
0100
0000
0001
0000
0001
0000
1000
0000
0100
0000
0001
0000
0100
0000
,  // measure 42
1000
0000
0100
0000
0001
0000
0100
0000
1000
0010
1000
0000
0010
0100
0010
0000
,  // measure 43
0100
0001
0100
0000
0001
0000
0010
0000
2002
0000
0000
0000
0000
0000
0000
0000
,  // measure 44
0000
3003
0220
0000
,  // measure 45
0000
0000
0000
0000
0330
0000
0000
0000
0100
0010
0100
0000
0001
0000
0010
0000
,  // measure 46
0100
1000
0100
0000
0010
0001
0010
0001
,  // measure 47
0010
0000
0001
0000
0010
0000
0000
0000
0001
1000
0001
0000
1000
0000
0100
0000
,  // measure 48
0010
0001
0010
0000
0100
1000
0100
1000
,  // measure 49
0100
0000
1000
0000
0100
0000
0000
0000
1000
0001
1000
0000
0001
0000
0010
0000
,  // measure 50
0100
0010
0001
1000
0100
0010
0100
1000
,  // measure 51
0010
0000
0100
0000
0001
0000
0100
0000
0001
0010
0001
0000
1000
0000
0100
0000
,  // measure 52
0010
0000
0001
0000
1000
0000
0100
0000
1000
0000
0000
1010
0000
0000
1001
0000
,  // measure 53
0000
0001
0100
0000
0010
0000
0100
0000
0001
0010
0100
0000
1000
0000
0100
0000
,  // measure 54
0010
0001
0010
0100
1000
0100
0001
0100
,  // measure 55
1000
0000
0100
0000
0010
0000
0000
0000
0001
0010
0100
0000
1000
0000
0100
0000
,  // measure 56
0010
0100
1000
0100
0010
0001
0010
0100
,  // measure 57
0010
0000
0001
0000
0010
0000
0000
0000
0100
1000
0100
0000
1000
0000
0010
0000
,  // measure 58
1000
0100
0010
0001
0010
0001
0010
1000
,  // measure 59
0100
0000
1000
0000
0100
0000
0010
0000
0001
0010
0001
0000
0010
0000
0100
0000
,  // measure 60
1000
0000
0100
0000
0001
0000
0010
0000
0001
0000
0000
0101
0000
0000
1001
0000
,  // measure 61
0000
1000
0010
0000
0100
0000
0010
0000
1001
0000
0000
0000
1000
0000
0000
0000
,  // measure 62
1000
0100
0000
0010
0001
0000
0100
0000
,  // measure 63
0010
0100
0010
0000
1001
0000
0001
0000
,  // measure 64
0001
0010
0000
0100
1000
0000
0010
0000
,  // measure 65
0100
0010
0100
0000
2001
0000
0100
0000
,  // measure 66
0001
0000
3001
0000
0000
0000
0100
0010
0100
0000
0000
0000
1001
0000
0000
0000
,  // measure 67
0110
0110
1002
1000
,  // measure 68
1000
1003
0000
0000
0220
0000
0000
0000
,  // measure 69
0000
0000
0330
0000
1000
1000
1000
0000
,  // measure 70
0001
0001
0001
0000
1001
0001
0010
0100
,  // measure 71
1000
0100
0010
0001
1001
1000
0100
0010
,  // measure 72
0001
0000
0010
0000
0100
0000
1000
0000
0010
0000
0100
0001
0100
0000
0010
0000
,  // measure 73
1000
0010
1000
0000
0100
0000
0100
0000
1001
0000
0001
0000
0010
0000
0100
0000
,  // measure 74
1000
0100
0010
0001
1001
1000
0100
0010
,  // measure 75
0001
0010
0100
1000
1001
0001
0010
0100
,  // measure 76
1001
0000
0001
0000
0010
0000
0100
0000
1001
0000
0000
1100
0000
0000
1001
0000
,  // measure 77
0000
0010
0001
0000
0010
0000
0100
0000
2002
0000
0000
0000
0000
0000
0000
0000
,  // measure 78
0000
0000
3003
0000
;

//---------------dance-single - ----------------
#NOTES:
     dance-single:
     :
     Beginner:
     2:
     0.097,0.147,0.031,0.000,0.000: // measure 1
0000
0000
0000
0000
,  // measure 2
0000
0000
0000
0000
,  // measure 3
0000
0000
0000
0000
,  // measure 4
0000
0000
0000
0000
,  // measure 5
0000
0000
0000
0000
,  // measure 6
0000
0000
1000
0000
,  // measure 7
0000
0000
0001
0000
,  // measure 8
0000
0000
1000
0000
,  // measure 9
0000
0000
0010
0000
,  // measure 10
0000
0000
0100
0000
,  // measure 11
0100
0000
0100
0000
,  // measure 12
0000
0000
0010
0000
,  // measure 13
0010
0000
0010
0000
,  // measure 14
0000
0000
1000
0000
,  // measure 15
1000
0000
1000
0000
,  // measure 16
0000
0000
0001
0000
,  // measure 17
0001
0000
0001
0000
,  // measure 18
0000
0000
1000
0000
,  // measure 19
0010
0000
1000
0000
,  // measure 20
0000
0000
0001
0000
,  // measure 21
0100
0000
0001
0000
,  // measure 22
0000
0000
1000
0000
,  // measure 23
0100
0000
1000
0000
,  // measure 24
0001
0000
1000
0000
,  // measure 25
0001
0000
0010
0000
,  // measure 26
0001
0000
1000
0000
,  // measure 27
0000
0000
0000
0000
,  // measure 28
0000
0000
0000
0000
,  // measure 29
0000
0000
0010
0000
,  // measure 30
0000
0000
0100
0000
,  // measure 31
0000
0000
0010
0000
,  // measure 32
0000
0000
0000
0000
,  // measure 33
0000
0000
1001
0000
,  // measure 34
0000
0000
1000
0000
,  // measure 35
0000
0000
0001
0000
,  // measure 36
0000
0000
0010
0000
,  // measure 37
0000
0000
0100
0000
,  // measure 38
0000
0000
1000
0000
,  // measure 39
0000
0000
0100
0000
,  // measure 40
0000
0000
0010
0000
,  // measure 41
0000
0000
0001
0000
,  // measure 42
0000
0000
1000
0000
,  // measure 43
0000
0000
1001
0000
,  // measure 44
0000
0000
0010
0000
,  // measure 45
0000
0000
0001
0000
,  // measure 46
0000
0000
0000
0000
,  // measure 47
0000
0000
0100
0000
,  // measure 48
0000
0000
0000
0000
,  // measure 49
0000
0000
0010
0000
,  // measure 50
0000
0000
0000
0000
,  // measure 51
0000
0000
1000
0000
,  // measure 52
0001
0000
1001
0000
,  // measure 53
0000
0000
0100
0000
,  // measure 54
0010
0000
0100
0000
,  // measure 55
0000
0000
0001
0000
,  // measure 56
1000
0000
0001
0000
,  // measure 57
0000
0000
1000
0000
,  // measure 58
0100
0000
1000
0000
,  // measure 59
0001
0000
0010
0000
,  // measure 60
0001
0000
1000
0000
,  // measure 61
0000
0000
0010
0000
,  // measure 62
0000
0000
0000
0000
,  // measure 63
0000
0000
0100
0000
,  // measure 64
0000
0000
0000
0000
,  // measure 65
0000
0000
0010
0000
,  // measure 66
0000
0000
0000
0000
,  // measure 67
0000
0000
1000
0000
,  // measure 68
0001
0000
1000
0000
,  // measure 69
0000
0000
0001
0000
,  // measure 70
0001
0000
0100
0000
,  // measure 71
0000
0000
0010
0000
,  // measure 72
0100
0000
0010
0000
,  // measure 73
0000
0000
1000
0000
,  // measure 74
0001
0000
1000
0000
,  // measure 75
0000
0000
0100
0000
,  // measure 76
1000
0000
0100
0000
,  // measure 77
0000
0000
1001
0000
;

//---------------dance-single - ----------------
#NOTES:
     dance-single:
     :
     Challenge:
     9:
     0.631,0.744,0.338,0.115,0.265:
0000
0000
0000
0000
,
0000
0000
0000
0000
,
0000
0000
0000
0000
,
0000
0000
0000
0000
,
0000
0000
0000
0000
,
0000
0000
1001
0001
,
1000
0100
0001
0000
0100
0000
0010
0000
,
1000
0000
0010
0000
0001
0000
0000
0000
1000
0100
1000
0000
0001
0010
0001
0000
,
1000
0001
1000
0000
0010
0000
0100
0000
2002
0000
0000
0000
0000
0000
0000
0000
,
0000
0000
3003
0000
0000
0000
0000
0000
0100
0000
0000
0001
0000
0000
0100
0000
,
0010
1000
0000
0100
0010
0001
0000
0100
,
0001
0000
0010
0000
0100
0000
0000
0000
1000
0000
0000
0001
0000
0000
1000
0000
,
0010
0100
0000
0001
1000
0000
0100
0010
,
0001
0010
0100
0000
1002
0000
1000
0000
,
0103
0010
0001
0000
0001
0010
1000
0010
,
0001
0001
0011
0000
2001
0000
0001
0000
,
3010
0100
1000
0000
0010
1000
0100
0010
,
0001
0010
0100
0000
1002
0000
1000
0000
,
1003
0100
0010
0000
1001
0000
0001
0010
,
1000
1000
1100
0000
2001
0000
0001
0000
,
3010
0100
1000
0000
1001
0000
0010
1000
,
0100
0010
0001
0000
1001
0000
1000
0010
,
1000
0100
0001
0000
1001
0000
0001
0100
,
0001
0010
1000
0000
1001
0000
0110
0000
,
1001
0000
0000
0000
1100
0000
0000
0000
0010
0001
0010
0000
0001
1000
0001
0000
,
1000
0100
1000
0000
0010
0100
0010
0000
2002
0000
0000
0000
0000
0000
0000
0000
,
0000
3003
0001
0010
,
1000
0010
0001
0000
0010
0001
0100
0000
,
0010
0000
1000
1000
1001
0000
0100
0000
,
0001
0100
1000
0000
0010
0100
0001
0010
,
0100
1000
0001
0001
1001
0000
0010
0000
,
1000
0010
0001
0000
0010
0001
0100
0000
,
0010
0000
1000
1000
1001
0000
0100
0000
,
1000
0000
0100
0000
0001
0000
0000
0000
0100
0000
0001
0000
0100
0000
0010
1000
,
0010
1000
1000
0000
0001
0010
0100
1000
,
0100
0000
0010
0000
0001
0000
0010
0100
1000
0000
0100
0000
0010
0000
0001
0000
,
0010
0000
0100
0000
1000
0000
0100
0000
0010
0001
0010
0000
0100
0000
1000
0000
,
0100
0010
0001
0000
0010
0000
0100
0000
1000
0100
0010
0000
0001
0000
0010
0000
,
0100
1000
0100
0000
0010
0000
0001
0000
0010
0001
0010
0001
0010
0000
0001
0000
,
1000
0100
1000
0100
1000
0000
0100
0000
1000
0010
1000
0010
1000
0000
0010
0000
,
0100
0001
0100
0001
0100
0000
0001
0000
1000
0001
1000
0000
0010
0100
0010
0000
,
1000
0010
1000
0000
0001
0100
0001
0000
0100
0010
0100
0000
0001
1000
0001
0000
,
1000
0001
1000
0000
0010
0000
0100
0000
2002
0000
0000
0000
0000
0000
0000
0000
,
0000
0000
3003
0000
0001
0010
1000
0000
,
0010
0000
0100
0000
0010
0000
0000
0000
0100
0010
0100
0000
0001
0000
0010
0000
,
0100
0000
0100
0000
0100
0000
1000
0000
0100
0010
0001
0000
0010
0000
0001
0000
,
0010
0000
0001
0000
0010
0000
0000
0000
0001
1000
0001
0000
1000
0000
0100
0000
,
0010
0000
0010
0000
0010
0000
0001
0000
0010
0100
1000
0000
0100
0000
1000
0000
,
0100
0000
1000
0000
0100
0000
0000
0000
1000
0001
1000
0000
0001
0000
0010
0000
,
0100
0000
0100
0000
0100
0000
1000
0000
0100
0010
0001
0000
0010
0000
0100
0000
,
1000
0000
0100
0000
0010
0000
0001
0000
0010
0001
0010
0000
0001
0000
0010
0000
,
0100
1000
0100
0000
1000
0000
0100
0000
0010
0000
0000
0011
0000
0000
1001
0000
,
0000
0100
1000
0000
1001
0000
0000
0000
0001
0010
0100
0000
1000
0000
0100
0000
,
0010
0000
0010
0000
0010
0000
0001
0000
0010
0100
1000
0000
0100
0000
0001
0000
,
0010
0000
0100
0000
1000
0000
0000
0000
0001
0010
0100
0000
1000
0000
0100
0000
,
0010
0000
0010
0000
0010
0000
0001
0000
0010
0100
1000
0000
0100
0000
0001
0000
,
0010
0000
0100
0000
1001
0000
0000
0000
0100
1000
0100
0000
1000
0000
0010
0000
,
1000
0100
0010
0001
0010
0001
0010
1000
,
0100
0000
1000
0000
0100
0000
0010
0000
0001
0010
0001
0000
0010
0000
0100
0000
,
1000
0000
0100
0000
0001
0000
0010
0000
0001
0000
0000
0101
0000
0000
1001
0000
,
0000
1000
0010
0000
0100
0000
0010
0000
1001
0000
0000
1000
0000
0000
1000
0000
,
0100
0000
0010
0000
0000
0000
0001
0100
0001
0000
0100
0000
0000
0000
0010
0000
,
1000
0000
0100
0000
0010
0000
0000
0000
1001
0000
0000
0001
0000
0000
0001
0000
,
0010
0000
0100
0000
0000
0000
1000
0010
1000
0000
0010
0000
0000
0000
0100
0000
,
0001
0010
0100
0000
2001
0000
0100
0000
,
0001
0000
3001
0000
0000
0000
0100
0010
0100
0000
0000
0000
1001
0000
0000
0000
,
0110
0000
0110
0000
1001
0100
0001
0010
,
0100
1000
0010
0000
0220
0000
0000
0000
,
0000
0000
0000
0000
0330
0000
0000
0000
1000
0100
1000
0100
1000
0000
0001
0010
,
0001
0010
0001
0000
1100
0000
0000
0000
1001
0000
0001
0000
0010
0000
0100
1000
,
0100
1000
0100
0000
0010
0000
0001
0000
1001
0000
1000
0000
0100
0000
0010
0001
,
0010
0000
0001
0000
0010
0000
0100
0000
1000
0000
0010
1000
0010
0000
1000
0000
,
0001
0100
0001
0000
0100
0000
0100
0000
1001
0000
0001
0000
0010
0000
0100
1000
,
0100
1000
0100
0000
0010
0000
0001
0000
1001
0000
1000
0000
0100
0000
0010
0001
,
0010
0000
0001
0000
0010
0000
0100
0000
1000
0010
1000
0000
0010
0000
0100
0000
,
0001
0100
0001
0000
0010
0000
0100
0000
1001
0000
0000
1100
0000
0000
1001
0000
,
0000
0010
0001
0000
0010
0000
0100
0000
2002
0000
0000
0000
0000
0000
0000
0000
,
0000
0000
3003
0000
;

//---------------dance-single - ----------------
#NOTES:
     dance-single:
     :
     Medium:
     5:
     0.385,0.441,0.369,0.131,0.000: // measure 1
0000
0000
0000
0000
,  // measure 2
0000
0000
0000
0000
,  // measure 3
0000
0000
0000
0000
,  // measure 4
0000
0000
0000
0000
,  // measure 5
0000
0000
0000
0000
,  // measure 6
0000
0000
0001
0010
,  // measure 7
0001
0010
0100
1000
,  // measure 8
0100
0010
0101
0101
,  // measure 9
1010
1010
2002
0000
,  // measure 10
0000
3003
1001
0001
,  // measure 11
0010
0001
0000
0100
0001
0000
0100
0000
,  // measure 12
0010
1000
0010
0000
1000
0000
0100
0000
,  // measure 13
1000
0100
0000
1000
0010
0000
0100
0000
,  // measure 14
0001
0100
0001
0000
1001
0000
0010
0000
,  // measure 15
0001
0100
0000
0010
0100
0000
0001
0000
,  // measure 16
0110
1001
0010
1000
,  // measure 17
0100
1000
0000
0010
2000
0000
0001
0000
,  // measure 18
0001
0000
3001
0000
1001
0000
0100
1000
,  // measure 19
0100
0000
1000
0100
0010
0000
0001
0010
,  // measure 20
0100
0000
1001
0000
0010
0001
0010
0000
,  // measure 21
0001
0010
0100
0000
1000
0100
0010
0000
,  // measure 22
1001
0000
0110
0000
0001
0010
0001
0010
,  // measure 23
0001
0010
0001
0000
1000
0100
1000
0100
,  // measure 24
1000
0100
1000
0000
1001
0000
0100
0000
,  // measure 25
0110
0010
1001
1100
,  // measure 26
0011
1100
2002
0000
,  // measure 27
0000
3003
0200
0000
,  // measure 28
0000
0000
0000
0000
,  // measure 29
0000
0010
0320
0000
,  // measure 30
0000
0000
1030
0100
,  // measure 31
0010
0001
2000
0000
,  // measure 32
0000
0000
0000
0000
,  // measure 33
0000
0001
3002
0000
,  // measure 34
0000
0000
0103
0110
,  // measure 35
1001
0110
1001
0100
,  // measure 36
1000
0100
1000
0000
0110
0000
0001
0000
,  // measure 37
0010
0001
0010
0000
1001
0000
0100
0000
,  // measure 38
1010
0010
0101
0010
,  // measure 39
1001
0100
1001
0100
,  // measure 40
0010
0001
0010
0100
,  // measure 41
1000
0010
0100
0100
,  // measure 42
0001
0001
1100
1100
,  // measure 43
0011
0011
2002
0000
,  // measure 44
0000
3003
0220
0000
,  // measure 45
0000
0330
1000
0010
,  // measure 46
1000
0010
1000
0010
,  // measure 47
0100
0001
0100
0000
0001
0000
0100
0000
,  // measure 48
0001
0100
0001
0100
,  // measure 49
0010
1000
0010
0000
0100
0000
0010
0000
,  // measure 50
0100
0010
0100
0010
,  // measure 51
1000
0001
1000
0000
0001
0000
0010
0000
,  // measure 52
0100
1000
0220
0000
,  // measure 53
0000
0330
0001
0010
,  // measure 54
0001
0010
0001
0010
,  // measure 55
0001
0010
0001
0000
1000
0000
0100
0000
,  // measure 56
1000
0100
1000
0100
,  // measure 57
1000
0100
1000
0000
0001
0000
0010
0000
,  // measure 58
0100
1000
0100
0010
,  // measure 59
0001
0010
1001
1000
,  // measure 60
0100
0010
0002
0000
,  // measure 61
0000
0000
1003
0100
,  // measure 62
0010
0010
0001
0001
,  // measure 63
0110
1001
0001
0010
,  // measure 64
0100
0100
1000
1000
,  // measure 65
0110
1001
1000
0100
,  // measure 66
0010
0010
0001
0001
,  // measure 67
0110
0000
1001
0000
0100
1000
0100
0000
,  // measure 68
1000
0001
1000
0000
0002
0000
0000
0000
,  // measure 69
0000
0000
0000
0000
0103
0100
0100
0000
,  // measure 70
0010
0010
0010
0000
1001
0000
0010
0000
,  // measure 71
0010
0001
0010
0000
0001
1000
0001
0000
,  // measure 72
0100
0010
0100
0000
0110
0000
1001
0000
,  // measure 73
0010
0100
0010
0000
0100
0000
0001
0000
,  // measure 74
0100
0001
0100
0000
0010
0000
1000
0000
,  // measure 75
0010
1000
0010
0000
1000
0100
0010
0000
,  // measure 76
0001
0010
0100
0000
1000
0100
0010
0001
,  // measure 77
0010
0100
1000
0000
1001
0000
0000
0000
;
