#TITLE:FINAL AUDITION;
#SUBTITLE:;
#ARTIST:BANYA;
#TITLETRANSLIT:;
#SUBTITLETRANSLIT:;
#ARTISTTRANSLIT:;
#CREDIT:DMAxel;
#BANNER:FINAL AUDITION.png;
#BACKGROUND:FINAL AUDITION-bg.png;
#LYRICSPATH:;
#CDTITLE:PUMP IT UP.png;
#MUSIC:FINAL AUDITION.MP3;
#OFFSET:-11.040;
#SAMPLESTART:44.997;
#SAMPLELENGTH:12.000;
#SELECTABLE:YES;
#BPMS:0.000=130.500;
#STOPS:12.000=1.840
;
#BGCHANGES:-24.000=FINAL AUDITION.avi=1.000=1=1=0,
99999=-nosongbg-=1.000=0=0=0 // don't automatically add -songbackground-
;

//---------------dance-single - ----------------
#NOTES:
     dance-single:
     :
     Easy:
     2:
     0.158,0.187,0.061,0.041,0.000: // measure 1
1000
0000
0000
0000
,  // measure 2
0001
0000
0000
0000
,  // measure 3
1000
0000
0000
0000
,  // measure 4
1001
0001
0000
0010
,  // measure 5
0000
0001
0000
0010
,  // measure 6
0000
0100
0000
1000
,  // measure 7
0000
0100
0000
1000
,  // measure 8
0000
0010
0000
1000
,  // measure 9
0000
0010
0000
0100
,  // measure 10
0000
0001
0000
0100
,  // measure 11
0000
0001
0000
0100
,  // measure 12
0000
0010
0000
0000
,  // measure 13
0000
0010
0000
0000
,  // measure 14
0000
0100
0000
0000
,  // measure 15
0000
0100
0000
0000
,  // measure 16
0000
0010
0000
0000
,  // measure 17
0000
0010
0000
0000
,  // measure 18
0000
1001
0000
0001
,  // measure 19
0000
0010
0000
0001
,  // measure 20
0000
1000
0100
1000
,  // measure 21
0000
0010
0000
1000
,  // measure 22
0000
0001
0010
0001
,  // measure 23
0000
0001
0000
0010
,  // measure 24
0000
0010
0000
0100
,  // measure 25
0000
0100
0000
1000
,  // measure 26
0000
1000
0000
0100
,  // measure 27
0000
0010
0000
0001
,  // measure 28
0000
1000
0000
0001
,  // measure 29
0000
0010
0000
0100
,  // measure 30
0000
1000
0000
0010
,  // measure 31
0000
0100
0000
0010
,  // measure 32
0000
1000
0000
0001
,  // measure 33
0000
0010
0000
0100
,  // measure 34
0000
1000
0000
2002
,  // measure 35
0000
0000
3003
0010
,  // measure 36
0010
0010
0010
2002
,  // measure 37
0000
0000
3003
0100
,  // measure 38
0100
0100
0100
0001
,  // measure 39
0010
0001
0000
1000
,  // measure 40
0100
1000
0010
1000
,  // measure 41
0000
0001
0000
0100
,  // measure 42
0010
0100
0001
0010
,  // measure 43
0100
1000
0010
1001
,  // measure 44
0000
0000
1000
0100
,  // measure 45
0010
0001
0100
1001
,  // measure 46
0000
0010
0100
1000
;

//---------------dance-single - ----------------
#NOTES:
     dance-single:
     :
     Beginner:
     1:
     0.054,0.070,0.010,0.000,0.000: // measure 1
0001
0000
0000
0000
,  // measure 2
1000
0000
0000
0000
,  // measure 3
0001
0000
0000
0000
,  // measure 4
1001
0000
0000
0000
,  // measure 5
0000
0000
0000
0000
,  // measure 6
0000
0010
0000
0000
,  // measure 7
0000
0000
0000
0000
,  // measure 8
0000
1000
0000
0000
,  // measure 9
0000
0000
0000
0000
,  // measure 10
0000
0001
0000
0000
,  // measure 11
0000
0000
0000
0000
,  // measure 12
0000
0100
0000
0000
,  // measure 13
0000
0000
0000
0000
,  // measure 14
0000
0010
0000
0000
,  // measure 15
0000
0000
0000
0000
,  // measure 16
0000
1000
0000
0000
,  // measure 17
0000
0000
0000
0000
,  // measure 18
0000
0000
0000
0001
,  // measure 19
0000
1000
0000
0001
,  // measure 20
0000
0000
0000
1000
,  // measure 21
0000
0001
0000
1000
,  // measure 22
0000
0000
0000
0001
,  // measure 23
0000
0000
0000
0001
,  // measure 24
0000
0000
0000
1000
,  // measure 25
0000
0000
0000
0000
,  // measure 26
0000
0000
0000
0010
,  // measure 27
0000
0000
0000
0000
,  // measure 28
0000
0000
0000
0100
,  // measure 29
0000
0000
0000
0000
,  // measure 30
0000
0000
0000
0010
,  // measure 31
0000
0000
0000
0000
,  // measure 32
0000
0000
0000
1000
,  // measure 33
0000
0000
0000
0000
,  // measure 34
0000
0000
0000
0001
,  // measure 35
0000
0000
0000
0001
,  // measure 36
0000
0000
0000
1000
,  // measure 37
0000
0000
0000
1000
,  // measure 38
0000
0000
0000
0001
,  // measure 39
0000
0000
0000
0001
,  // measure 40
0000
0000
0000
1000
,  // measure 41
0000
0000
0000
1000
,  // measure 42
0000
0000
0000
1000
,  // measure 43
0000
0000
0000
0001
,  // measure 44
0000
0000
0000
0001
,  // measure 45
0000
0000
0000
1000
,  // measure 46
0000
0000
0000
0010
;

//---------------dance-single - ----------------
#NOTES:
     dance-single:
     :
     Medium:
     5:
     0.293,0.304,0.133,0.092,0.000: // measure 1
1000
0001
1000
0001
,  // measure 2
0100
0001
0100
0001
,  // measure 3
1000
0001
1000
0001
,  // measure 4
1000
0010
0010
0010
,  // measure 5
0010
0100
0100
0100
,  // measure 6
0100
0010
0010
0010
,  // measure 7
0010
1000
1000
1000
,  // measure 8
1000
0001
0001
0001
,  // measure 9
0001
1000
1000
1000
,  // measure 10
1000
0010
0010
0010
,  // measure 11
0010
0100
0100
0100
,  // measure 12
0100
0002
0000
0010
,  // measure 13
0000
0100
0000
1003
,  // measure 14
0000
0100
0000
0010
,  // measure 15
0000
0001
0000
0010
,  // measure 16
0000
0200
0000
1000
,  // measure 17
0000
0010
0000
0301
,  // measure 18
0000
1001
0000
0010
,  // measure 19
0001
0000
1000
0001
1000
0000
0100
0000
,  // measure 20
1000
0100
0010
0001
,  // measure 21
1000
0000
0010
0100
0010
0000
1000
0000
,  // measure 22
0010
1000
0100
0010
,  // measure 23
0001
0010
0100
1000
,  // measure 24
0001
0010
1100
1001
,  // measure 25
0100
0010
0001
1000
,  // measure 26
0001
0010
0010
0001
,  // measure 27
0010
0100
1000
0100
,  // measure 28
0010
0000
0001
1000
0001
1000
0001
0000
,  // measure 29
0010
0100
1000
0100
,  // measure 30
0010
0000
0001
1000
0001
1000
0001
0000
,  // measure 31
0100
0010
1000
0010
,  // measure 32
0100
0000
0001
1000
0001
1000
0001
0000
,  // measure 33
0010
1000
0100
0010
,  // measure 34
0001
0000
0010
0100
0010
0100
0010
0000
,  // measure 35
0000
0000
0000
1001
,  // measure 36
1010
0000
0010
0100
0010
0100
0010
0000
,  // measure 37
0000
0000
0000
1001
,  // measure 38
0101
0000
0100
0010
0100
0010
0100
0000
,  // measure 39
0001
1000
0001
1001
,  // measure 40
1010
0000
0010
0100
0010
0100
0010
0000
,  // measure 41
1000
0001
1000
1001
,  // measure 42
0101
0000
0100
0010
0100
0010
0200
0000
,  // measure 43
0000
0000
0001
0301
1000
0000
2002
0000
,  // measure 44
0000
0000
3003
0020
,  // measure 45
0000
0000
1000
1030
0001
0000
2002
0000
,  // measure 46
3000
0203
0000
0301
;

//---------------dance-single - ----------------
#NOTES:
     dance-single:
     :
     Hard:
     7:
     0.434,0.378,0.082,0.020,0.067: // measure 1
0001
1000
0001
0000
0100
0000
0010
0000
,  // measure 2
1000
0001
1000
0000
0100
0000
0010
0000
,  // measure 3
0001
0100
0001
0000
0100
0010
0100
0000
,  // measure 4
1001
0000
0000
0000
0010
0000
0001
0000
0100
0000
0000
0100
0000
0000
0010
0000
,  // measure 5
1000
0000
0000
0000
0100
0000
1000
0000
0010
0000
0000
0010
0000
0000
0100
0000
,  // measure 6
0001
0000
0000
0000
0010
0000
0001
0000
0100
0000
0000
0100
0000
0000
0010
0000
,  // measure 7
1000
0000
0000
0000
0100
0000
1000
0000
0010
0000
0000
0010
0000
0000
0100
0000
,  // measure 8
0001
0000
0000
0000
0100
0000
0001
0000
0010
0000
0000
0010
0000
0000
0100
0000
,  // measure 9
1000
0000
0000
0000
0010
0000
1000
0000
0100
0000
0000
0100
0000
0000
0010
0000
,  // measure 10
0001
0000
0000
0000
0100
0000
0001
0000
0010
0000
0000
0010
0000
0000
0100
0000
,  // measure 11
1000
0000
0000
0000
0010
0000
1000
0000
0100
0000
0000
0100
0000
0000
0010
0000
,  // measure 12
0001
0000
1000
0001
0010
0100
1000
0010
,  // measure 13
0100
0000
0001
0000
1000
0000
1000
0000
1000
0000
0000
0001
0000
0000
0100
0000
,  // measure 14
0101
0000
0001
1000
0100
0010
0001
0100
,  // measure 15
0010
0000
1000
0000
0001
0000
0001
0000
0001
0000
0000
1000
0000
0000
0010
0000
,  // measure 16
1010
0000
1000
0001
0010
0100
1000
0010
,  // measure 17
0100
0000
0001
0000
1000
0000
1000
0000
1000
0000
0000
0001
0000
0000
0100
0000
,  // measure 18
0101
0000
1001
0000
0000
0000
0010
1000
,  // measure 19
0100
0000
1000
0001
1000
0001
0100
0000
,  // measure 20
0100
0000
0100
0001
0100
0010
1000
0010
,  // measure 21
0100
0000
0001
1000
0001
1000
0010
0000
,  // measure 22
0010
0000
0010
1000
0010
0100
0001
0000
,  // measure 23
0001
1000
0001
1000
0010
0000
0010
0000
,  // measure 24
0010
0100
0010
1000
0001
0000
0001
0000
,  // measure 25
1000
0000
0010
0000
0100
0000
0100
0010
,  // measure 26
0100
0000
0100
0001
1000
0000
0001
1000
,  // measure 27
0100
0010
0001
0100
0001
0000
1000
0001
,  // measure 28
0010
0100
1000
0100
0001
0100
1000
0001
,  // measure 29
0010
0100
1000
0010
1000
0000
0001
1000
,  // measure 30
0100
0010
0001
0010
1000
0010
0001
1000
,  // measure 31
0100
0010
0001
0100
0001
0000
1000
0001
,  // measure 32
0010
0100
1000
0100
0001
0100
1000
0001
,  // measure 33
0010
0100
1000
0010
1000
0000
0001
1000
,  // measure 34
0100
0000
0010
0000
0001
0000
0010
0000
1000
0000
0010
0000
0001
0000
0000
0001
,  // measure 35
0000
0001
0000
0000
0000
0000
0100
0001
,  // measure 36
1000
0000
0100
0000
1000
0000
0001
0000
1000
0000
0001
0000
1000
0000
0000
1000
,  // measure 37
0000
1000
0000
0000
0000
0000
0010
1000
,  // measure 38
0001
0010
0001
1000
0001
1000
0001
0100
,  // measure 39
0001
0000
0001
0100
0001
0000
0100
0001
,  // measure 40
1000
0100
1000
0001
1000
0001
1000
0010
,  // measure 41
1000
0000
1000
0010
1000
0000
0001
0100
,  // measure 42
0010
1000
0100
1000
0001
0100
0001
0010
,  // measure 43
0100
0000
1000
1000
0010
0000
1001
0000
,  // measure 44
0001
0000
1000
0000
0010
0000
1000
0100
,  // measure 45
0010
0000
0001
0001
0100
0000
1001
0000
,  // measure 46
0001
1000
0010
0220
,  // measure 47
0000
0330
0000
0000
0000
0000
0000
0000
;

//---------------dance-single - ----------------
#NOTES:
     dance-single:
     :
     Challenge:
     8:
     0.489,0.425,0.195,0.010,0.108: // measure 1
0010
0001
1000
0000
0010
1000
0100
0010
,  // measure 2
0001
1000
0001
0000
0001
0010
0100
1000
,  // measure 3
0010
0100
0010
0000
0010
1000
0001
0000
,  // measure 4
1001
0000
0000
0000
0100
0000
0001
0000
0010
0000
0000
0010
0000
0001
1000
0000
,  // measure 5
0001
0000
0000
0000
0100
0000
0001
0000
0010
0000
0000
0010
0000
0000
0001
0000
,  // measure 6
1000
0000
0000
0000
0010
0000
1000
0000
0100
0000
0000
0100
0000
1000
0001
0000
,  // measure 7
1000
0000
0000
0000
0010
0000
1000
0000
0100
0000
0000
0100
0000
0000
1000
0000
,  // measure 8
0001
0000
0000
0000
0010
0000
0001
0000
0100
0000
0000
0100
0000
0001
1000
0000
,  // measure 9
0001
0000
0000
0000
0010
0000
0001
0000
0100
0000
0000
0100
0000
0000
0001
0000
,  // measure 10
1000
0000
0000
0000
0010
0000
0100
0000
0010
0000
0000
1000
0000
0001
0100
0000
,  // measure 11
1001
0000
0000
0000
0100
0000
0010
0000
0100
0000
0000
0001
0000
0000
1000
0000
,  // measure 12
1001
0000
1000
0100
0010
0100
1000
0001
,  // measure 13
0010
0000
0100
0000
1000
0000
0010
0000
1000
0000
0000
1010
0000
0000
0010
0000
,  // measure 14
1001
0000
0001
0010
0100
0010
0001
1000
,  // measure 15
0100
0000
0010
0000
0001
0000
0100
0000
0001
0000
0000
0101
0000
0000
0100
0000
,  // measure 16
1001
0000
1000
0100
0010
0100
1000
0100
,  // measure 17
0010
0000
0001
0000
1000
0000
0100
0000
1000
0000
0000
1010
0000
0000
0010
0000
,  // measure 18
1001
0000
1001
0000
0000
0000
0010
0100
,  // measure 19
0010
0000
0010
1000
0100
0000
0010
0001
,  // measure 20
0010
0000
0010
0001
0100
0010
0100
0010
,  // measure 21
0100
0000
0100
0001
0010
0000
0100
1000
,  // measure 22
0100
0000
0000
0000
0100
0000
1000
0000
0010
0000
0100
0000
0001
1000
0000
0000
,  // measure 23
1000
0000
0010
1000
0000
0000
0010
0000
0100
0000
0010
0000
1000
0001
0000
0000
,  // measure 24
0001
0000
0100
0001
0000
0000
0100
0000
0110
0000
0000
0000
0010
0000
1000
0000
,  // measure 25
0010
0000
0010
0100
0010
0000
0010
1000
,  // measure 26
0100
0000
0010
0001
1000
0000
0001
0010
,  // measure 27
0100
0010
0001
0010
0100
1000
0001
0010
,  // measure 28
1000
0010
0001
0010
0100
0000
1000
0100
,  // measure 29
0010
0100
1000
0100
0010
0001
1000
0100
,  // measure 30
0001
0100
1000
0100
0010
0000
0001
0010
,  // measure 31
0100
0010
0001
0010
0100
1000
0001
0010
,  // measure 32
1000
0010
0001
0010
0100
0000
1000
0100
,  // measure 33
0010
0100
1000
0100
0010
0001
0010
1000
,  // measure 34
0010
0000
0001
0000
0010
0000
0100
0000
1000
0000
0010
0000
0101
0000
0000
0101
,  // measure 35
0000
0101
0000
0001
1000
0000
0010
1000
,  // measure 36
0001
0000
0100
0000
0010
0000
0100
0000
0001
0000
0100
0000
1010
0000
0000
1010
,  // measure 37
0000
1010
0000
1000
0001
0000
0100
0001
,  // measure 38
1000
0010
0100
0010
1000
0001
0010
0100
,  // measure 39
1000
0001
0010
0100
1000
0000
0010
1000
,  // measure 40
0001
0100
0010
0100
0001
1000
0100
0010
,  // measure 41
0001
1000
0100
0010
0001
0000
0100
0001
,  // measure 42
1000
0010
0100
0010
1000
0100
0001
0010
,  // measure 43
0100
1000
0001
0001
0100
0000
1001
0000
,  // measure 44
1000
0010
1000
0000
1000
0001
1000
0100
,  // measure 45
0010
0001
1000
1000
0010
0000
1001
0000
,  // measure 46
0001
0100
0001
0010
1000
0010
0200
0000
,  // measure 47
0000
0300
0000
0000
0000
0000
0000
0000
;
