#TITLE:EMPRESS PLACE;
#SUBTITLE:(with you);
#ARTIST:Remixed by Yamajet feat. miromu;
#TITLETRANSLIT:;
#SUBTITLETRANSLIT:;
#ARTISTTRANSLIT:;
#CREDIT:DMAxel;
#BANNER:EMPRESS PLACE (with you).png;
#BACKGROUND:EMPRESS PLACE (with you)-bg.png;
#LYRICSPATH:;
#CDTITLE:BEMANI game remix.png;
#MUSIC:EMPRESS PLACE (with you).mp3;
#OFFSET:-8.140;
#SAMPLESTART:26.328;
#SAMPLELENGTH:12.000;
#SELECTABLE:YES;
#BPMS:0.000=144.970;
#STOPS:11.500=1.656
;
#BGCHANGES:;

//---------------dance-single - ----------------
#NOTES:
     dance-single:
     :
     Easy:
     2:
     0.168,0.181,0.035,0.147,0.000:
0001
0000
0000
0000
,
1000
0000
0000
0000
,
0001
0000
0000
0000
0000
0000
0000
0001
,
1000
0000
1000
0000
,
1000
0000
1000
0000
,
0001
0000
0001
0000
,
0001
0000
0001
0000
,
1000
0000
0001
0000
,
1000
0000
0001
0000
,
0100
0000
0100
0000
,
0200
0000
0000
0000
,
0310
0000
1000
0000
,
0010
0000
1000
0000
,
0001
0000
0100
0000
,
0001
0000
0010
0000
,
0100
0000
1000
0000
,
0100
0000
1000
0000
,
0001
0000
0010
0000
,
0001
0000
1000
0000
,
0001
0000
0010
0000
,
0100
0000
1000
0000
,
0001
0000
1000
0000
,
0001
0000
0001
0000
,
1000
0000
0100
0000
,
0010
0000
0001
0000
,
1000
0000
0001
0000
,
1000
0000
1000
0000
,
1001
0000
0000
0000
,
1001
0000
0000
0000
,
0110
0000
0000
0000
,
0110
0000
0000
0000
,
0010
0000
0100
0000
,
0010
0000
0100
0000
,
0001
0000
0100
0000
,
0010
0000
1000
0000
,
0010
0000
0010
0000
,
0100
0000
0100
0000
,
0010
0000
0010
0000
,
0100
0000
0010
0000
,
2000
0000
0001
0000
,
3002
0000
1000
0000
,
2003
0000
0001
0000
,
3001
0000
0010
0000
,
0200
0000
0010
0000
,
0302
0000
0010
0000
,
0203
0000
0010
0000
,
0302
0000
0000
0000
,
2003
0000
0010
0000
,
3020
0000
0100
0000
,
0230
0000
0001
0000
,
0302
0000
1000
0000
,
2003
0000
0010
0000
,
3020
0000
0100
0000
,
0230
0000
0001
0000
,
0302
0000
0000
0000
,
1003
1000
1000
0000
,
0001
0001
0001
0000
,
1000
1000
1000
0000
,
0001
0001
0001
0010
,
0200
0000
0000
0000
,
0300
0000
0000
0000
;

//---------------dance-single - ----------------
#NOTES:
     dance-single:
     :
     Medium:
     6:
     0.382,0.389,0.026,0.164,0.000:
2000
0000
0000
0000
,
3020
0000
0000
0230
0000
0000
0000
0000
,
0302
0000
0000
0000
0000
0003
0000
1000
,
0001
0001
0001
0001
,
1000
1000
1000
1000
,
0001
0001
0001
0001
,
1000
1000
1000
1000
,
0001
0010
0100
1000
,
0001
0010
0100
1000
,
0010
0100
0010
1000
,
0002
0000
0000
0000
,
2003
0100
0100
3100
,
0010
0000
0001
0000
1000
0001
1000
0000
,
0002
0010
0010
0013
,
0100
0000
1000
0000
0001
1000
0001
0000
,
0200
0001
0001
0301
,
0010
0000
0100
0000
1000
0001
1000
0000
,
0020
1000
1000
1030
,
0100
0000
0010
0000
0001
1000
0001
0000
,
0200
0010
0010
0310
,
1000
0000
0001
0000
0100
0010
0100
0000
,
0020
0100
0100
0130
,
0001
0000
1000
0000
0010
0100
0010
0000
,
0102
0100
0100
0103
,
0010
1000
0010
0000
1000
0001
1000
0000
,
2010
0010
0010
3010
,
0100
0001
0100
0000
0001
1000
0001
0000
,
1001
0000
1000
0000
1000
0000
1000
0100
,
0010
0000
0010
0000
0010
0000
0010
0001
,
0100
0000
0100
0000
0100
0000
0100
0010
,
2000
0000
0000
0000
,
3001
1000
0001
1000
,
0010
0100
0010
0100
,
0001
0010
0001
0010
,
0100
1000
0100
1000
,
0010
0100
0010
0000
0200
0000
0301
0000
,
0100
0010
0100
0000
0020
0000
1030
0000
,
0010
0100
0010
0000
0200
0000
0301
0000
,
0100
0010
0100
0000
0020
0000
1030
0000
,
0001
0100
0001
0100
0001
0000
0001
0000
,
1000
0010
1000
0010
1000
0000
1000
0000
,
0001
0010
0001
0010
0001
0000
0001
0000
,
1000
0100
1000
0100
1000
0000
1000
0000
,
0010
1000
0010
0100
0001
0000
0001
0000
,
0100
0001
0100
0010
1000
0000
1000
0000
,
0010
1000
0010
0100
0001
0000
0001
0000
,
0100
0001
0100
0010
1000
0000
1000
0001
,
1000
0100
0010
0001
0100
0000
0100
0000
,
0001
0010
0100
1000
0010
0000
0010
0000
,
1000
0100
0010
0001
0100
0000
0100
0000
,
0001
0010
0100
1000
0010
0000
0010
0100
,
0010
1000
0100
0010
0001
0000
0001
0000
,
0100
0001
0010
0100
1000
0000
1000
0000
,
0010
1000
0100
0010
0001
0000
0001
0000
,
0100
0001
0010
0100
1000
0000
1000
0000
,
0001
0100
0001
0100
0001
0100
0001
0000
,
1000
0100
1000
0100
1000
0100
1000
0000
,
0001
0010
0001
0010
0001
0010
0001
0000
,
1000
0010
1000
0010
1000
0001
0100
0010
,
0200
0000
0000
0000
,
0300
0000
0000
0000
;

//---------------dance-single - ----------------
#NOTES:
     dance-single:
     :
     Hard:
     7:
     0.469,0.466,0.155,0.043,0.130:
0001
0100
0001
0100
,
0010
0000
1000
0001
1000
0000
0001
0000
,
1000
0000
0010
0000
1000
0000
0001
1000
,
0001
0000
0001
1000
0100
0010
0001
0000
,
0001
0000
0001
1000
0100
0010
0001
0000
,
1000
0000
1000
0001
0010
0100
1000
0000
,
1000
0000
1000
0001
0010
0100
1000
0000
,
0010
1000
0010
1000
0010
1000
0010
1000
,
0001
0100
0001
0100
0001
0100
0001
0100
,
0001
1000
0001
1000
0001
1000
0001
1000
,
2002
0000
0000
3003
,
0101
0000
0001
0000
0001
0010
0100
1000
,
0010
0100
0010
0000
0010
1000
0001
0010
,
0100
0000
0110
0000
1000
0100
0010
0001
,
0100
0010
0100
0001
1000
0000
1001
0000
,
1010
0000
1000
0000
1000
0100
0010
0001
,
0100
0010
0100
0000
0100
0001
1000
0100
,
0010
0000
0110
0000
0001
0010
0100
1000
,
0010
0100
0010
1000
0001
0000
1001
0000
,
1100
0000
0100
0000
1100
0000
0010
0001
,
0100
0000
0110
0000
0100
0010
1000
0100
,
0010
0101
0100
0110
,
1000
0100
0001
0100
1000
0010
0100
0000
,
0011
0000
0010
0000
0011
0000
0100
1000
,
0010
0000
0110
0000
0010
0100
0001
0010
,
0100
1010
0010
0110
,
0001
0100
1000
0100
0001
0010
0100
1000
,
0001
0000
0000
0001
0000
0000
0001
0000
0000
0001
0000
0000
0001
0000
0100
0000
,
1000
0000
0000
1000
0000
0000
1000
0000
0000
1000
0000
0000
1000
0000
0100
0000
,
0001
0000
0000
0001
0000
0000
0001
0000
0000
0001
0000
0000
0001
0000
0100
0000
,
0020
0000
0000
0000
,
1030
0100
0010
0001
,
1000
0100
0010
0001
,
0100
0010
1000
0001
,
0100
0000
0010
0000
1000
0000
0001
1000
,
0001
0000
0100
0000
0000
0010
0000
0000
0100
0000
0000
0010
0000
0000
0100
0000
,
0000
0000
0001
0000
0000
1000
0000
0000
0001
0000
0000
1000
0000
0000
0001
0000
,
0000
0000
1000
0000
0000
0100
0000
0000
1000
0000
0000
0100
0000
0000
1000
0000
,
0000
0000
0001
0000
0000
0010
0000
0000
0001
0000
0000
0010
0000
0000
0001
0000
,
1000
0100
0010
0100
1000
0001
0100
0001
,
1000
0100
0010
0100
1000
0001
0100
0000
,
0001
0010
0100
0010
0001
1000
0010
1000
,
0001
0010
0100
0010
0001
1000
0010
0000
,
0100
0001
0010
0100
0010
0001
1000
0001
,
0100
0001
0010
0100
0010
0001
1000
0000
,
0010
1000
0100
0010
0100
1000
0001
1000
,
0010
1000
0100
0010
0100
1000
0001
0100
,
0001
0000
0010
0000
0100
0000
0000
1000
0000
0000
0100
0000
0001
0000
0100
0000
,
1000
0000
0100
0000
0010
0000
0000
0001
0000
0000
0100
0000
1000
0000
0100
0000
,
0001
0000
0010
0000
0100
0000
0000
1000
0000
0000
0010
0000
0001
0000
0010
0000
,
1000
0000
0000
0001
0000
0000
0100
0000
0010
0000
0000
1000
0000
0000
0010
0000
,
0100
0000
0001
0000
0010
0000
0100
0000
0000
0010
0000
0000
0001
0000
1000
0000
,
0010
0000
1000
0000
0100
0000
0010
0000
0000
0100
0000
0000
1000
0000
0001
0000
,
0100
0000
0001
0000
0010
0000
0100
0000
0000
0010
0000
0000
0001
0000
1000
0000
,
0010
0000
0000
0100
0000
0000
0001
0000
0000
1000
0000
0000
0010
0000
0100
0000
,
0010
0000
0000
1000
0000
0000
0010
0000
0000
1000
0000
0000
0001
0000
0010
0000
,
0100
0000
0000
1000
0000
0000
0100
0000
0000
1000
0000
0000
0001
0000
0100
0000
,
0010
0000
0000
0100
0000
0000
0001
0000
0000
0010
0000
0000
0100
0000
0010
0000
,
0001
1000
0100
0010
0001
1000
0010
0100
,
0220
0000
0000
0000
,
0330
0000
0000
0000
;

//---------------dance-single - ----------------
#NOTES:
     dance-single:
     :
     Challenge:
     8:
     0.559,0.518,0.250,0.086,0.523: // measure 1
1001
0010
0100
1000
,  // measure 2
0110
0000
0000
2002
0000
0000
3003
0000
,  // measure 3
1000
0000
0010
0000
0100
0000
0001
1000
,  // measure 4
1001
0000
0000
0001
0000
0000
0001
0000
0100
0000
0000
0100
0000
0000
0100
0000
,  // measure 5
1000
0000
0000
1000
0000
0000
1000
0000
0100
0000
0000
0100
0000
0000
0100
0000
,  // measure 6
0001
0000
0000
0001
0000
0000
0001
0000
1000
0000
0000
1000
0000
0000
1000
0000
,  // measure 7
0010
0000
0000
0010
0000
0000
0010
0000
0100
0000
0000
0100
0000
0000
0100
0000
,  // measure 8
0001
0100
0010
0100
0001
0100
0010
0100
,  // measure 9
0001
1000
0100
0010
0100
1000
0100
0010
,  // measure 10
0100
1000
0010
0100
0001
0010
0100
1000
,  // measure 11
0110
0000
0000
0010
0000
0000
0010
0000
0000
0010
0000
0000
0010
0000
0000
0000
,  // measure 12
1001
0000
0000
1000
0000
0000
0001
0000
0000
0100
0000
0000
0010
0000
1000
0000
,  // measure 13
0001
0000
0000
0001
0000
0000
1000
0000
0000
0010
0000
0000
0100
0000
0001
0000
,  // measure 14
1000
0000
0000
0100
0000
0000
0010
0000
0000
0001
0000
0000
0100
0000
0010
0000
,  // measure 15
2000
0000
0000
0001
0000
0000
0001
0000
0000
0001
0000
0000
3001
0000
0100
0000
,  // measure 16
0001
0000
0000
0001
0000
0000
1000
0000
0000
0010
0000
0000
0100
0000
0001
0000
,  // measure 17
1000
0000
0000
1000
0000
0000
0001
0000
0000
0100
0000
0000
0010
0000
1000
0000
,  // measure 18
0001
0000
0000
0010
0000
0000
0100
0000
0000
1000
0000
0000
0010
0000
0100
0000
,  // measure 19
0002
0000
0000
1000
0000
0000
1000
0000
0000
1000
0000
0000
1003
0000
0010
0000
,  // measure 20
1000
0000
0000
0100
0000
0000
0010
0000
0000
0001
0000
1000
0010
0000
1000
0000
,  // measure 21
0001
0000
0000
0010
0000
0000
0100
0000
0000
1000
0000
0001
0100
0000
0001
0000
,  // measure 22
1000
0000
0000
0100
0000
0000
0010
0000
0000
0001
0000
1000
0010
0000
1000
0000
,  // measure 23
0001
0000
0000
0101
0000
0000
0001
0000
0000
0101
0000
0000
1000
0000
0100
0000
,  // measure 24
1000
0000
0000
0010
0000
0000
0100
0000
0000
0001
0000
1000
0100
0000
1000
0000
,  // measure 25
0001
0000
0000
0100
0000
0000
0010
0000
0000
1000
0000
0001
0010
0000
0001
0000
,  // measure 26
1000
0000
0000
0010
0000
0000
0100
0000
0000
0001
0000
1000
0100
0000
1000
0000
,  // measure 27
0001
0000
0000
0101
0000
0000
0001
0000
0000
0101
0000
0000
1000
0000
0100
0000
,  // measure 28
1000
0000
0000
1000
0100
0000
0000
0100
0001
0000
0000
0001
0100
0000
0010
0000
,  // measure 29
1000
0000
0000
1000
0100
0000
0000
0100
0001
0000
0000
0001
0100
0000
0010
0000
,  // measure 30
1000
0000
0000
1000
0100
0000
0000
0100
0001
0000
0000
0001
1000
0000
0100
0000
,  // measure 31
0020
0000
0000
0100
0000
0000
0100
0000
0000
0100
0000
0000
0130
0000
0000
0000
,  // measure 32
2001
0100
0001
0100
,  // measure 33
3002
0100
1000
0100
,  // measure 34
2003
0100
0001
0100
,  // measure 35
3001
0000
0000
0000
0010
0000
0000
0000
0100
0000
0000
0000
1000
0000
0001
1000
,  // measure 36
0001
0000
0100
0000
0001
0100
0000
0001
0100
0000
0000
0110
0000
0000
1010
0000
,  // measure 37
0000
0000
0010
0000
1000
0010
0000
1000
0010
0000
0000
0110
0000
0000
0101
0000
,  // measure 38
0000
0000
1000
0000
0100
1000
0000
0100
1000
0000
0000
0110
0000
0000
1001
0000
,  // measure 39
0000
0000
0001
0000
0010
0001
0000
0010
0001
0000
0000
0110
0000
0000
1000
0000
,  // measure 40
0001
0000
0010
0000
0100
0000
1000
0010
0000
1000
0010
0000
1000
0000
1000
0000
,  // measure 41
0001
0000
0010
0000
0100
0000
1000
0010
0000
1000
0010
0000
0100
0000
0001
0000
,  // measure 42
1000
0000
0100
0000
0010
0000
0001
0100
0000
0001
0100
0000
0001
0000
0001
0000
,  // measure 43
1000
0000
0000
1010
0000
0000
0001
0000
0010
0000
0000
0011
0000
0000
1000
0000
,  // measure 44
0001
0000
0010
0000
0100
0000
1000
0010
0000
0100
0010
0000
1000
0000
1000
0000
,  // measure 45
0001
0000
0010
0000
0100
0000
1000
0010
0000
0100
0010
0000
1000
0000
0001
0000
,  // measure 46
1000
0000
0100
0000
0010
0000
0001
0100
0000
0010
0100
0000
0001
0000
0001
0000
,  // measure 47
1000
0000
0000
1010
0000
0000
1000
0000
0010
0000
0000
1010
0000
0000
0001
0000
,  // measure 48
1000
0000
0100
0000
0010
0000
0100
1000
0000
0010
0100
0000
0001
0000
1000
0000
,  // measure 49
0001
0000
0010
0000
0100
0000
0010
0001
0000
0100
0010
0000
1000
0000
0001
0000
,  // measure 50
1000
0000
0100
0000
0010
0000
0100
1000
0000
0010
0100
0000
0001
0000
1000
0000
,  // measure 51
0001
0000
0000
0011
0000
0000
0100
0000
0010
0000
0000
1100
0000
0000
0001
0000
,  // measure 52
1000
0000
0010
0000
0100
0000
0010
1000
0000
0001
0010
0000
0100
0000
1000
0000
,  // measure 53
0001
0000
0100
0000
0010
0000
0100
0001
0000
1000
0100
0000
0010
0000
0001
0000
,  // measure 54
1000
0000
0010
0000
0100
0000
0010
1000
0000
0001
0010
0000
0100
0000
1000
0000
,  // measure 55
0001
0000
0000
0011
0000
0000
0100
0000
0000
0110
0000
0000
0010
0000
1000
0000
,  // measure 56
0001
0010
0000
0001
0010
0000
0100
1000
0000
0010
0000
0100
0010
0000
1000
0000
,  // measure 57
0001
0010
0000
0001
0010
0000
0100
1000
0000
0010
0000
0100
0010
0000
1000
0000
,  // measure 58
0001
0000
0000
0011
0000
0000
1010
0000
0000
0010
0000
0100
0001
0000
1000
0000
,  // measure 59
0100
0000
0010
0001
0010
0000
0100
1000
0100
0000
0010
0001
0010
0001
1000
0000
,  // measure 60
2002
0000
0000
0000
,  // measure 61
3003
0000
0000
0000
;

//---------------dance-single - ----------------
#NOTES:
     dance-single:
     :
     Beginner:
     1:
     0.075,0.102,0.043,0.000,0.000:
1000
0000
0000
0000
,
0000
0000
0000
0000
,
0001
0000
0000
0000
,
1001
0000
0000
0000
,
0001
0000
0000
0000
,
0001
0000
0000
0000
,
0001
0000
0000
0000
,
1001
0000
0000
0000
,
1000
0000
0000
0000
,
0001
0000
0000
0000
,
1000
0000
0000
0000
,
1000
0000
0000
0000
,
0001
0000
0000
0000
,
0001
0000
0000
0000
,
0100
0000
0000
0000
,
0010
0000
0000
0000
,
0100
0000
0000
0000
,
0010
0000
0000
0000
,
1000
0000
0000
0000
,
1000
0000
0000
0000
,
0001
0000
0000
0000
,
1000
0000
0000
0000
,
0001
0000
0000
0000
,
0100
0000
0000
0000
,
0100
0000
0000
0000
,
0010
0000
0000
0000
,
0100
0000
0000
0000
,
1001
0000
0000
0000
,
0001
0000
0000
0000
,
0001
0000
0000
0000
,
0000
0000
0000
0000
,
1000
0000
0000
0000
,
0000
0000
0000
0000
,
1000
0000
0000
0000
,
0000
0000
0000
0000
,
1000
0000
0000
0000
,
0001
0000
0000
0000
,
1000
0000
0000
0000
,
0010
0000
0000
0000
,
0100
0000
0000
0000
,
0001
0000
0000
0000
,
1000
0000
0000
0000
,
0001
0000
0000
0000
,
1000
0000
0000
0000
,
0001
0000
0000
0000
,
0100
0000
0000
0000
,
0010
0000
0000
0000
,
1000
0000
0000
0000
,
0001
0000
0000
0000
,
1000
0000
0000
0000
,
0001
0000
0000
0000
,
1000
0000
0000
0000
,
0010
0000
0000
0000
,
0100
0000
0000
0000
,
0001
0000
0000
0000
,
1001
0000
0000
0000
,
1000
0000
0000
0000
,
1000
0000
0000
0000
,
0001
0000
0000
0000
,
1001
0000
0000
0000
;
