#TITLE:エレクトロ・ワールド;
#SUBTITLE:;
#ARTIST:Perfume;
#TITLETRANSLIT:ELECTRO WORLD;
#SUBTITLETRANSLIT:;
#ARTISTTRANSLIT:;
#CREDIT:DMAxel;
#BANNER:ELECTRO WORLD.png;
#BACKGROUND:ELECTRO WORLD-bg.png;
#LYRICSPATH:ELECTRO WORLD.lrc;
#CDTITLE:DMAxel original simfile.png;
#MUSIC:ELECTRO WORLD.mp3;
#OFFSET:-0.060;
#SAMPLESTART:34.396;
#SAMPLELENGTH:12.000;
#SELECTABLE:YES;
#BPMS:0.000=143.280;
#STOPS:;
#BGCHANGES:-0.500=ELECTRO WORLD.avi=1.000=1=1=0,
99999=-nosongbg-=1.000=0=0=0 // don't automatically add -songbackground-
;

//---------------dance-single - ----------------
#NOTES:
     dance-single:
     :
     Easy:
     2:
     0.202,0.231,0.127,0.127,0.000:
0000
0000
0000
0000
,
0000
0000
0000
0000
,
0000
0000
0000
0000
,
0000
0000
0000
0000
,
1000
0000
1000
0000
,
1000
0000
1000
0000
,
0001
0000
0001
0000
,
0001
0000
0001
0000
,
1000
0000
1000
0000
,
1000
0000
1000
0000
,
0001
0000
0001
0000
,
0001
0000
2000
0000
,
3001
0000
0010
0000
,
0001
0000
1000
0000
,
0100
0000
1000
0000
,
0010
0000
0100
0000
,
0001
0000
0010
0000
,
0100
0000
1000
0000
,
0001
0000
1000
0000
,
0001
0000
0000
0000
,
1001
0000
1000
0000
,
0100
0000
1000
0000
,
1000
0000
0002
0000
,
1000
0000
1003
0000
,
1000
0000
0001
0000
,
0010
0000
0001
0000
,
1000
0000
2000
0000
,
0001
0000
3001
0000
,
0001
0000
1000
0000
,
0100
0000
1000
0000
,
0001
0000
0200
0000
,
0010
0000
0310
0000
,
0010
0000
0001
0000
,
0010
0000
0001
0000
,
1000
0000
0020
0000
,
0100
0000
0130
0000
,
0000
0000
2001
0000
,
0001
0000
3001
0000
,
0010
0100
2000
0000
,
0001
0000
3001
1000
,
0100
0010
0002
0000
,
1000
0000
1003
0000
,
0100
0010
0002
0000
,
1000
0000
1003
0001
,
0010
0100
2000
0000
,
0001
0000
3001
0000
,
0100
0010
0002
0000
,
1000
0000
1003
0001
,
0010
0100
2000
0000
,
0001
0000
3001
0010
,
0001
1000
0001
0000
,
0001
0000
1000
1000
,
1000
0000
1001
0000
,
0110
0000
1001
0000
,
0000
0000
1001
0000
,
0110
0000
1001
0000
,
0000
0000
1001
0000
,
0110
0000
1001
0000
,
0000
0000
1001
0000
,
0110
0000
1001
0000
,
0001
0000
2000
0000
,
0100
0000
0010
0000
,
3001
0000
0002
0000
,
0010
0000
0100
0000
,
1003
0000
2000
0000
,
0100
0000
0010
0000
,
3001
0000
0001
0000
,
1000
0000
0000
0001
,
0001
1001
0000
0000
;

//---------------dance-single - ----------------
#NOTES:
     dance-single:
     :
     Challenge:
     8:
     0.546,0.491,0.178,0.076,0.313: // measure 1
0000
0000
0000
0000
,  // measure 2
0000
0000
0000
0000
,  // measure 3
0000
0000
0000
0000
,  // measure 4
0000
0000
0000
0000
,  // measure 5
1000
0000
0100
0000
0010
0000
0001
1000
,  // measure 6
0010
0000
0100
0000
0001
0000
1000
0001
,  // measure 7
0010
0000
0100
0000
1000
0000
0010
1000
,  // measure 8
0001
0000
0010
0000
0100
0000
1000
0001
,  // measure 9
0010
0000
0100
0000
0010
0000
0001
1000
,  // measure 10
0100
0000
0010
0000
0001
0000
1000
0001
,  // measure 11
0100
0000
0001
0000
1000
0000
0010
1000
,  // measure 12
0001
0000
0000
0000
0001
1000
1001
0000
,  // measure 13
0010
0001
0000
0010
0001
1000
0001
0001
,  // measure 14
0010
0001
0000
0010
0001
1000
0001
0010
,  // measure 15
0100
1000
0000
0100
1000
0001
1000
1000
,  // measure 16
0100
1000
0000
0100
1000
0001
1000
0010
,  // measure 17
0100
0001
0000
0100
0001
1000
0001
0001
,  // measure 18
0100
0001
0000
0100
0001
1000
0001
0100
,  // measure 19
0010
1000
0000
0010
1000
0001
1000
1000
,  // measure 20
0020
0000
0000
0130
0000
0001
1000
0001
,  // measure 21
1000
1000
0010
0010
1000
0100
0010
0001
,  // measure 22
0100
0010
0100
0001
1000
1000
0001
0001
,  // measure 23
1000
1000
0001
0010
0100
1000
0020
0000
,  // measure 24
1000
0000
1030
0001
0200
0000
0001
0000
,  // measure 25
0301
0000
1001
0000
0001
0010
0100
1000
,  // measure 26
0010
0100
0010
1000
0001
0001
1000
1000
,  // measure 27
0001
0001
0010
0100
1000
0001
0200
0000
,  // measure 28
0001
0000
0001
0000
0301
1000
0000
1000
,  // measure 29
0001
0000
0010
0000
0001
0000
0010
0000
0001
0000
1000
0100
0000
0000
0100
0010
,  // measure 30
0000
0000
0010
0001
0000
0000
0001
1000
0000
0000
0100
1000
0000
0000
0001
0010
,  // measure 31
0000
0000
0001
1000
0000
0000
1000
0010
1000
0000
0001
0000
0200
0000
0000
0000
,  // measure 32
0001
0000
0301
1000
0020
0000
1000
0000
,  // measure 33
1030
0000
0000
0000
1000
0000
0001
0000
0010
0000
0001
0010
0000
0000
0010
0100
,  // measure 34
0000
0000
0100
1000
0000
0000
1000
0001
0000
0000
0010
0001
0000
0000
1000
0100
,  // measure 35
0000
0000
1000
0001
0000
0000
0001
0100
0001
0000
1000
0000
0020
0000
0000
0000
,  // measure 36
1000
1030
0110
0010
,  // measure 37
0010
0000
0001
0000
0100
0000
0010
0000
1000
0000
0001
0100
0000
0000
0100
0010
,  // measure 38
0000
0000
0010
1000
0000
0000
1000
0010
0000
0000
0010
0100
0000
0000
0100
0001
,  // measure 39
0000
0000
1000
0001
0000
0000
1000
0010
0000
0000
1000
0100
0000
0000
0100
0010
,  // measure 40
0000
0000
0010
0001
0000
0000
0001
1000
0000
0000
0010
1000
0000
0000
0001
1000
,  // measure 41
0000
0000
0001
0100
0000
0000
0001
0010
0000
0000
0010
0100
0000
0000
0100
1000
,  // measure 42
0000
0000
1000
0100
0000
0000
0100
0010
0000
0000
0010
0001
0000
0000
0100
0001
,  // measure 43
0000
0000
1000
0001
0000
0000
1000
0010
0000
0000
1000
0100
0000
0000
0100
0010
,  // measure 44
0000
0000
0010
0001
0000
0000
0001
1000
0000
0000
1000
0010
0000
0000
0100
0001
,  // measure 45
0000
0000
1000
0000
0010
0100
0010
0000
1000
0000
0001
0010
0000
0000
0010
0100
,  // measure 46
0000
0000
0100
1000
0000
0000
1000
0010
0000
0000
0010
0100
0000
0000
0100
0001
,  // measure 47
0000
0000
0100
0010
0000
0000
1000
0010
0000
0000
1000
0100
0000
0000
0100
0010
,  // measure 48
0000
0000
0010
0001
0000
0000
0001
0100
0000
0000
0100
0010
0000
0000
0010
1000
,  // measure 49
0000
0000
0010
0100
0000
0000
0001
1000
0000
0000
1000
0100
0000
0000
0010
0001
,  // measure 50
0000
0000
0001
1000
0000
0000
1000
0001
0000
0000
0001
0010
0000
0000
0100
1000
,  // measure 51
0000
0000
1000
0001
0000
0000
0001
0010
0000
0000
0010
0100
0000
0000
0100
1000
,  // measure 52
0000
0000
0001
1000
0001
0000
0100
0000
0110
0000
0000
0000
1001
0000
0000
0000
,  // measure 53
1000
0001
1000
0001
0101
0100
0000
0000
,  // measure 54
1010
0010
1000
0001
1001
0000
0000
1010
,  // measure 55
0000
0000
1000
0000
1010
0010
0000
0000
,  // measure 56
0101
0100
0001
1000
1001
0000
0000
0101
,  // measure 57
0000
0000
0001
0000
0011
0010
0000
0000
,  // measure 58
1100
0100
1000
0001
1001
0000
0000
1100
,  // measure 59
0000
0000
1000
0000
1100
0100
0000
0000
,  // measure 60
0011
0010
0001
1000
1001
0000
0001
0000
,  // measure 61
0001
0001
0001
0000
2000
0010
0000
0000
,  // measure 62
3010
0100
0001
0000
0100
0001
0000
1000
,  // measure 63
0001
0010
0001
0000
0002
0100
0000
0000
,  // measure 64
0103
0010
1000
0000
0010
1000
0000
0001
,  // measure 65
1000
0100
1000
0000
0001
0010
0000
0001
,  // measure 66
0010
0001
1000
1000
0010
1000
0000
0010
,  // measure 67
1000
0001
0100
0010
0100
0001
0000
0100
,  // measure 68
0001
1000
0100
0000
0100
0000
0100
1000
,  // measure 69
0001
0100
0110
0000
0000
0000
0000
0000
;

//---------------dance-single - ----------------
#NOTES:
     dance-single:
     :
     Hard:
     7:
     0.460,0.491,0.373,0.136,0.000:
0000
0000
0000
0000
,
0000
0000
0000
0000
,
0000
0000
0000
0000
,
0000
0000
0000
0000
,
0001
0001
0001
0011
,
1000
1000
1000
1010
,
0001
0001
0001
0101
,
1000
1000
1000
1100
,
0001
0010
0100
1001
,
1000
0100
0010
1001
,
0001
0100
0010
1001
,
2000
0000
0000
0000
0001
0001
3001
0000
,
0010
0010
0000
0001
1000
0000
1000
0000
,
0010
0010
0000
1000
0001
0000
0001
0000
,
0100
0100
0000
0001
1000
0000
1000
0000
,
0100
0100
0000
1000
0001
0000
0001
0000
,
1000
1000
0000
0001
0100
0010
0100
0000
,
0001
0001
0000
1000
0010
0100
0010
0000
,
1000
1000
0000
0001
0100
0010
0100
0000
,
0002
0000
0000
2003
0000
0000
0000
0000
,
3001
0010
0100
1000
1001
0000
1100
0000
,
1000
0010
0100
0001
1000
0100
1000
0100
,
0010
0001
0010
0001
1000
0100
2000
0000
,
0001
0001
3002
1000
,
1000
1003
1001
0011
,
0001
0100
0010
1000
0001
0010
0001
0010
,
0100
1000
0100
1000
0001
0010
0002
0000
,
1000
1000
1000
1003
,
0010
0100
0010
0100
0110
0000
1001
0000
,
0001
0010
0100
1000
0010
1000
0010
1000
,
0001
0100
0001
0100
0001
0010
0200
0000
,
1000
1300
0020
0001
,
0031
0000
1000
0001
1001
0000
0110
0000
,
1000
0100
0010
0001
0100
0001
0100
0001
,
1000
0010
1000
0010
1000
0100
0020
0000
,
0001
0031
0100
0100
,
1100
1001
0201
1000
,
0001
1000
0001
1300
,
0001
0010
0100
1000
0020
0000
0001
0000
,
1000
0001
1030
0011
,
0011
1001
1020
0001
,
1000
0001
1000
0031
,
1000
0100
0010
0001
0200
0000
1000
0000
,
0001
1000
0301
1100
,
1100
0000
1000
0001
0200
0000
0001
0000
,
1000
0001
1000
0301
,
1000
0100
0010
0001
0020
0000
1000
0000
,
0001
0000
1000
0000
0031
0000
1000
0001
,
0010
0100
1000
0000
1010
0000
1010
0000
,
0100
0001
1000
0100
0010
0000
0101
0000
,
1001
0000
0001
1000
0010
0100
0010
0000
,
1000
0010
0000
0100
0001
0000
1001
0000
,
0001
0100
0010
1000
1001
0000
0000
0000
,
1010
0000
0001
0000
1001
0000
0000
0110
,
0000
0001
1001
0000
,
0101
0000
1000
0000
1001
0000
0000
0110
,
0000
1000
1001
0001
,
0011
0000
1000
0000
1001
0000
0000
0110
,
0000
0001
1001
1000
,
1100
0001
2000
0001
,
0001
0001
3001
0000
0100
1000
0000
0000
,
0100
1000
0001
0000
0010
0001
0000
0010
,
0001
0000
1000
0000
0010
1000
0000
0000
,
0010
1000
0001
0000
0100
0001
0000
0100
,
0001
0000
1000
0000
0010
1000
0000
0000
,
0010
1000
0001
0001
0010
0001
0000
0010
,
0001
0000
0000
0000
0100
0001
0000
0000
,
0100
0001
1000
1000
0000
0000
1000
0001
,
0010
0100
1001
0000
0000
0000
0000
0000
;

//---------------dance-single - ----------------
#NOTES:
     dance-single:
     :
     Medium:
     5:
     0.393,0.405,0.415,0.178,0.000:
0000
0000
0000
0000
,
0000
0000
0000
0000
,
0000
0000
0000
0000
,
0000
0000
0000
0000
,
0001
1000
0001
1000
,
0001
0010
0001
1000
,
0100
1000
0100
1000
,
0001
1000
0001
0100
,
0001
0100
0001
1000
,
0010
1000
0010
1000
,
0100
0010
0001
1000
,
1000
0000
0000
0000
0001
1000
0001
1000
,
0002
0000
0000
0103
0000
0010
0000
0010
,
2000
0000
0000
3010
0000
0100
0010
0100
,
0002
0000
0000
1003
0000
0010
0000
0010
,
2000
0000
0000
3001
0000
0100
0010
0100
,
0002
0000
0000
1003
0000
0100
0000
0100
,
2000
0000
0000
3001
0000
0010
0100
0010
,
0002
0000
0000
1003
0000
0100
0000
0100
,
2000
0000
0000
3001
0000
0000
0000
0000
,
1001
0000
0011
1000
,
0110
0000
0001
0000
1000
0100
1000
0000
,
0001
0010
0001
0000
1000
0100
0020
0000
,
0001
0000
0032
0000
,
1003
0001
1100
0001
,
0110
0000
1000
0000
0001
0010
0001
0000
,
1000
0100
1000
0000
0001
0010
0200
0000
,
1000
0000
2300
0000
,
3001
1000
0001
1000
0001
0000
0101
0000
,
1000
0000
1010
0000
0001
0010
0100
0000
,
1000
0100
0010
0000
0001
1000
0020
0000
,
0100
0000
0230
0000
,
0310
0001
1000
1010
,
0001
0000
0101
0000
1000
0100
0010
0000
,
0001
0010
0100
0000
1000
0001
0200
0000
,
0010
0000
0310
0010
,
0010
0110
1002
1000
,
1000
1000
1000
1003
,
0001
1000
0020
0000
0100
0000
0100
0000
,
0100
0100
0130
0101
,
0100
1100
2001
0001
,
0001
0001
0001
3001
,
1000
0001
0200
0000
0010
0000
0010
0000
,
0010
0010
0310
1010
,
0010
0011
1002
1000
,
1000
1000
1000
1003
,
0001
1000
0020
0000
0100
0000
0100
0000
,
0100
0100
0130
1100
,
0100
0101
1001
0001
,
0011
1100
0011
0100
,
1000
0010
1000
0010
1000
0000
0001
0000
,
1000
0100
0000
1000
0001
0000
0001
0000
,
1001
0000
0011
0000
,
0011
0000
0000
0000
0011
0000
0000
1001
,
0000
0000
1100
0000
,
1100
0000
0000
0000
1100
0000
0000
1001
,
0000
0000
0101
0000
,
1010
0000
0000
0000
0101
0000
0000
1001
,
0000
0000
1010
0000
,
0101
0000
0000
0000
1010
0000
0000
1001
,
0000
0000
0011
0100
,
1000
0001
0000
0000
0101
0000
0000
1000
,
0001
0001
1100
0010
,
0001
1000
0000
0000
1010
0000
0000
0001
,
1000
1000
1010
1001
,
1000
0001
0000
0000
0011
0000
0000
1000
,
0001
0001
0101
1001
,
0001
1000
0000
0000
0000
0000
0100
0000
,
0100
1000
0001
0000
0000
0000
0000
0000
;

//---------------dance-single - ----------------
#NOTES:
     dance-single:
     :
     Beginner:
     1:
     0.103,0.144,0.093,0.000,0.000:
0000
0000
0000
0000
,
0000
0000
0000
0000
,
0000
0000
0000
0000
,
0000
0000
0000
0000
,
0001
0000
0000
0000
,
0000
0000
0000
0000
,
1000
0000
0000
0000
,
0000
0000
0000
0000
,
0001
0000
0000
0000
,
0000
0000
0000
0000
,
1000
0000
0000
0000
,
0000
0000
0000
0000
,
0010
0000
0000
0000
,
0010
0000
0000
0000
,
0100
0000
0000
0000
,
0100
0000
0000
0000
,
0010
0000
0000
0000
,
0010
0000
0000
0000
,
0100
0000
0000
0000
,
0100
0000
0000
0000
,
0000
0000
1001
0000
,
0001
0000
0001
0000
,
0001
0000
0001
0000
,
0000
0000
0000
0000
,
0000
0000
1001
0000
,
1000
0000
1000
0000
,
1000
0000
1000
0000
,
0000
0000
0000
0000
,
0000
0000
1001
0000
,
0001
0000
1000
0000
,
0001
0000
1000
0000
,
0000
0000
0000
0000
,
0000
0000
1001
0000
,
1000
0000
0001
0000
,
1000
0000
0001
0000
,
0000
0000
0000
0000
,
0000
0000
1001
0000
,
1000
0000
1000
0000
,
0001
0000
0001
0000
,
0001
0000
0001
0000
,
0001
0000
1000
0000
,
1000
0000
1000
0000
,
1000
0000
0001
0000
,
0001
0000
0001
0000
,
0001
0000
0100
0000
,
0010
0000
0100
0000
,
0000
0000
0010
0000
,
0100
0000
0010
0000
,
0000
0000
1000
0000
,
0001
0000
1000
0000
,
0001
0000
1000
0000
,
1000
0000
1001
0000
,
0000
0000
0110
0000
,
0000
0000
0001
0000
,
0000
0000
1001
0000
,
0000
0000
0000
0000
,
0000
0000
0110
0000
,
0000
0000
1000
0000
,
0000
0000
1001
0000
,
0000
0000
0000
0000
,
0000
0000
1001
0000
,
0000
0000
0000
0000
,
0000
0000
0001
0000
,
0000
0000
0000
0000
,
0000
0000
1000
0000
,
0000
0000
0001
0000
,
0000
0000
1000
0000
,
0000
0000
0000
1000
,
0000
0001
0000
0000
;
