#TITLE:エレクトリカル・パレード;
#SUBTITLE:;
#ARTIST:SUZY CREAM CHEESE;
#TITLETRANSLIT:ELECTRICAL PARADE;
#SUBTITLETRANSLIT:;
#ARTISTTRANSLIT:;
#CREDIT:DMAxel;
#BANNER:ELECTRICAL PARADE.png;
#BACKGROUND:ELECTRICAL PARADE-bg.png;
#LYRICSPATH:;
#CDTITLE:pop'n music.png;
#MUSIC:ELECTRICAL PARADE.mp3;
#OFFSET:-8.360;
#SAMPLESTART:52.342;
#SAMPLELENGTH:12.000;
#SELECTABLE:YES;
#BPMS:0.000=120.000;
#STOPS:;
#BGCHANGES:;

//---------------dance-single - ----------------
#NOTES:
     dance-single:
     :
     Easy:
     3:
     0.154,0.221,0.077,0.115,0.000: // measure 1
0002
0000
0000
0000
,  // measure 2
0000
0000
0000
0000
,  // measure 3
2003
0000
0000
0000
,  // measure 4
0000
0000
0000
0000
,  // measure 5
3001
0000
0000
0000
,  // measure 6
0100
0000
0000
0000
,  // measure 7
0001
0000
0000
0000
,  // measure 8
1000
0000
0000
0000
,  // measure 9
0010
0000
0010
0000
,  // measure 10
0010
0000
0000
0000
,  // measure 11
0100
0000
0100
0000
,  // measure 12
0100
0000
0000
0000
,  // measure 13
0001
0000
0001
0000
,  // measure 14
0001
0000
0000
0000
,  // measure 15
1000
0000
1000
0000
,  // measure 16
1000
0000
0000
0000
,  // measure 17
0010
0100
0010
0100
,  // measure 18
1001
0000
0000
0000
,  // measure 19
0100
0010
0100
0010
,  // measure 20
1001
0000
0000
0000
,  // measure 21
2000
0000
0000
0000
,  // measure 22
3002
0000
0000
0000
,  // measure 23
1003
0000
1000
0000
,  // measure 24
1000
1000
0100
0010
,  // measure 25
0001
0000
0001
0000
,  // measure 26
0001
0001
0010
0100
,  // measure 27
1000
0000
1000
0000
,  // measure 28
1000
1000
0100
0010
,  // measure 29
0001
0000
0001
0000
,  // measure 30
0001
0001
0010
0100
,  // measure 31
2001
0000
0000
0000
,  // measure 32
3001
0010
0100
1000
,  // measure 33
0002
0000
0000
0000
,  // measure 34
1003
0100
0010
0001
,  // measure 35
0200
0000
0000
0000
,  // measure 36
0320
0000
0000
0000
,  // measure 37
2030
0000
0000
0000
,  // measure 38
3002
0000
0000
0000
,  // measure 39
0023
0000
0000
0000
,  // measure 40
0032
0000
0000
0000
,  // measure 41
1003
1001
0000
1001
,  // measure 42
0000
1001
0000
1001
,  // measure 43
0100
0010
0100
0010
,  // measure 44
0100
0010
0100
0010
,  // measure 45
1000
0001
1000
0001
,  // measure 46
1000
0001
1000
0010
,  // measure 47
0110
0000
0000
0000
;

//---------------dance-single - ----------------
#NOTES:
     dance-single:
     :
     Hard:
     6:
     0.355,0.354,0.221,0.211,0.005: // measure 1
2002
0000
0000
3003
,  // measure 2
0220
0000
0000
0330
,  // measure 3
2002
0000
0000
3003
,  // measure 4
0220
0000
0000
0330
,  // measure 5
1000
1000
0000
1000
0001
0000
0100
0000
,  // measure 6
0001
0001
0000
0001
1000
0000
0010
0000
,  // measure 7
1000
1000
0000
1000
0001
0000
0100
0100
,  // measure 8
0001
1000
0000
0010
0100
0000
0000
0000
,  // measure 9
0100
0010
0100
0001
0010
0100
1000
0000
,  // measure 10
0001
1000
0001
0010
0100
1000
0100
0010
,  // measure 11
0001
1000
0001
0000
0100
0001
0010
0100
,  // measure 12
1000
0010
1000
0001
0100
0001
0100
0000
,  // measure 13
0001
0100
0010
1000
0100
0010
0001
0000
,  // measure 14
0100
0001
0100
0001
0010
0100
1000
0000
,  // measure 15
0010
0100
0010
1000
0100
0010
0001
0000
,  // measure 16
0010
0001
0010
0100
1000
0100
0010
0000
,  // measure 17
1002
0100
0100
0103
,  // measure 18
1001
0000
1001
0000
0100
0010
0010
0000
,  // measure 19
2001
0010
0010
3010
,  // measure 20
1001
0000
1001
0000
0010
0100
0100
0000
,  // measure 21
0002
2000
0000
3003
,  // measure 22
2000
0002
0000
3003
,  // measure 23
0001
0000
1000
0000
0010
0100
0001
0000
,  // measure 24
1000
0100
0010
0001
0100
0010
0100
0001
,  // measure 25
0100
0000
0010
0000
1000
0001
1000
0000
,  // measure 26
0001
0010
0001
1000
0100
1000
0010
0000
,  // measure 27
1000
0001
1000
0000
0010
0100
0010
0000
,  // measure 28
1000
0100
0010
0001
0100
0010
0100
0001
,  // measure 29
0001
0100
0010
0000
1000
0001
1000
0000
,  // measure 30
0001
0010
0100
1000
0010
1000
0010
0000
,  // measure 31
2001
0100
0100
3100
,  // measure 32
0010
0000
0001
0000
0010
0000
0000
1000
0000
0000
0010
0000
0110
0000
0000
0000
,  // measure 33
1002
0010
0010
0013
,  // measure 34
0100
1000
0100
0000
1000
0001
1000
0000
,  // measure 35
0002
2000
0000
3003
,  // measure 36
2000
0002
0000
3003
,  // measure 37
0001
0010
1000
0010
,  // measure 38
0101
1010
1001
0000
,  // measure 39
0020
0000
0000
0130
0001
0000
0000
0000
,  // measure 40
0200
0000
0000
0310
1000
0000
0000
0000
,  // measure 41
1010
1001
0000
1001
,  // measure 42
0000
1001
0000
1001
,  // measure 43
0100
0010
0100
0010
,  // measure 44
0100
0010
0100
0010
,  // measure 45
1000
0001
1000
0001
,  // measure 46
1000
0001
1000
0110
,  // measure 47
0110
0000
0000
0000
;

//---------------dance-single - ----------------
#NOTES:
     dance-single:
     :
     Challenge:
     8:
     0.517,0.508,0.307,0.029,0.307: // measure 1
0001
0100
0000
0001
0100
0000
0010
0100
,  // measure 2
0010
1000
0000
0010
1000
0000
0001
0100
,  // measure 3
0001
0000
1000
0000
0000
0000
0100
0000
1000
0000
0000
0000
0001
1000
0002
0000
,  // measure 4
1000
1000
1003
1001
,  // measure 5
1000
0100
0000
0100
1000
0000
1000
0100
,  // measure 6
0010
0001
0000
0001
0100
0000
0100
0001
,  // measure 7
1000
0010
0000
0010
0100
0000
0100
0010
,  // measure 8
1000
0000
0001
0000
0000
0000
0001
0000
1000
0000
0010
0100
0010
0100
0010
0000
,  // measure 9
0100
0001
1000
1000
0010
1000
0001
0001
,  // measure 10
1000
0001
0010
1000
0010
0001
0010
1000
,  // measure 11
0010
1000
0001
0001
0100
0001
1000
1000
,  // measure 12
0001
0100
1000
0100
0001
0010
0110
0000
,  // measure 13
0010
1000
0001
0001
0100
0001
1000
1000
,  // measure 14
0001
1000
0100
0001
0100
1000
0100
0001
,  // measure 15
0100
0001
1000
1000
0010
1000
0001
0001
,  // measure 16
1000
0010
0001
0010
1000
0010
0110
0000
,  // measure 17
1001
0000
0000
0000
1001
0000
0000
0100
0001
0000
1000
0000
1100
0000
0000
0000
,  // measure 18
0101
0000
0100
0000
0001
1000
0000
1000
0000
0000
0010
0000
0110
0000
0000
0000
,  // measure 19
1001
0000
0000
0010
1000
0000
0001
0000
0001
0000
0010
0000
0100
0000
0000
0000
,  // measure 20
1000
0010
1000
0000
0001
0010
0001
0000
0010
0000
0100
0000
1000
0000
0000
0000
,  // measure 21
1001
0000
0000
0000
0001
0000
1000
0010
0000
1000
0010
0000
0110
0000
0000
0000
,  // measure 22
1001
0000
0000
0000
1000
0000
0001
0000
0100
0010
0100
0010
0100
0010
0000
0000
,  // measure 23
1000
0000
0001
0100
0001
0000
0010
0000
0100
0000
1000
0010
0100
0010
0100
0000
,  // measure 24
0010
0000
1000
0100
1000
0000
0010
0000
0100
0000
0001
0000
0010
0000
0100
0000
,  // measure 25
1000
0000
0001
0100
0001
0000
0010
0000
0100
0000
1000
0010
0100
0010
0100
0000
,  // measure 26
0001
0010
1000
0010
0001
0100
0110
0000
,  // measure 27
0001
0000
1000
0100
1000
0000
0010
0000
0100
0000
0001
0100
0010
0100
0010
0000
,  // measure 28
1000
0000
0001
0100
0001
0000
0100
0000
0010
0000
1000
0000
0100
0000
0010
0000
,  // measure 29
0001
0000
1000
0100
1000
0000
0010
0000
0100
0000
0001
0100
0010
0100
0010
0000
,  // measure 30
1000
0000
0100
0000
0001
0000
0100
0000
1000
0000
0010
0100
0010
0100
0010
0000
,  // measure 31
1001
0000
0000
0000
1001
0000
0000
0100
1000
0000
0001
0000
0101
0000
0000
0000
,  // measure 32
1100
0000
0100
0000
1000
0001
0000
0001
0000
0000
0100
0000
0110
0000
0000
0000
,  // measure 33
1001
0000
0000
0100
0001
0000
1000
0000
1000
0000
0100
0000
0010
0000
0000
0000
,  // measure 34
0001
0010
0001
0000
1000
0010
1000
0000
0100
0000
0010
0000
0001
0000
0000
0000
,  // measure 35
1001
0000
0000
0000
1000
0000
0001
0100
0000
0001
0100
0000
0110
0000
0000
0000
,  // measure 36
1001
0000
0000
0000
0001
0000
1000
0010
0000
1000
0010
0000
1000
0001
1000
0001
,  // measure 37
1000
0000
0001
0010
0000
0100
0010
0000
0100
1000
0000
0100
,  // measure 38
0010
0000
0001
1000
0000
0100
0010
0000
0000
0110
0000
0000
,  // measure 39
0102
0000
0000
1000
1003
0000
1001
0000
,  // measure 40
2010
0000
0000
0001
3001
0000
1001
0000
,  // measure 41
0110
1001
0000
1001
,  // measure 42
0000
1001
0000
1001
,  // measure 43
0010
0000
0010
0100
0000
0100
1000
0000
1000
0010
0000
0010
,  // measure 44
0100
0000
0100
0001
0000
0001
0010
0000
0010
0001
0000
1000
,  // measure 45
0100
0000
0100
1000
0000
0001
0100
0000
0100
0001
0000
1000
,  // measure 46
0010
0000
0010
1000
0000
1000
0001
0000
0000
0001
0010
0100
,  // measure 47
1000
0000
0000
0000
;

//---------------dance-single - ----------------
#NOTES:
     dance-single:
     :
     Beginner:
     2:
     0.086,0.177,0.183,0.000,0.000: // measure 1
0010
0000
0000
0000
,  // measure 2
0000
0000
0000
0000
,  // measure 3
1000
0000
0000
0000
,  // measure 4
0000
0000
0000
0000
,  // measure 5
0001
0000
0000
0000
,  // measure 6
0100
0000
0000
0000
,  // measure 7
0001
0000
0000
0000
,  // measure 8
1000
0000
0000
0000
,  // measure 9
1001
0000
0000
0000
,  // measure 10
0010
0000
0000
0000
,  // measure 11
0100
0000
0000
0000
,  // measure 12
0010
0000
0000
0000
,  // measure 13
0100
0000
0000
0000
,  // measure 14
0001
0000
0000
0000
,  // measure 15
1000
0000
0000
0000
,  // measure 16
0001
0000
0000
0000
,  // measure 17
1001
0000
0000
0000
,  // measure 18
0110
0000
0000
0000
,  // measure 19
1001
0000
0000
0000
,  // measure 20
0110
0000
0000
0000
,  // measure 21
1001
0000
0000
0000
,  // measure 22
0110
0000
0000
0000
,  // measure 23
1001
0000
0000
0000
,  // measure 24
0100
0000
0000
0000
,  // measure 25
0010
0000
0000
0000
,  // measure 26
0100
0000
0000
0000
,  // measure 27
0010
0000
0000
0000
,  // measure 28
1000
0000
0000
0000
,  // measure 29
0001
0000
0000
0000
,  // measure 30
1000
0000
0000
0000
,  // measure 31
1001
0000
0000
0000
,  // measure 32
0110
0000
0000
0000
,  // measure 33
1001
0000
0000
0000
,  // measure 34
0110
0000
0000
0000
,  // measure 35
1001
0000
0000
0000
,  // measure 36
1001
0000
0000
0000
,  // measure 37
0010
0000
0000
0000
,  // measure 38
0100
0000
0000
0000
,  // measure 39
0010
0000
0000
0000
,  // measure 40
1000
0000
0000
0000
,  // measure 41
0000
1001
0000
1001
,  // measure 42
0000
1001
0000
1001
,  // measure 43
0000
0000
0000
0000
,  // measure 44
0000
0000
0000
0000
,  // measure 45
0010
0000
0000
0000
,  // measure 46
0000
0000
0000
0000
,  // measure 47
1001
0000
0000
0000
;

//---------------dance-single - ----------------
#NOTES:
     dance-single:
     :
     Medium:
     4:
     0.262,0.265,0.173,0.115,0.010: // measure 1
0001
0000
0000
0000
,  // measure 2
0010
0000
0000
0000
,  // measure 3
0100
0000
0000
0000
,  // measure 4
1000
0000
0000
0000
,  // measure 5
0001
0000
0101
0010
,  // measure 6
0100
0000
1010
0100
,  // measure 7
0010
0000
0011
0100
,  // measure 8
1000
0000
1001
0000
,  // measure 9
1000
0001
1000
0000
0100
0000
0010
0000
,  // measure 10
0001
0000
0100
0010
0100
0000
0010
0000
,  // measure 11
1000
0100
1000
0000
0001
0000
0010
0000
,  // measure 12
0001
0010
0001
0000
0100
0010
0100
0000
,  // measure 13
0001
0000
1000
0000
0010
1000
0010
0000
,  // measure 14
0100
0000
0001
0000
0100
0010
0100
0000
,  // measure 15
0001
0000
1000
0000
0001
1000
0001
0000
,  // measure 16
0100
0000
0010
0000
0100
0010
0100
0000
,  // measure 17
0002
0000
0000
0000
,  // measure 18
1003
0000
0000
0000
0010
0000
0000
0010
0000
0000
0100
0000
0010
0000
0000
0000
,  // measure 19
2000
0000
0000
0000
,  // measure 20
3001
0000
0011
0000
0001
1000
0100
0000
,  // measure 21
2002
0000
0000
3003
,  // measure 22
0220
0000
0000
0330
,  // measure 23
0100
0010
0100
0000
0001
0000
0010
0000
,  // measure 24
0001
1000
0001
0000
1000
0000
0010
0000
,  // measure 25
0100
0010
0100
0000
0001
0000
1000
0000
,  // measure 26
0010
0100
0010
0000
1000
0100
1000
0000
,  // measure 27
0001
0000
1000
0000
0001
0010
0001
0000
,  // measure 28
0100
0010
0100
0000
0010
0000
1000
0000
,  // measure 29
0001
0100
0001
0000
0100
0000
0010
0000
,  // measure 30
1000
0100
1000
0000
0001
0100
0001
0000
,  // measure 31
2000
0000
0000
0000
,  // measure 32
3010
0000
0000
0000
0010
0000
0000
0010
0000
0000
0010
0000
0100
0000
0000
0000
,  // measure 33
0002
0000
0000
0000
,  // measure 34
0103
0000
0110
0000
0100
0010
0100
0000
,  // measure 35
2002
0000
0000
3003
,  // measure 36
0220
0000
0000
0330
,  // measure 37
1001
0010
0001
0010
,  // measure 38
0001
0010
1000
0000
,  // measure 39
0101
0000
0000
0100
0010
0000
0000
0000
,  // measure 40
1010
0000
0000
0010
0100
0000
0000
0000
,  // measure 41
0010
1001
0000
1001
,  // measure 42
0000
1001
0000
1001
,  // measure 43
0010
0100
0010
0100
,  // measure 44
0010
0100
0010
0100
,  // measure 45
0001
1000
0001
1000
,  // measure 46
0100
0010
0001
0100
,  // measure 47
0110
0000
0000
0000
;

//---------------dance-double - ----------------
#NOTES:
     dance-double:
     :
     Easy:
     3:
     0.207,0.243,0.163,0.115,0.000:
10010000
00000000
00000000
00000000
,
00010000
00000000
00000000
00000000
,
00011000
00000000
00000000
00000000
,
00001000
00000000
00000000
00000000
,
00001001
00000000
00000000
00000000
,
00000010
00000000
00000000
00000000
,
00000100
00000000
00000000
00000000
,
00001000
00000000
00000000
00000000
,
00000100
00000000
00000100
00000000
,
00000100
00001000
00000100
00000010
,
00000001
00000000
00001000
00000000
,
00001000
00000001
00000010
00010100
,
01000000
00000000
01000000
00000000
,
01000000
00010000
00100000
01000000
,
10000000
00000000
10000000
00000000
,
10000000
01000000
00100000
00011000
,
00000100
00000010
00000100
00000010
,
00002002
00000000
00000000
00003003
,
00011000
01000000
00100000
01000000
,
20020000
00000000
00000000
30030000
,
00200000
00000000
00000000
00000000
,
02300000
00000000
00000000
00000000
,
13000000
01000000
00100000
00010000
,
01000000
00100000
01000000
00100000
,
10000000
01000000
00100000
00010000
,
00001000
00000100
00001000
00000110
,
00000001
00000010
00000100
00001000
,
00000010
00000100
00000010
00000100
,
00001001
00000010
00000100
00001000
,
00010000
00100000
00010000
01100000
,
00200000
00000000
00000000
00000000
,
00310000
00100000
01000000
10000000
,
02000000
00000000
00000000
00000000
,
13000000
01000000
00100000
00010000
,
02000000
00000000
00000000
00000000
,
03200000
00000000
00000000
00000000
,
10300000
01000000
00100000
00010000
,
00001000
00000100
00000010
00000001
,
00000020
00000000
00000130
00000000
,
00000200
00000000
00000310
00000000
,
00000100
00011000
00000000
00011000
,
00000000
00011000
00000000
00011000
,
01000000
00100000
01000000
00100000
,
01000000
00100000
01000000
00100000
,
01000000
00001000
01000000
00001000
,
00010000
00000100
00010000
00011000
,
00011000
00000000
00000000
00000000
;

//---------------dance-double - ----------------
#NOTES:
     dance-double:
     :
     Medium:
     5:
     0.339,0.331,0.288,0.135,0.000:
10000000
00010000
10000000
00010000
,
01000000
00100000
01000000
00100000
,
10000000
00010000
10000000
00010000
,
01000000
00100000
01000000
00100000
,
10000000
01000000
00000000
01000000
00100000
00000000
00010000
00000000
,
00001000
00000100
00000000
00000100
00000010
00000000
00000001
00000000
,
00000100
00000001
00000000
00000001
00000010
00000000
00000100
00000100
,
00001000
00000001
00000000
00000010
00000100
00000000
00000000
00000000
,
00001000
00010000
00001000
00000000
00010000
00100000
01000000
00000000
,
10000000
00010000
10000000
01000000
00100000
00010000
00100000
01000000
,
10000000
00010000
10000000
00000000
01000000
00100000
00010000
00000000
,
00001000
00010000
00001000
00000000
00010000
00000100
00001000
00000000
,
00000001
00000100
00000010
00001000
00000100
00000010
00000001
00000000
,
00001000
00000100
00001000
00000000
00000001
00000010
00000100
00000000
,
00001000
00000001
00001000
00000000
00000100
00000010
00000001
00000000
,
00000010
00000001
00000010
00000100
00001000
00000010
00001000
00000000
,
00010200
00000000
00010000
00000300
,
00011000
00000000
00011000
00000000
00010000
01000000
01000000
00000000
,
00201000
00000000
00001000
00300000
,
00011000
00000000
00011000
00000000
00001000
00000010
00000010
00000000
,
00022000
00000000
00000000
00033000
,
00022000
00000000
00000000
00033000
,
00100000
00000000
01000000
00000000
10000000
00010000
00100000
00000000
,
01000000
10000000
01000000
00100000
00010000
01000000
00001000
00100000
,
00001000
00000000
10000000
00000000
01000000
00100000
01000000
00000000
,
10100000
01010000
00011000
10010000
,
01000000
00100000
01000000
00000000
10000000
00010000
10000000
00000000
,
01000000
00100000
00010000
00001000
00000100
00001000
00000100
00001000
,
00000010
00000000
00001001
00000000
00000010
00000100
00000010
00000000
,
00000100
00000001
00000010
00000100
00001000
00010000
00001000
00000000
,
00010200
00000000
00010000
00000300
,
00011000
00000000
00011000
00000000
00010000
01000000
00010000
00000000
,
00201000
00000000
00001000
00300000
,
00011000
00000000
00011000
00000000
00001000
00000010
00001000
00000000
,
00022000
00000000
00000000
00033000
,
00022000
00000000
00000000
00033000
,
01000000
10000000
01000000
10000000
,
00110000
11000000
10010000
00000000
,
00200000
00000000
00000000
00001000
00301000
00000000
00000000
00000000
,
00000200
00000000
00000000
00010000
00010300
00000000
00000000
00000000
,
00010000
00011000
00000000
00011000
,
00000000
00011000
00000000
00011000
,
00001000
00000001
00001000
00000001
,
00001000
00000001
00000010
00000100
,
00001000
00010000
01000000
00100000
,
10000000
00010000
10000000
01100000
,
10010000
00000000
00000000
00000000
;

//---------------dance-double - ----------------
#NOTES:
     dance-double:
     :
     Hard:
     8:
     0.476,0.442,0.279,0.048,0.245:
00001000
00000100
00000000
00000100
00000010
00000000
00000001
00000100
,
00000001
00000010
00000000
00000010
00000100
00000000
00001000
00000000
,
00011000
00000000
00000000
00000000
00000000
00000000
01000000
00000000
00010000
00000000
00000000
00000000
01000000
00100000
02000000
00000000
,
00000000
00000000
00000000
03100000
,
10000000
01000000
00000000
01000000
11000000
00000000
10010000
00000000
,
00100000
00010000
00000000
00010000
01010000
00000000
00011000
00000000
,
00000100
00001000
00000000
00001000
00001100
00000000
00001001
00000000
,
00000100
00000000
00000001
00000000
00000000
00000000
00000001
00000000
00000100
00000000
00000010
00000100
00000010
00000100
00000010
00000000
,
00001000
00000100
00000010
00000000
00000001
00000010
00000001
00000010
,
00000001
00000100
00001000
00000100
00000001
00000100
00001000
00000000
,
00010000
00100000
01000000
00000000
10000000
01000000
10000000
01000000
,
10000000
00100000
00010000
00100000
10000000
00100000
00010000
00000000
,
00001000
00000100
00000010
00000000
00000001
00000100
00000001
00000100
,
00000001
00000010
00001000
00000010
00000001
00000010
00001000
00000000
,
00010000
00100000
01000000
10000000
00010000
01000000
00010000
10000000
,
00010000
00000000
00100000
00000000
10000000
00000000
00100000
00000000
00010000
10000000
00010000
10000000
00010000
00000000
00000000
00000000
,
00110000
00000000
00000000
00000000
00011000
00000000
00000000
00000100
00010000
00000000
00001000
00000000
00001000
00000000
00000000
00000000
,
00001100
00000000
00000010
00000000
00000001
00000100
00000000
00000100
00000000
00000000
00000010
00000000
00000110
00000000
00000000
00000000
,
00011000
00000000
00000000
00100000
00001000
00000000
00010000
00000000
00010000
00000000
00001000
00000000
00100000
00000000
00000000
00000000
,
00010000
00100000
00010000
00000000
10000000
00100000
10000000
00000000
01000000
00000000
00100000
00000000
00010000
00000000
00000000
00000000
,
00002000
00000000
00000000
00000000
00010000
00000000
00000000
00010000
00000000
00010000
00000000
00000000
00013000
00000000
00000000
00000000
,
00000200
00000000
00000000
00000000
00000010
00000000
00000000
00000000
00000310
00000001
00000010
00000001
00000010
00000000
00000000
00000000
,
00000001
00000010
00000100
00001000
00000010
00000100
00000001
00001000
,
00000001
00000010
00001000
00000010
00000001
00000010
00001000
00000000
,
00010000
00100000
01000000
10000000
00100000
01000000
00010000
00100000
,
00010000
00100000
10000000
00100000
00010000
00100000
10000000
00000000
,
01000000
00100000
00010000
00100000
01000000
10000000
00100000
10000000
,
00100000
01000000
00010000
01000000
10000000
01000000
00010000
00000000
,
00001000
00000010
00000100
00000001
00000010
00000100
00001000
00000001
,
00001000
00000000
00000010
00000000
00000001
00000000
00000010
00000000
00001000
00000000
00000010
00000000
00000001
00001000
00000001
00001000
,
00000001
00000000
00000000
00000000
00000110
00000000
00000000
00001000
00010000
00000000
00001000
00000000
00001000
00000000
00000000
00000000
,
00110000
00000000
01000000
00000000
10000000
00100000
00000000
00100000
00000000
00000000
01000000
00000000
01100000
00000000
00000000
00000000
,
10100000
00000000
00000000
10000000
00010000
00000000
01000000
00000000
01000000
00000000
00010000
00000000
01000000
00000000
00000000
00000000
,
00010000
01000000
00010000
00000000
10000000
01000000
10000000
00000000
01000000
00000000
00100000
00000000
00010000
00000000
00000000
00000000
,
00011000
00000000
00000000
00000000
00100000
00000000
00001000
00010000
00000000
00010000
00000000
00000000
00011000
00000000
00000000
00000000
,
00001100
00000000
00000000
00000000
00000010
00000000
00000001
00000100
00000000
00000001
00000100
00000000
00000001
00001000
00000001
00001000
,
00000001
00000000
00000010
00000100
00000000
00000100
00001000
00000000
00001000
00010000
00000000
00010000
,
00100000
00000000
00100000
01000000
00000000
01000000
10000000
00000000
00000000
00110000
00000000
00000000
,
21000000
00000000
00000000
00010000
30010000
00000000
11000000
00000000
,
00120000
00000000
00000000
10000000
10030000
00000000
11000000
00000000
,
01010000
00011000
00000100
00011000
,
00100000
00011000
00000100
00011000
,
00100000
00000000
00100000
01000000
00000000
01000000
10000000
00000000
10000000
01000000
00000000
01000000
,
00100000
00000000
00100000
00010000
00000000
00010000
00001000
00000000
00001000
00000100
00000000
00000100
,
00000010
00000000
00000001
00000100
00000000
00000100
00000010
00000000
00000010
00001000
00000000
00001000
,
00010000
00000000
00010000
01000000
00000000
01000000
00100000
00000000
00000000
10000000
00010000
10000000
,
00010000
00000000
00000000
00000000
;
