#TITLE:EL DIA FELIZ;
#SUBTITLE:;
#ARTIST:Wilma de Oliveira;
#TITLETRANSLIT:;
#SUBTITLETRANSLIT:;
#ARTISTTRANSLIT:;
#CREDIT:DMAxel;
#BANNER:EL DIA FELIZ.png;
#BACKGROUND:EL DIA FELIZ-bg.png;
#LYRICSPATH:EL DIA FELIZ.lrc;
#CDTITLE:MAMBO A GO GO.png;
#MUSIC:EL DIA FELIZ.mp3;
#OFFSET:-0.440;
#SAMPLESTART:9.270;
#SAMPLELENGTH:12.000;
#SELECTABLE:YES;
#BPMS:0.000=108.010;
#STOPS:;
#BGCHANGES:;

//---------------dance-single - ----------------
#NOTES:
     dance-single:
     :
     Easy:
     3:
     0.236,0.260,0.129,0.204,0.000:
0000
0000
0000
0000
,
0000
0000
0000
0000
,
1001
0000
1001
0000
,
0110
0000
0110
0000
,
0002
1000
1003
0000
,
1000
0010
0100
0001
,
2000
0001
3001
0000
,
0001
0000
1000
0000
0020
0000
0000
0030
,
2002
0000
0000
3003
,
0001
1000
0001
0010
,
0001
1000
0001
0010
,
1000
0001
1000
0100
,
1000
0001
1000
0100
,
0002
0000
2003
0000
,
3002
1000
1003
0010
,
2000
0001
3001
0010
,
2002
0000
0000
3003
,
1000
0001
1000
1000
,
0001
1000
0001
0001
,
0100
0010
1000
0001
,
1000
0000
1000
0000
0010
0000
0000
0110
,
0000
0001
0020
0001
,
0031
1000
0200
1000
,
1300
0010
0100
0001
,
2002
0000
0000
3003
,
0010
0000
0000
0000
,
0010
0000
0000
0000
,
0010
0001
0010
0001
,
1000
0100
0010
0001
,
1000
0001
1000
0100
,
1000
0010
1000
0100
,
0001
1000
0001
0010
,
0220
0000
0000
0330
,
0100
1000
0100
1000
,
0001
0010
0100
1000
,
0001
0010
0001
1000
,
0001
0000
0010
0000
1000
0000
0000
1001
,
0000
0000
0000
1001
0000
0000
0001
0000
,
0001
0010
0001
0100
,
0001
0010
1000
0010
,
0220
0000
0000
0330
0000
0000
0000
0000
;

//---------------dance-single - ----------------
#NOTES:
     dance-single:
     :
     Medium:
     6:
     0.381,0.390,0.161,0.247,0.145:
0000
0000
0000
0000
,
0000
0000
0000
0000
,
0022
0033
2002
3003
,
0202
0303
2002
3003
,
1001
0000
0000
0000
1000
0000
0000
1000
0000
0000
0000
0000
0000
0000
0000
0000
,
0010
0100
0010
1000
0100
0001
0010
0100
,
1000
0000
0000
0000
0001
0000
0000
0001
0000
0000
0000
0000
0000
0000
0000
0000
,
0100
0010
0100
0001
0010
1000
0100
0010
,
1001
0000
0000
1000
0000
0000
1000
0000
0000
0000
0000
0000
0000
0000
0000
0000
,
0001
0010
0001
0000
0100
0001
1000
0000
,
0001
0010
0001
1000
0010
0100
0001
0000
,
1000
0100
1000
0000
0010
1000
0001
0000
,
1000
0100
1000
0001
0100
0010
1000
0000
,
0001
0000
0010
0000
2000
0000
0000
0001
0000
0001
0000
3001
0000
0000
0000
0000
,
1000
0000
0100
0000
0002
0000
0000
1000
0000
1000
0000
1003
0000
0000
0000
0000
,
0001
0000
0010
0000
1000
0000
0000
0001
0010
0000
0000
0001
0010
0000
0000
0000
,
1001
0000
0000
1000
0000
0000
1000
0000
0000
1000
0000
0000
1000
0000
0100
0000
,
0001
1000
0001
0000
1000
0100
1000
1000
,
0001
0010
1000
0000
0001
0010
0001
0001
,
2000
0000
3001
0000
0002
0000
1003
0100
,
1000
1000
0001
0010
0001
0000
0000
1001
,
0000
1000
0100
1000
0001
0100
0001
0001
,
2000
0000
3002
0000
1003
0010
1000
1000
,
0001
0010
0100
1000
0001
0100
0001
0001
,
1001
0000
0000
1000
0000
0000
1000
0000
0000
0000
0000
0000
0000
0000
0000
0000
,
0020
0000
0000
0000
,
0200
0000
0000
0330
,
1001
0000
0000
0000
0001
0000
0000
0100
0000
0001
0000
0000
0000
0000
0000
0000
,
0100
0010
0100
0001
0001
1000
0010
0000
,
1000
0000
0100
0000
0002
0000
0000
1000
0000
1000
0000
1003
0000
0000
0000
0000
,
0001
0000
0010
0000
2000
0000
0000
0001
0000
0001
0000
3001
0000
0000
0000
0000
,
1000
0000
0100
0000
0001
0000
0000
1000
0100
0000
0000
1000
0100
0000
0000
0000
,
1001
0000
0000
0001
0000
0000
0001
0000
0000
0001
0000
0000
0001
0000
0010
0000
,
2000
0000
0001
0000
3001
0001
1000
0100
,
2000
0000
0001
0000
3001
0001
1000
0100
,
2000
0000
3001
0000
0002
0000
1003
0100
,
0001
1000
1000
0100
1000
0000
0000
1001
,
0000
0000
0000
1001
0000
0000
0001
0010
,
1000
0001
0002
0000
1000
0000
1003
0100
,
0001
1000
1000
0001
0010
0001
1000
1000
,
1001
0000
0000
0001
0000
0000
1001
0000
0000
0000
0000
0000
0000
0000
0000
0000
;

//---------------dance-single - ----------------
#NOTES:
     dance-single:
     :
     Hard:
     8:
     0.583,0.542,0.387,0.032,1.000: // measure 1
0000
0000
0000
0000
,  // measure 2
0000
0000
0000
0000
,  // measure 3
1010
0000
0000
1010
0000
0000
0000
0000
0011
0000
0000
0011
0000
0000
0000
0000
,  // measure 4
1100
0000
0000
1100
0000
0000
0000
0000
0101
0000
0000
0101
0000
0000
0000
0000
,  // measure 5
1001
0000
0000
0000
1001
0000
0000
0001
0000
0100
0000
0001
1000
0000
0100
0000
,  // measure 6
1000
0000
0001
0000
0010
0000
0001
1000
0000
0001
0000
0010
0000
0100
0010
0100
,  // measure 7
0000
0110
0000
0000
1001
0000
0000
1000
0000
0010
0000
1000
0001
0000
0010
0000
,  // measure 8
0001
0000
1000
0100
0000
1000
0000
0002
0000
0000
0000
0000
0000
0000
0003
0000
,  // measure 9
0011
0000
0000
0000
0000
0000
0000
0000
0000
0011
0000
0000
0000
0000
0000
0000
0000
0000
0011
0000
0000
0000
0000
0000
1000
0000
0000
0000
0100
0000
0000
0000
1000
0000
0000
0000
0001
0000
0000
0000
0000
0000
0000
0000
0000
0000
0000
0000
,  // measure 10
1000
0100
0000
1000
0100
0000
1000
0000
0001
0010
0000
0001
0010
0000
0001
0000
,  // measure 11
1000
0100
0000
1000
0100
0000
1000
0001
0000
1000
0000
0010
1000
0010
0000
0000
,  // measure 12
0100
0001
0000
0100
0001
0000
1000
0000
0010
1000
0000
0010
1000
0000
0001
0000
,  // measure 13
0100
0001
0000
0100
0001
0000
1000
0001
0000
1000
0100
1000
0100
1000
0100
0000
,  // measure 14
1000
0100
0000
1000
0000
0001
0000
0010
0000
0100
0000
1000
0000
0100
0000
0001
,  // measure 15
1000
0100
1000
0001
0000
0010
0000
0100
0000
1000
0000
0100
0000
0001
0000
1000
,  // measure 16
0001
0010
0001
1000
0000
0100
0000
0010
0001
0010
0000
0001
0010
0001
0000
0000
,  // measure 17
1100
0000
0000
1100
0000
0000
0110
0000
0000
0110
0000
0000
0011
0000
0001
0000
,  // measure 18
1000
0000
0001
0100
0000
0010
0100
0000
0001
0010
0001
0010
0001
1000
0000
0001
,  // measure 19
1000
0000
0001
0100
0000
0010
0100
0000
0001
0000
0001
0000
1000
0000
1000
0000
,  // measure 20
0001
0010
0000
0001
0000
1000
0000
0100
0000
1000
0000
0001
0000
1000
0000
0001
,  // measure 21
0010
0001
0010
0100
0000
1000
0000
0010
1000
0010
1000
0010
0000
0000
1001
0000
,  // measure 22
1000
0000
0001
0100
0000
0010
0100
0000
0001
0010
0001
0010
0001
0010
0000
0001
,  // measure 23
1000
0000
0010
0100
0000
0010
1000
0000
0001
0000
0001
0000
1000
0000
1000
0100
,  // measure 24
0010
0001
0000
0100
0000
0001
0000
1000
0000
0100
0000
1100
0000
0001
0000
1000
,  // measure 25
0001
0000
0000
0000
0000
0000
0000
0000
0000
0011
0000
0000
0000
0000
0000
0000
0000
0000
0011
0000
0000
0000
0000
0000
1000
0000
0000
0000
0100
0000
0000
0000
1000
0000
0000
0000
0001
0000
0000
0000
0000
0000
0001
0000
0000
0000
0000
0000
,  // measure 26
2000
0000
0000
0000
0000
0000
0000
0000
0010
0000
0000
0000
0000
0000
0010
0000
0000
0000
0000
0010
0000
0000
0000
0000
0000
0000
0000
0000
0000
0000
0000
0000
,  // measure 27
3002
0000
0000
0000
0000
0000
0000
0100
0000
0100
0000
0103
0000
0010
1000
0001
,  // measure 28
0000
0011
0000
0000
1001
0000
0000
1000
0000
0010
0000
1000
0001
0000
0010
0000
,  // measure 29
0001
0000
0100
0010
0000
0100
0000
0001
0000
1000
0100
1000
0100
1000
0001
0000
,  // measure 30
0100
0001
0000
1000
0000
0100
0000
0010
0000
0001
0000
0010
0000
1000
0000
0001
,  // measure 31
1000
0100
1000
0001
0000
0010
0000
0100
0000
1000
0000
0100
0000
0001
0000
1000
,  // measure 32
0001
0010
0001
1000
0000
0100
0000
0010
0001
0010
0000
0001
0010
0001
0000
0000
,  // measure 33
0011
0000
0000
0011
0000
0000
0110
0000
0000
0110
0000
0000
1100
0000
1000
0000
,  // measure 34
0001
0000
0100
0010
0000
0100
0001
0000
1000
0100
1000
0100
1000
0100
0000
1000
,  // measure 35
0001
0000
0100
0010
0000
0100
0000
0001
1000
0000
1000
0000
0001
0000
0001
0000
,  // measure 36
1000
0100
0000
1000
0000
0001
0000
0010
0000
0100
0000
1000
0000
0001
0000
1000
,  // measure 37
0100
1000
0100
0010
0000
0001
0000
0100
0001
0100
0001
0100
0000
0000
1001
0000
,  // measure 38
0001
0000
0100
0001
0000
0000
1001
0000
1000
0100
1000
0100
1000
0010
0000
1000
,  // measure 39
0001
0000
0010
0001
0000
0100
0001
0000
1000
0000
1000
0000
0001
0000
0001
0010
,  // measure 40
0100
1000
0000
0001
0000
0010
0000
0001
0000
1000
0000
1100
0000
0001
0000
1000
,  // measure 41
0001
0000
0000
0101
0000
0000
1100
0000
0000
0000
0000
0000
0000
0000
0000
0000
;

//---------------dance-single - ----------------
#NOTES:
     dance-single:
     :
     Beginner:
     1:
     0.091,0.150,0.118,0.000,0.000:
0000
0000
0000
0000
,
0000
0000
0000
0000
,
0000
0000
0000
0000
,
0000
0000
0000
0000
,
1000
0000
0000
0000
,
0001
0000
0000
0000
,
1000
0000
0000
0000
,
0001
0000
0000
0000
,
1001
0000
0000
0000
,
0100
0000
0000
0000
,
0100
0000
0000
0000
,
0010
0000
0000
0000
,
0010
0000
0000
0000
,
1001
0000
0001
0000
,
0001
0000
0000
0000
,
1000
0000
0000
0000
,
1001
0000
0000
0000
,
0010
0000
0000
0000
,
0010
0000
0000
0000
,
0100
0000
0000
0000
,
0100
0000
0000
0000
0000
0000
0000
1001
,
0000
0000
0001
0000
,
0001
0000
1000
0000
,
1000
0000
0000
0000
,
1001
0000
0000
0000
,
1001
0000
0000
0000
,
0000
0000
0000
0000
,
1001
0000
1000
0000
,
1000
0000
0000
0000
,
0001
0000
0001
0000
,
0001
0000
0000
0000
,
0100
0000
0000
0000
,
0110
0000
0000
0000
,
0001
0000
1000
0000
,
0001
0000
0001
0000
,
1000
0000
0001
0000
,
1000
0000
0000
0000
1000
0000
0000
1001
,
0000
0000
0000
1001
0000
0000
0000
0000
,
0001
0000
1000
0000
,
0001
0000
1000
0000
,
1001
0000
0000
0000
;
