#TITLE:EFFECT;
#SUBTITLE:;
#ARTIST:mu-Ray-ZY;
#TITLETRANSLIT:;
#SUBTITLETRANSLIT:;
#ARTISTTRANSLIT:;
#CREDIT:DMAxel;
#BANNER:EFEECT.png;
#BACKGROUND:EFEECT-bg.png;
#LYRICSPATH:EFEECT.lrc;
#CDTITLE:pop'n music.png;
#MUSIC:EFFECT.mp3;
#OFFSET:-0.360;
#SAMPLESTART:61.598;
#SAMPLELENGTH:12.000;
#SELECTABLE:YES;
#BPMS:0.000=138.000;
#STOPS:;
#BGCHANGES:;

//---------------dance-single - ----------------
#NOTES:
     dance-single:
     :
     Easy:
     2:
     0.182,0.227,0.009,0.170,0.000: // measure 1
0000
0000
0000
0000
,  // measure 2
0000
0000
0000
0000
,  // measure 3
0000
0000
0000
0000
,  // measure 4
0000
0000
0000
0000
,  // measure 5
0000
0000
0000
0000
,  // measure 6
0000
0000
0000
0000
,  // measure 7
0000
2000
0000
0000
,  // measure 8
0000
3002
0000
0000
,  // measure 9
1003
0000
0010
0000
,  // measure 10
0010
0000
0000
0000
,  // measure 11
0000
0100
0000
0001
,  // measure 12
0000
0100
0000
0000
,  // measure 13
0000
0001
0000
0010
,  // measure 14
0000
0001
0000
0000
,  // measure 15
0000
0200
0000
0000
,  // measure 16
0000
0320
0000
0000
,  // measure 17
1030
0001
0001
0001
,  // measure 18
0000
0200
0000
0300
,  // measure 19
0000
1000
1000
1000
,  // measure 20
0000
0020
0000
0030
,  // measure 21
0000
0002
0000
0000
,  // measure 22
0000
0023
0000
0000
,  // measure 23
0000
0230
0000
0000
,  // measure 24
0000
1300
0100
0010
,  // measure 25
0001
1000
1000
1000
,  // measure 26
0000
0200
0000
0300
,  // measure 27
0000
0001
0001
0001
,  // measure 28
0000
0020
0000
0030
,  // measure 29
0000
1000
0100
1000
,  // measure 30
0100
1000
0001
1000
,  // measure 31
0001
0010
0001
0010
,  // measure 32
0001
0100
0010
0100
,  // measure 33
0010
1000
0001
1000
,  // measure 34
0001
1000
0000
0000
,  // measure 35
0000
0010
0000
0000
,  // measure 36
0000
1001
0000
0000
,  // measure 37
0100
0001
0100
0001
,  // measure 38
1000
0010
0000
0000
,  // measure 39
0000
1000
0100
0010
,  // measure 40
0001
0200
0000
0300
,  // measure 41
0001
0100
0010
1000
,  // measure 42
0010
1000
0000
0000
,  // measure 43
0000
0001
0010
0100
,  // measure 44
1000
0020
0000
0030
,  // measure 45
1000
0100
1000
0100
,  // measure 46
0010
0001
0000
0000
,  // measure 47
0000
1000
0010
0100
,  // measure 48
0001
0020
0000
0030
,  // measure 49
0001
0100
0001
1000
,  // measure 50
0010
1000
0000
0000
,  // measure 51
0010
1000
0100
0010
,  // measure 52
0001
0020
0000
0000
,  // measure 53
0031
0100
0020
0000
,  // measure 54
1030
0010
0200
0000
,  // measure 55
0310
1000
0100
0010
,  // measure 56
0001
0020
0000
0031
,  // measure 57
0100
0020
0000
1030
,  // measure 58
0100
2000
0000
0000
,  // measure 59
3010
1000
0100
0010
,  // measure 60
0001
0001
0000
0000
;

//---------------dance-single - ----------------
#NOTES:
     dance-single:
     :
     Hard:
     6:
     0.391,0.403,0.306,0.094,0.017: // measure 1
0000
0000
0000
0000
,  // measure 2
0000
0000
0000
0000
,  // measure 3
0000
0000
0000
0000
,  // measure 4
0000
0000
0000
0000
,  // measure 5
0000
0000
0000
0000
,  // measure 6
0000
0000
0000
0000
,  // measure 7
0001
1000
0200
0000
,  // measure 8
0000
0310
0002
0000
,  // measure 9
1003
0010
0100
0000
0000
0001
0100
0000
,  // measure 10
0000
0001
0020
0000
0000
0031
0000
0000
,  // measure 11
0000
0100
0010
0000
0000
1000
0010
0000
,  // measure 12
0000
1000
0100
0000
0100
0000
1100
0000
,  // measure 13
0000
0010
0100
0000
0000
0100
0001
0000
,  // measure 14
0000
0001
0010
0000
0010
0000
0011
0000
,  // measure 15
0001
0100
0000
0010
1000
0000
0010
0100
,  // measure 16
0010
0100
0000
0010
1000
0100
0010
0000
,  // measure 17
1001
0001
0011
0011
,  // measure 18
0010
0000
0001
0000
1000
0000
0000
1000
0000
0000
1000
0000
0010
0000
0000
0000
,  // measure 19
0100
0001
1000
0000
1100
0000
1100
0000
,  // measure 20
0100
0000
1000
0000
0001
0000
0000
0001
0000
0000
0001
0000
0100
0000
0000
0000
,  // measure 21
0010
1000
0002
0000
0100
0000
0103
0000
,  // measure 22
0100
0010
2000
0000
0010
0000
3010
0000
,  // measure 23
0100
0001
2000
0000
0001
0000
3001
0000
,  // measure 24
0010
1000
0002
0000
1000
0000
1003
0000
,  // measure 25
0001
1000
1010
1010
,  // measure 26
0010
0000
1000
0000
0001
0000
0000
0001
0000
0000
0001
0000
0010
0000
0000
0000
,  // measure 27
0100
1000
0001
0000
0101
0000
0101
0000
,  // measure 28
0100
0000
0001
0000
1000
0000
0000
1000
0000
0000
1000
0000
0100
0000
0000
0000
,  // measure 29
0010
0001
0100
0000
0010
0000
0100
0000
,  // measure 30
0001
0010
0100
0000
1000
0000
0010
0100
,  // measure 31
0001
0010
0100
0000
1000
0100
0010
0001
,  // measure 32
0010
0100
2000
0000
0001
0000
0001
0000
,  // measure 33
3001
0200
0010
0010
,  // measure 34
0310
0002
0000
0000
,  // measure 35
0000
0000
2003
0000
0000
0000
0000
0001
,  // measure 36
3001
0000
1001
0000
0010
1000
0000
0010
,  // measure 37
1000
0001
0001
0100
0010
0100
0000
0001
,  // measure 38
1000
0010
1000
0010
0100
0001
0000
0100
,  // measure 39
0001
1000
1100
0000
1100
0000
0011
0000
,  // measure 40
0011
0000
1000
0010
0100
0001
0000
0100
,  // measure 41
0001
1000
1000
0010
0100
0010
0000
1000
,  // measure 42
0001
0100
0001
0100
0010
1000
0000
0010
,  // measure 43
1000
0001
0101
0000
0101
0000
1010
0000
,  // measure 44
1010
0000
1000
0001
0010
0100
0000
1000
,  // measure 45
0010
0100
0001
1000
0000
0001
0000
1000
,  // measure 46
0100
1000
0001
0010
0100
1000
0000
0010
,  // measure 47
1000
0001
0011
0000
0011
0000
1100
0000
,  // measure 48
1100
0000
0001
1000
0100
0010
0000
0001
,  // measure 49
0100
0010
1000
0001
0000
1000
0000
0001
,  // measure 50
0010
0001
1000
0100
0010
0001
0000
0100
,  // measure 51
0001
1000
1100
0000
1100
0000
0011
0000
,  // measure 52
0011
0000
0100
1000
0001
0001
0000
0010
,  // measure 53
0100
1000
0001
1000
0000
0100
0000
0010
,  // measure 54
0100
1000
0000
0001
0000
0000
0000
1000
,  // measure 55
0001
0100
0101
0000
1010
0000
0101
0000
,  // measure 56
1010
0000
0010
0001
1000
1000
0000
0100
,  // measure 57
0010
0001
1000
0001
0000
0010
0000
0100
,  // measure 58
0010
0001
0000
1000
0000
0000
0000
0001
,  // measure 59
1000
0010
1010
0000
0101
0000
1010
0000
,  // measure 60
0101
1000
0000
0000
;

//---------------dance-single - ----------------
#NOTES:
     dance-single:
     :
     Challenge:
     7:
     0.469,0.427,0.383,0.034,0.102: // measure 1
0000
0000
0000
0000
,  // measure 2
0000
0000
0000
0000
,  // measure 3
0000
0000
0000
0000
,  // measure 4
0000
0000
0000
0000
,  // measure 5
0000
0000
0000
0000
,  // measure 6
0000
0000
0000
0000
,  // measure 7
1000
0000
1000
0001
0200
0000
0000
0000
,  // measure 8
0000
0000
0301
1000
0020
0000
0000
0030
,  // measure 9
1001
0000
0011
0000
1000
0001
0100
0000
,  // measure 10
0001
0000
0100
0000
0001
0000
0000
0101
0000
0000
1000
0000
0001
0000
0000
0000
,  // measure 11
1000
0001
1000
0000
0001
1000
0010
0000
,  // measure 12
1000
0000
0010
0000
1000
0000
0000
0001
1000
0000
0100
0000
0010
0000
0000
0000
,  // measure 13
0001
1000
0001
0000
1000
0001
0100
0000
,  // measure 14
0001
0000
0100
0000
0001
0000
0000
0101
0000
0000
1000
0000
0001
0000
0000
0000
,  // measure 15
0010
0001
0010
0100
1000
0000
0100
1000
,  // measure 16
0001
0200
0000
0001
0301
1000
0010
0000
,  // measure 17
1001
0011
0011
0011
,  // measure 18
0010
0000
0001
0000
1000
0000
0000
1001
0000
0000
1000
0000
0001
0000
0010
0000
,  // measure 19
0100
1000
1100
0000
1100
0000
1100
0000
,  // measure 20
0100
0000
1000
0000
0001
0000
0000
1001
0000
0000
0001
0000
1000
0000
0000
0000
,  // measure 21
0100
1000
0100
0010
0001
1000
0001
0000
,  // measure 22
0010
0001
0010
0001
1000
0010
0100
0001
,  // measure 23
0010
0100
1000
0000
0001
0100
0010
1000
,  // measure 24
0100
0010
0002
0000
1000
0000
1003
0000
,  // measure 25
1001
1100
1100
1100
,  // measure 26
0100
0000
1000
0000
0001
0000
0000
1001
0000
0000
0001
0000
1000
0000
0100
0000
,  // measure 27
0010
0001
0011
0000
0011
0000
0011
0000
,  // measure 28
0010
0000
0001
0000
1000
0000
0000
1001
0000
0000
1000
0000
0001
0000
0000
0000
,  // measure 29
0010
0100
1000
0010
0100
0010
1000
0010
,  // measure 30
0100
0001
0010
0100
0010
0001
0100
0010
,  // measure 31
1000
0010
0100
0010
1000
0100
0010
0001
,  // measure 32
0010
0000
0100
0000
1000
0000
0000
0100
0000
0000
1000
0000
0001
0000
0000
0100
,  // measure 33
0000
0000
0001
0000
1000
0000
0000
0010
0000
0000
1000
0000
0001
0000
0000
0010
,  // measure 34
0000
0000
0001
0010
0001
0000
1000
0000
0001
0000
0000
0000
0001
0000
0000
0000
,  // measure 35
1000
0000
1000
0100
0010
0001
1000
0010
,  // measure 36
0010
0010
1000
0100
0010
0001
0000
0100
,  // measure 37
0001
0100
0001
0010
0100
1000
0000
0010
,  // measure 38
1000
0010
1000
0100
0010
0001
0000
0100
,  // measure 39
0001
1000
1010
0000
0101
0000
1010
0000
,  // measure 40
0101
0000
1000
0001
0010
0100
0000
1000
,  // measure 41
0010
0100
0001
1000
0010
0001
0000
0010
,  // measure 42
0100
1000
0001
1000
0100
0001
0000
1000
,  // measure 43
0100
0010
0101
0000
1010
0000
0101
0000
,  // measure 44
1010
0000
0001
1000
0100
0010
0000
0001
,  // measure 45
0100
0010
0100
0001
0100
1000
0000
0010
,  // measure 46
1000
0100
0010
0001
0010
1000
0000
0001
,  // measure 47
0100
0010
1100
0000
0011
0000
1100
0000
,  // measure 48
0011
0000
1000
0001
0010
0100
0000
1000
,  // measure 49
0010
0100
0010
1000
0010
0001
0000
0100
,  // measure 50
0001
0010
0100
1000
0100
0001
0000
1000
,  // measure 51
0010
0100
0011
0000
1100
0000
0011
0000
,  // measure 52
1100
0000
0000
0000
1000
0000
0000
0010
0100
0000
0010
0000
1000
0000
0000
0010
,  // measure 53
0100
0000
0010
0000
1000
0000
0000
0001
0010
0000
0001
0000
1000
0000
0000
0100
,  // measure 54
1000
0000
0001
0000
0100
0000
0000
0001
0100
0000
0010
0000
0100
0000
0000
0010
,  // measure 55
1000
0001
0101
0000
1100
0000
0011
0000
,  // measure 56
1001
0000
0000
0000
0001
0000
0000
1000
0100
0000
1000
0000
0001
0000
0000
0010
,  // measure 57
0001
0000
1000
0000
0010
0000
0000
0100
0010
0000
0100
0000
0001
0000
0000
0100
,  // measure 58
0001
0000
1000
0000
0100
0000
0000
1000
0010
0000
1000
0000
0001
0000
0000
0100
,  // measure 59
0001
1000
1100
0000
0011
0000
1100
0010
,  // measure 60
0001
1000
0000
0000
0000
0000
0000
0000
;

//---------------dance-single - ----------------
#NOTES:
     dance-single:
     :
     Beginner:
     1:
     0.074,0.076,0.034,0.000,0.000: // measure 1
0000
0000
0000
0000
,  // measure 2
0000
0000
0000
0000
,  // measure 3
0000
0000
0000
0000
,  // measure 4
0000
0000
0000
0000
,  // measure 5
0000
0000
0000
0000
,  // measure 6
0000
0000
0000
0000
,  // measure 7
0000
0000
0000
0000
,  // measure 8
0000
0000
0000
0000
,  // measure 9
0001
0000
1000
0000
,  // measure 10
0001
0000
0000
0000
,  // measure 11
0000
1000
0000
0001
,  // measure 12
0000
1000
0000
0000
,  // measure 13
0000
0010
0000
0100
,  // measure 14
0000
0010
0000
0000
,  // measure 15
0000
1000
0000
0000
,  // measure 16
0000
0001
0000
0000
,  // measure 17
0000
0100
0000
0000
,  // measure 18
0000
0010
0000
0000
,  // measure 19
0000
0100
0000
0000
,  // measure 20
0000
0010
0000
0000
,  // measure 21
0000
1000
0000
0000
,  // measure 22
0000
0100
0000
0000
,  // measure 23
0000
0010
0000
0000
,  // measure 24
0000
0001
0000
0000
,  // measure 25
0000
1000
0000
0000
,  // measure 26
0000
1001
0000
0000
,  // measure 27
0000
0001
0000
0000
,  // measure 28
0000
1001
0000
0000
,  // measure 29
0000
0100
0000
0000
,  // measure 30
0000
0010
0000
0000
,  // measure 31
0000
0100
0000
0000
,  // measure 32
0000
0001
0000
0000
,  // measure 33
0000
1000
0000
0000
,  // measure 34
0000
0001
0000
0000
,  // measure 35
0000
0000
0000
0000
,  // measure 36
0000
1001
0000
0000
,  // measure 37
0000
0001
0000
0000
,  // measure 38
0000
1000
0000
0000
,  // measure 39
0000
0001
0000
0000
,  // measure 40
0000
1001
0000
0000
,  // measure 41
0000
0100
0000
0000
,  // measure 42
0000
0010
0000
0000
,  // measure 43
0000
1000
0000
0000
,  // measure 44
0000
0001
0000
0000
,  // measure 45
0000
1000
0000
0000
,  // measure 46
0000
0001
0000
0000
,  // measure 47
0000
0100
0000
0000
,  // measure 48
0000
0010
0000
0000
,  // measure 49
0000
0100
0000
0000
,  // measure 50
0000
0010
0000
0000
,  // measure 51
0000
1000
0000
0001
,  // measure 52
0000
1000
0000
0000
,  // measure 53
0000
0001
0000
0000
,  // measure 54
0000
0100
0000
0000
,  // measure 55
0000
0010
0000
0100
,  // measure 56
0000
0010
0000
0000
,  // measure 57
0000
1000
0000
0000
,  // measure 58
0000
0001
0000
0000
,  // measure 59
0000
0100
0000
0010
,  // measure 60
0000
0100
0000
0000
;

//---------------dance-single - ----------------
#NOTES:
     dance-single:
     :
     Medium:
     4:
     0.268,0.302,0.128,0.119,0.000: // measure 1
0000
0000
0000
0000
,  // measure 2
0000
0000
0000
0000
,  // measure 3
0000
0000
0000
0000
,  // measure 4
0000
0000
0000
0000
,  // measure 5
0000
0000
0000
0000
,  // measure 6
0000
0000
0000
0000
,  // measure 7
0001
2000
0000
0000
,  // measure 8
0000
3002
0000
0000
,  // measure 9
1003
0010
0100
0010
,  // measure 10
1000
0000
0002
0000
0000
1003
0000
0000
,  // measure 11
0000
0010
0001
0100
,  // measure 12
0001
0000
2000
0000
0000
3001
0000
0000
,  // measure 13
0000
0100
1000
0010
,  // measure 14
1000
0000
0002
0000
0000
1003
0000
0000
,  // measure 15
0010
0100
0000
0010
0100
0000
0000
0000
,  // measure 16
0010
0100
0001
1000
,  // measure 17
1001
0100
0100
1100
,  // measure 18
0000
0010
0001
0100
,  // measure 19
0001
0010
0010
0011
,  // measure 20
0000
0100
0010
1000
,  // measure 21
0001
1000
0001
0000
1000
0000
0001
0000
,  // measure 22
1000
0001
1000
0000
0001
0000
0010
0000
,  // measure 23
0100
1000
0100
1000
,  // measure 24
0001
0010
0001
1000
,  // measure 25
0100
0010
0010
1010
,  // measure 26
0000
0100
0001
1000
,  // measure 27
0001
0100
0100
0101
,  // measure 28
0000
0010
0100
0010
,  // measure 29
0010
1001
0100
1000
,  // measure 30
0100
0010
0001
0010
,  // measure 31
0100
1000
0010
0100
,  // measure 32
0001
0100
0010
1000
,  // measure 33
0100
0010
0001
0100
,  // measure 34
0001
1000
0002
0000
0000
0000
0000
0000
,  // measure 35
0000
0000
2003
0000
0000
0000
0000
0001
,  // measure 36
3001
1002
0000
0000
,  // measure 37
0103
0010
1000
0010
,  // measure 38
0100
0002
0000
0000
,  // measure 39
1003
0001
0010
0100
,  // measure 40
1000
0000
0001
1000
0001
0000
0100
0000
,  // measure 41
0001
0100
0001
1000
,  // measure 42
0010
0000
1000
0001
2000
0000
0000
0000
,  // measure 43
3001
1000
0100
0010
,  // measure 44
0001
0000
1000
0001
1000
0000
0001
0000
,  // measure 45
0010
0001
0010
0100
,  // measure 46
1000
0000
0100
0000
1000
0001
1000
0000
,  // measure 47
0010
1000
1010
0001
,  // measure 48
0101
0000
0001
1000
0001
0000
0100
0000
,  // measure 49
0010
0100
0001
0010
,  // measure 50
0001
0000
1000
0000
0001
1000
0001
0000
,  // measure 51
1000
0001
0011
1000
,  // measure 52
1100
0020
0000
0000
,  // measure 53
0031
0100
0010
1000
,  // measure 54
0010
0200
0000
0000
,  // measure 55
0310
1000
1100
0010
,  // measure 56
0011
0002
0000
0000
,  // measure 57
0103
0010
1000
0010
,  // measure 58
0100
0002
0000
0000
,  // measure 59
0013
0001
0101
0010
,  // measure 60
1010
0001
0000
0000
;
