#TITLE:EE-AL-K;
#SUBTITLE:;
#ARTIST:Shinji Hosoe[Remix];
#TITLETRANSLIT:;
#SUBTITLETRANSLIT:;
#ARTISTTRANSLIT:;
#CREDIT:DMAxel;
#BANNER:EE-AL-K.png;
#BACKGROUND:EE-AL-K-bg.png;
#LYRICSPATH:;
#CDTITLE:KEYBOARDMANIA.png;
#MUSIC:EE-AL-K.mp3;
#OFFSET:-4.560;
#SAMPLESTART:38.561;
#SAMPLELENGTH:12.000;
#SELECTABLE:YES;
#BPMS:0.000=119.950;
#STOPS:;
#BGCHANGES:;

//---------------dance-single - ----------------
#NOTES:
     dance-single:
     :
     Easy:
     3:
     0.199,0.232,0.165,0.091,0.000:
0001
0000
1000
0000
,
0010
0100
0010
0000
,
1000
0000
0001
0000
,
0100
0010
0100
0010
,
0200
0000
0302
0000
,
1003
0001
1000
0000
,
0100
0000
0010
0000
,
1001
0000
0000
0000
,
0010
0000
0010
0000
,
0110
0000
0100
0000
,
0001
0000
0010
0000
,
0001
0000
1000
0000
,
0100
1000
0100
1000
,
0200
0000
1300
0000
,
1000
0001
1000
0000
,
0001
0010
0001
0010
,
0001
1000
0001
0000
,
1001
0000
0100
0010
,
0100
0001
0010
0100
,
1000
0010
1000
0010
,
1000
0010
1000
0001
,
2000
0000
3020
0000
,
1030
0100
0010
0000
,
0001
1000
0001
1000
,
0002
0000
0000
0100
,
0000
0103
0001
1000
,
1001
0000
0000
0000
,
0011
0000
0000
0000
,
1001
0000
0000
0000
,
1100
0000
0000
0000
,
1001
0000
0000
0000
,
0101
0000
0000
0000
,
1001
0000
0000
0000
,
1010
0000
0000
0000
,
1001
0000
0000
0000
,
1100
0000
0000
0000
,
1001
0000
0000
0000
,
0011
0000
0000
0000
,
1001
0000
0000
0000
,
0101
0000
0000
0000
,
0010
0100
0010
0100
,
0010
1000
0100
0010
,
1002
0000
0013
0100
,
1000
0010
1000
0010
,
1000
0100
0010
0001
,
1000
0001
0010
0100
,
2000
0000
3002
0000
,
0103
0010
0100
0001
,
0010
0100
1000
0001
,
2000
0001
0000
0001
,
0000
0001
0000
3001
;

//---------------dance-single - ----------------
#NOTES:
     dance-single:
     :
     Medium:
     6:
     0.383,0.395,0.219,0.137,0.050:
0002
0000
2003
0000
,
3010
0000
0000
0000
1000
0000
0000
0001
1000
0000
0000
0000
0001
0000
1000
0000
,
0001
0000
0100
0000
0001
0000
0100
0000
0001
0000
0000
0000
1000
0000
0000
1000
,
0001
0000
0000
0000
0001
0000
0000
0001
1000
0000
0100
0000
1000
0000
0100
0000
,
2000
0000
0000
0001
3002
0000
0000
1000
,
1003
0000
0000
0000
1000
0000
0000
1000
0001
0000
0000
0000
1000
0000
0000
0000
,
0001
1000
0020
0000
1000
0000
1030
0000
,
2001
0000
0001
0000
0000
0001
3001
0000
,
0002
0000
1000
0000
0000
1003
0000
0000
,
0001
0010
0001
0010
0001
1000
0100
0010
,
0001
0000
0000
0100
0010
0000
0110
0000
,
0010
0000
0000
0010
0100
0000
0010
0000
1000
0000
0100
0000
0010
0000
0001
0000
,
0000
0100
0100
0010
1000
0000
0001
0000
,
1001
0000
0000
0001
0010
0100
1000
0100
,
1000
0010
0100
0001
0010
0000
0010
0000
,
0001
0000
0000
0001
1000
0000
0000
1000
0001
0000
0100
0000
0001
0000
0000
0000
,
0100
0001
1000
1000
1000
0001
0100
0001
,
0101
0000
0000
0010
1000
0001
0010
0100
,
1100
0101
1100
1001
,
1000
0000
1000
0100
0010
0001
0001
0100
,
0010
0000
0100
0010
1000
1000
0001
0010
,
0200
0000
0000
1000
2300
0000
0000
0001
,
3001
0000
0000
0000
1000
0000
0000
1000
0001
0000
0100
0000
0001
0000
0000
0000
,
0100
0000
0010
0000
0100
0000
0000
0001
1000
0000
0010
0000
1000
0000
0000
0000
,
0200
1000
0000
1300
,
0020
0001
0031
1001
,
1000
0100
0010
0001
0000
0000
0000
0000
,
0101
0000
0000
1000
0000
0000
0000
0000
,
1000
0010
0100
0001
0000
0000
0000
0000
,
0101
0000
0000
1000
0000
0000
0001
0000
,
0001
0010
0100
1000
0000
0000
0000
0000
,
1010
0000
0000
0001
0000
0000
0000
0000
,
0001
0100
0010
1000
0000
0000
0000
0000
,
1010
0000
0000
0001
0000
0000
1000
0000
,
1000
0010
0100
0002
0000
0000
1000
0000
,
1003
0000
0000
1100
0000
0000
0000
0000
,
1000
0100
0010
0002
0000
0000
1000
0000
,
1003
0000
0000
1001
0000
0000
0001
0000
,
0001
0100
0010
2000
0000
0000
0001
0000
,
3001
0000
0000
1001
0000
0000
0000
0000
,
0001
1000
0001
1000
0001
1000
0001
1000
,
0100
0010
0100
0010
0100
0010
0001
0010
,
0100
0000
0000
1000
0010
0100
0001
0001
,
0001
0011
1100
1001
,
0001
0000
0000
0001
1000
0000
0010
0000
1000
0000
0000
1000
0001
0000
0100
0000
,
0001
0000
0100
0001
0100
0001
0010
0100
,
1000
0000
0000
0010
0100
0001
0010
0100
,
1000
1010
0101
1001
,
0010
0100
0010
1000
0100
0000
0110
0000
,
1002
1000
0000
1000
,
0000
0000
1003
0000
0000
0000
1000
0001
;

//---------------dance-single - ----------------
#NOTES:
     dance-single:
     :
     Hard:
     8:
     0.520,0.488,0.283,0.229,0.197: // measure 1
0011
0010
0011
0010
,  // measure 2
0011
0000
0000
0000
1100
0000
0000
0001
1000
0000
0100
0000
1000
0000
0000
0000
,  // measure 3
0100
0000
0010
0000
0001
0000
1000
0000
0001
0000
0000
0000
0001
0000
0000
0001
,  // measure 4
1000
0000
0000
0000
1000
0000
0000
1000
0010
0000
0100
0000
0010
0000
1000
0000
,  // measure 5
0002
0000
0000
0000
0000
0000
0103
0010
0200
0000
0000
0000
0000
0000
0310
1000
,  // measure 6
0010
0000
0000
0000
1010
0000
0000
1000
0001
0000
0010
0000
0001
0000
0000
0000
,  // measure 7
0010
0100
1000
0000
1100
0000
0011
0000
,  // measure 8
1002
0000
0100
0000
1000
0000
0100
0103
,  // measure 9
0000
0010
1000
0000
0001
0001
1000
0000
,  // measure 10
0001
0010
0001
0010
0001
0000
0010
0000
0001
0000
1000
0000
0100
0000
1000
0000
,  // measure 11
0001
0000
0000
0000
1000
0000
0100
1000
0100
0000
1000
0000
0001
0000
0000
0000
,  // measure 12
1000
0000
0000
0010
1000
0000
0001
0010
0001
0000
0010
0000
0100
0000
1000
0000
,  // measure 13
0001
0000
1000
0000
0100
1000
0100
1000
0100
0000
1000
0000
0001
0000
0010
0000
,  // measure 14
0001
0000
0000
0000
0010
0000
0001
0010
0001
0000
1000
0000
0010
0000
0100
0000
,  // measure 15
0001
0010
1000
0010
0001
1000
0010
0000
,  // measure 16
1000
0000
0010
1000
0010
0000
1000
0010
1000
0000
0001
0000
0010
0000
0000
0000
,  // measure 17
0001
0100
0001
0100
0001
0000
0010
0000
0100
0000
1000
0000
0001
0000
0001
0000
,  // measure 18
1001
0000
0000
0000
0000
0000
0001
0100
0001
0000
0100
0000
0001
0000
0010
0000
,  // measure 19
0100
0000
0000
1000
0010
1000
0010
1000
0010
0000
1000
0000
0100
0000
0010
0000
,  // measure 20
0001
0000
0000
1000
0010
0000
0100
0000
0010
0000
0010
0100
0010
0000
1000
0000
,  // measure 21
0001
0000
0100
0000
0100
0010
0100
0010
0100
0000
0001
0000
1000
0000
0100
0000
,  // measure 22
0020
0000
0000
0000
0000
0000
0031
0100
0002
0000
0000
0000
0000
0000
1003
0100
,  // measure 23
2000
0000
0000
0000
3001
0010
0001
0010
0001
0000
1000
0000
0010
0000
0000
0000
,  // measure 24
1000
0000
0001
0000
0010
0000
0100
1000
0100
0000
0010
0000
1010
0000
0000
0000
,  // measure 25
2001
0000
0010
0000
0001
0000
0010
3010
,  // measure 26
0000
0100
0001
0000
1010
0000
1001
0000
,  // measure 27
1000
0100
0010
0002
0000
1000
1003
0000
,  // measure 28
1010
0000
0000
1002
0000
1000
1003
0000
,  // measure 29
0001
0010
0100
2000
0000
0001
3001
0000
,  // measure 30
1010
0000
0000
1002
0000
1000
1003
0000
,  // measure 31
1000
0010
0100
0002
0000
1000
1003
0000
,  // measure 32
1100
0000
0000
1002
0000
1000
1003
0000
,  // measure 33
0001
0100
0010
2000
0000
0001
3001
0000
,  // measure 34
0101
0000
0000
2001
0000
0001
3001
0000
,  // measure 35
1000
0001
0010
0200
0000
1000
1300
0000
,  // measure 36
1100
0000
0000
2001
0000
0001
3001
0000
,  // measure 37
0001
1000
0100
0020
0000
0001
0031
0000
,  // measure 38
0011
0000
0000
1002
0000
1000
1003
0000
,  // measure 39
1000
0001
0100
0020
0000
1000
1030
0000
,  // measure 40
1010
0000
0000
2001
0000
0001
3001
0000
,  // measure 41
0001
1000
0010
0100
0001
0010
0100
0010
,  // measure 42
0001
0100
0010
1000
0100
0010
0100
1000
,  // measure 43
0002
0000
0000
0000
0000
0000
1003
0010
1000
0000
0100
0000
0010
0000
0001
0000
,  // measure 44
0100
0000
0000
0001
0100
0001
0100
0001
0100
0000
0001
0000
1000
0000
0010
0000
,  // measure 45
0110
0000
0000
1000
0001
0000
0100
0000
0010
0000
0010
0100
0010
0000
1000
0000
,  // measure 46
0001
0000
0100
0000
0100
0010
0100
0010
0100
0000
0001
0000
0010
0000
0100
0000
,  // measure 47
2000
0000
0000
0000
0000
0000
3001
0100
0001
0000
0010
0000
0100
0000
1000
0000
,  // measure 48
0001
0000
0000
0000
0100
0010
0100
0010
0100
0000
0001
0000
0010
0000
0000
0000
,  // measure 49
0001
0000
0010
0000
0100
0000
1000
0010
1000
0000
0001
0000
0101
0000
0000
0000
,  // measure 50
1002
0100
1000
0103
,  // measure 51
2000
0000
0010
0000
0001
0000
3010
0110
;

//---------------dance-single - ----------------
#NOTES:
     dance-single:
     :
     Beginner:
     1:
     0.084,0.139,0.101,0.000,0.000:
0001
0000
0001
0000
,
0001
0000
0000
0000
,
1000
0000
1000
0000
,
1000
0000
0000
0000
,
1001
0000
0010
0000
,
0010
0000
0010
0000
,
0100
0000
0100
0000
,
0100
0000
0000
0000
,
0000
0000
0000
0000
,
0001
0000
0000
0000
,
0010
0000
0000
0000
,
0100
0000
0000
0000
,
1000
0000
0000
0000
,
1001
0000
0000
0000
,
0010
0000
0000
0000
,
0100
0000
0000
0000
,
0100
0000
0000
0000
,
1001
0000
0000
0000
,
0010
0000
0000
0000
,
1001
0000
0000
0000
,
0100
0000
0001
0000
,
0100
0000
0010
0000
,
1000
0000
0010
0000
,
1001
0000
0000
0000
,
0100
0000
0000
0000
,
0100
0000
0000
0000
,
1001
0000
0000
0000
,
0000
0000
0000
0000
,
1001
0000
0000
0000
,
0000
0000
0000
0000
,
0010
0000
0000
0000
,
0000
0000
0000
0000
,
0010
0000
0000
0000
,
0000
0000
0000
0000
,
1001
0000
0000
0000
,
0000
0000
0000
0000
,
1001
0000
0000
0000
,
0000
0000
0000
0000
,
0100
0000
0000
0000
,
0000
0000
0000
0000
,
0100
0000
0000
0000
,
0100
0000
0000
0000
,
1001
0000
0000
0000
,
0000
0000
0000
0000
,
0100
0000
1000
0000
,
0100
0000
0000
0000
,
0010
0000
0001
0000
,
0010
0000
0000
0000
,
1001
0000
0100
0000
,
0010
0000
0000
0000
,
0000
0000
0000
1000
;
