#TITLE:E.C.M.;
#SUBTITLE:-I.B.Remaster-;
#ARTIST:PAPEHINA meets Haya-P;
#TITLETRANSLIT:;
#SUBTITLETRANSLIT:;
#ARTISTTRANSLIT:;
#CREDIT:DMAxel;
#BANNER:E.C.M. -I.B.Remaster-.png;
#BACKGROUND:E.C.M. -I.B.Remaster--bg.png;
#LYRICSPATH:;
#CDTITLE:pop'n music.png;
#MUSIC:E.C.M. -I.B.Remaster-.mp3;
#OFFSET:-0.840;
#SAMPLESTART:27.507;
#SAMPLELENGTH:12.000;
#SELECTABLE:YES;
#BPMS:0.000=144.000;
#STOPS:;
#BGCHANGES:;

//---------------dance-single - ----------------
#NOTES:
     dance-single:
     :
     Easy:
     3:
     0.246,0.277,0.121,0.261,0.000:
0000
0000
0000
0000
,
0000
0000
0000
0000
,
0000
0000
0000
0000
,
0000
0000
0000
0000
,
2000
0000
0000
0000
,
3200
0000
0000
0000
,
0320
0000
0000
0000
,
0032
0000
0000
0000
,
1003
0001
1000
1000
,
0001
1000
0001
0001
,
0100
0010
0100
0100
,
0001
0010
0100
1000
,
0002
0000
1003
0000
,
2000
0000
3001
0000
,
0002
0000
1003
0000
,
2000
0000
3001
0000
,
0001
0011
0001
0011
,
0002
0000
1003
1001
,
0000
1000
1100
1000
,
1100
2000
0000
3001
,
1001
1000
0010
0010
,
0001
1000
0001
1000
,
0001
0001
0100
0100
,
1000
1000
0001
1000
,
0200
0000
0000
0000
,
0320
0000
0000
0000
,
0032
0000
0000
0000
,
2003
0000
0000
3000
,
2002
0000
0000
3003
,
0020
0000
0001
0000
,
0032
0000
1000
0000
,
1003
0010
1000
0001
,
0000
0000
1000
1000
,
0001
0001
1000
0100
,
0010
0001
1000
1001
,
0000
0010
0001
0010
,
0100
1000
0010
0100
,
0010
0010
1000
1000
,
0001
0001
0100
0100
,
0001
0010
0100
1000
,
0001
0001
1000
1000
,
0001
1001
1000
1001
,
0010
1000
0100
0010
,
0001
1001
1000
1001
,
0100
0001
0010
0100
,
2000
0000
3002
0000
,
0203
0000
0302
0000
,
2003
0000
3020
0000
,
2030
0000
3002
0000
,
1003
1000
0100
0100
,
0010
0010
0001
0001
,
1000
0010
0100
0001
,
0010
0100
1000
0001
,
0220
0000
0000
0000
,
0330
0000
0000
0000
;

//---------------dance-single - ----------------
#NOTES:
     dance-single:
     :
     Medium:
     6:
     0.408,0.403,0.298,0.112,0.009:
0000
0000
0000
0000
,
0000
0000
0000
0000
,
0000
0000
0000
0000
,
0000
0000
0000
0000
,
1000
0010
0100
0000
0100
0000
0100
0000
,
0001
0100
0010
0000
0010
0000
0010
0000
,
1000
0100
0010
0000
0010
0000
0010
0000
,
0001
0010
0100
0000
0100
0000
0100
0000
,
1000
0100
1000
0001
0000
0010
0100
1000
,
0001
0010
0001
1000
0000
0100
0010
0001
,
1000
0100
1000
0001
0000
0010
0100
1000
,
0001
0001
0000
1000
0010
0100
0010
0100
,
0010
1000
0100
0002
,
0103
0001
0010
2000
,
3010
1000
0100
0002
,
0103
0110
1001
1001
,
0001
0100
0001
0000
0001
0100
0001
0000
,
1001
1000
0001
0110
,
1000
0010
1000
0000
1000
0010
1000
0000
,
1001
0001
1000
0110
,
0001
0010
0001
0000
0100
0010
1000
0000
,
0100
1000
0100
0000
1010
0000
1001
0000
,
1000
0100
1000
0000
0010
0100
0001
0000
,
0010
0001
0010
0000
0101
0000
1001
0000
,
0100
1000
0100
0001
,
0010
1000
0010
0001
,
0100
1000
0100
0001
,
0010
1000
0010
0001
,
2002
0000
0000
3003
,
0012
0000
1003
0001
0100
0000
0001
0000
,
0100
0010
1000
0000
0100
0010
0001
0000
,
1000
0000
0100
0000
1000
0000
0100
0000
0010
0000
0000
0000
0000
0001
0000
1001
,
0000
0000
0000
0001
0100
0010
1000
1000
,
0002
0000
1003
0100
1000
0100
0010
0001
,
0100
0001
2000
0000
3001
0000
1000
1001
,
0000
1000
0010
0100
0001
0010
0100
1000
,
0001
0100
0010
0000
1010
0000
1001
0000
,
0010
0001
0100
0000
0010
1000
0100
0000
,
1000
0100
0001
0100
1000
0000
1001
0000
,
0100
1000
0010
0000
0100
0001
0010
0000
,
0001
0010
1000
0010
0001
0000
1001
0000
,
0100
0001
1000
0100
1000
0000
0001
0010
,
1000
0010
0001
0000
2000
0001
3001
0000
,
0010
1000
0001
0010
0001
0000
1000
0100
,
0001
0100
1000
0000
0002
1000
1003
0000
,
0100
1100
0100
1100
,
0010
0011
0010
0011
,
0010
1010
0010
1010
,
0100
0101
0100
0101
,
0100
0010
0100
0000
0110
0000
1001
0000
,
0010
0100
0010
0000
0110
0000
1001
0000
,
1000
0100
0010
0000
0001
0010
1000
0000
,
0010
0100
0001
1000
0100
0001
0010
0100
,
2002
0000
0000
0000
,
3003
0000
0000
0000
;

//---------------dance-single - ----------------
#NOTES:
     dance-single:
     :
     Hard:
     8:
     0.479,0.478,0.345,0.242,0.168:
0000
0000
0000
0000
,
0000
0000
0000
0000
,
0000
0000
0000
0000
,
0000
0000
0000
0000
,
1000
0000
0010
0000
0200
0000
0001
0000
0000
0001
0000
0000
0301
0000
0000
0000
,
0001
0000
0100
0000
0020
0000
1000
0000
0000
1000
0000
0000
1030
0000
0000
0000
,
1000
0000
0100
0000
0020
0000
0001
0000
0000
0001
0000
0000
0031
0000
0000
0000
,
0001
0000
0010
0000
0200
0000
1000
0000
0000
1000
0000
0000
1300
0000
0000
0000
,
1000
0000
0010
0000
1000
0000
0000
0001
0000
0000
0100
0000
0001
0000
0001
0000
,
0001
0000
0100
0000
0001
0000
0000
1000
0000
0000
0010
0000
1000
0000
1000
0000
,
1000
0000
0010
0000
1000
0000
0000
0001
0000
0000
0100
0000
0001
0000
0001
0000
,
1000
0100
1000
0100
0010
0001
0100
0010
,
1000
0000
0000
1000
0000
0000
1000
0000
0001
0000
0000
0020
0000
0000
0000
0000
,
0031
0000
0000
0001
0000
0000
0001
0000
1000
0000
0000
2000
0000
0000
0000
0000
,
3010
0000
0000
0010
0000
0000
0010
0000
1000
0000
0000
0002
0000
0000
0000
0000
,
0103
0000
0000
0100
0000
0000
0100
0000
0001
0000
0000
0000
1001
0000
0000
0000
,
1000
0100
0001
1000
0100
0010
0100
1000
,
0001
1001
1100
1001
,
0001
0010
1000
0001
0010
0100
0010
0001
,
1000
1001
0011
1001
,
1000
0100
0001
0010
0100
0010
0001
1000
,
0100
0001
1000
0000
1010
0000
1001
0000
,
0001
0010
1000
0100
0010
0100
1000
0001
,
0100
1000
0001
0000
0101
0000
1001
0000
,
2000
3200
0001
0302
,
0023
1000
2030
3200
,
0001
0302
0023
1000
,
2030
3200
0001
0301
,
2002
0000
0000
3003
,
1001
0000
0000
0000
1000
0000
0100
0000
1000
0000
0100
0000
1000
0001
0000
0000
,
0010
0100
1000
0001
1000
0100
1000
0100
,
0000
0000
1000
0000
0002
0000
0000
0100
0000
0103
0000
0000
0000
1001
0000
1001
,
0000
0000
0000
0000
0000
0000
1000
0001
1000
0000
0010
0000
0110
0000
0000
0000
,
1002
0000
1003
0100
0001
0100
1000
0001
,
0020
0000
0000
0100
0130
0000
1001
1001
,
0000
1000
0100
0001
0100
1000
0001
0010
,
0100
0010
0001
1000
1100
0000
1001
0000
,
1000
0000
0000
0100
0000
0000
1000
0000
0001
0000
0100
0000
0101
0000
0000
0000
,
0001
0000
0000
0100
0000
0000
0001
0000
1000
0000
0010
0000
1010
0000
0000
0000
,
1000
0000
0000
0010
0000
0000
1000
0000
0001
0000
0010
0000
0011
0000
0000
0000
,
0001
0000
0000
0100
0000
0000
0001
0000
1000
0000
0100
0000
1100
0000
0000
0000
,
0001
0000
0010
0000
1000
0000
0001
0010
0001
0010
0001
0000
1000
0000
0100
0000
,
0001
0100
1000
0001
2000
0001
3001
0000
,
1000
0000
0100
0000
0001
0000
1000
0100
1000
0100
1000
0000
0001
0000
0010
0000
,
1000
0010
0001
1000
0002
1000
1003
0000
,
1000
0000
0000
0000
1010
0000
0000
0001
1000
0000
0000
0000
1010
0000
0000
0000
,
0001
0000
0000
0000
0101
0000
0000
1000
0001
0000
0000
0000
0101
0000
0000
0000
,
1000
0000
0000
0000
1100
0000
0000
0001
1000
0000
0000
0000
1100
0000
0000
0000
,
0001
0000
0000
0000
0011
0000
0000
1000
0001
0000
0000
0000
0011
0000
0000
0000
,
0001
0000
0100
0000
0010
0000
0000
1000
0001
0000
0000
0000
1001
0000
0000
0000
,
1000
0000
0010
0000
0100
0000
0000
0001
1000
0000
0000
0000
1001
0000
0000
0000
,
1000
0000
0010
0000
0100
0000
0000
0001
1000
0000
0100
0000
0101
0000
0000
0000
,
0001
0000
0100
0000
0010
0000
0000
1000
0001
0000
0010
0000
0100
0000
0100
0000
,
2002
0000
0000
0000
,
3003
0000
0000
0000
;

//---------------dance-single - ----------------
#NOTES:
     dance-single:
     :
     Challenge:
     9:
     0.569,0.568,0.224,0.214,0.452: // measure 1
0000
0000
0000
0000
,  // measure 2
0000
0000
0000
0000
,  // measure 3
0000
0000
0000
0000
,  // measure 4
0000
0000
0000
0000
,  // measure 5
0001
0000
0010
0000
0001
0000
1000
0100
0000
1000
0100
0000
1000
0000
0001
0000
,  // measure 6
1000
0000
0100
0000
1000
0000
0001
0010
0000
0001
0010
0000
0001
0000
1000
0000
,  // measure 7
0001
0000
0010
0000
0001
0000
1000
0100
0000
1000
0100
0000
1000
0000
0001
0000
,  // measure 8
1000
0100
1000
0000
0010
0100
0000
0010
0100
0000
0000
0000
0001
1000
0001
1000
,  // measure 9
0001
0000
0100
0000
0001
0000
1000
0010
0000
1000
0010
0000
1000
0000
0001
0000
,  // measure 10
0010
0000
0100
0000
1000
0000
0001
0100
0000
0001
0100
0000
0001
0000
1000
0000
,  // measure 11
0100
0000
0010
0000
0001
0000
1000
0010
0000
1000
0010
0000
0100
0000
0100
0000
,  // measure 12
0001
0010
0000
0001
0010
0000
0100
1000
0000
0100
1000
0000
0001
1000
0001
0000
,  // measure 13
1000
0000
0010
0100
0000
0002
0000
0000
1003
0000
0010
2000
0000
0000
0000
0000
,  // measure 14
3001
0000
0100
0010
0000
2000
0000
0000
3001
0000
0100
0002
0000
0000
0000
0000
,  // measure 15
1003
0000
0010
0100
0000
0002
0000
0000
1003
0000
0100
2000
0000
0000
0000
0000
,  // measure 16
3001
0010
0001
0000
0100
0010
0000
0100
0010
0000
0000
0000
1000
0001
1000
0001
,  // measure 17
1000
0100
0001
0010
0100
1000
0001
0010
,  // measure 18
2000
0000
0000
0001
0000
0000
0001
0000
3001
0000
0000
0000
1001
0000
0000
0000
,  // measure 19
0001
0010
1000
0100
0010
0001
1000
0100
,  // measure 20
0002
0000
0000
1000
0000
0000
1000
0000
1003
0000
0000
0000
0001
1000
0001
1000
,  // measure 21
0001
0010
1000
0010
0001
1000
0100
1000
,  // measure 22
0020
0000
0000
1000
0000
0000
1000
0000
1030
0000
0000
0000
0010
0000
1000
0000
,  // measure 23
0001
0010
1000
0010
0001
1000
0100
1000
,  // measure 24
0020
0000
0000
1000
0000
0000
1030
0000
0001
0000
1000
0000
1001
0000
0000
0000
,  // measure 25
2000
3200
0302
0023
,  // measure 26
2030
3200
0320
0032
,  // measure 27
1003
0010
0000
0000
0100
0001
0000
0000
0001
0100
0000
0000
0010
1000
0000
0000
,  // measure 28
0001
0010
0000
0001
0010
0000
0100
1000
0000
0100
0000
1000
0000
0001
2000
0000
,  // measure 29
0002
0000
0000
3003
,  // measure 30
1001
0000
0000
0000
0001
0000
0100
0000
0001
0000
1000
0000
0100
0010
0000
0000
,  // measure 31
0001
0010
1000
0010
0001
1000
0100
1000
,  // measure 32
0001
0000
0100
0000
0100
0000
0001
1000
0000
1100
0000
0000
0000
1001
0000
1001
,  // measure 33
0000
0000
0000
0000
0000
0000
0100
0001
0100
0000
0010
1000
0000
1000
0000
0000
,  // measure 34
0001
0000
1000
0000
0001
0010
0001
0010
0001
1000
0100
0000
1000
0100
1000
0001
,  // measure 35
0000
0100
0020
0000
0000
0000
0100
0000
0130
0000
0000
0000
1001
0000
1001
0000
,  // measure 36
0000
0000
0001
0010
0001
0010
0001
0010
0100
1000
0100
1000
0001
0010
0100
0000
,  // measure 37
1000
0100
1000
0000
0010
0100
0000
0010
0100
0000
0000
0000
0001
1000
0001
1000
,  // measure 38
0001
0010
1000
0001
0010
1000
0100
0010
,  // measure 39
0002
0000
0000
0100
0000
0000
0100
0000
0103
0000
0001
0000
1001
0000
0000
0000
,  // measure 40
1000
0100
0001
1000
0100
0001
0010
0100
,  // measure 41
2000
0000
0000
0010
0000
0000
0010
0000
3010
0000
1000
0000
1001
0000
0000
0000
,  // measure 42
0001
0010
0001
0010
0001
0000
1000
0000
0100
0000
1000
0000
0010
1000
0010
1000
,  // measure 43
0010
1000
0001
0010
0001
1000
1001
0000
,  // measure 44
1000
0100
1000
0100
1000
0000
0001
0000
0010
0000
0001
0000
0100
0001
0100
0001
,  // measure 45
0100
0001
1000
0100
1000
0001
1001
0000
,  // measure 46
0010
0000
0000
0000
1001
0000
0000
1000
0010
0000
0000
0000
1001
0000
0000
0000
,  // measure 47
0100
0000
0000
0000
1001
0000
0000
0001
0100
0000
0000
0000
1001
0000
0000
0000
,  // measure 48
0010
0000
0000
0000
1001
0000
0000
0001
0010
0000
0000
0000
1001
0000
0000
0000
,  // measure 49
0100
0000
0000
0000
1001
0000
0000
1000
0100
0000
0000
0000
1001
0000
0000
0000
,  // measure 50
0001
0000
0001
0000
0110
0000
0000
0001
1000
0000
0000
0000
1001
0000
0000
0000
,  // measure 51
1000
0000
1000
0000
0110
0000
0000
1000
0001
0000
0000
0000
1001
0000
0000
0000
,  // measure 52
0001
0000
0001
0000
0100
0000
0000
0001
1000
0000
1000
0000
0001
0000
0100
0000
,  // measure 53
0001
0000
0010
0000
0100
0000
0000
1000
0001
0000
0001
0000
0010
0001
0010
0001
;

//---------------dance-single - ----------------
#NOTES:
     dance-single:
     :
     Beginner:
     1:
     0.067,0.124,0.084,0.000,0.000:
0000
0000
0000
0000
,
0000
0000
0000
0000
,
0000
0000
0000
0000
,
0000
0000
0000
0000
,
1000
0000
0000
0000
,
0001
0000
0000
0000
,
1000
0000
0000
0000
,
0001
0000
0000
0000
,
1001
0000
0000
0000
,
0001
0000
0000
0000
,
1000
0000
0000
0000
,
0001
0000
0000
0000
,
1000
0000
0000
0000
,
0000
0000
0000
0000
,
0001
0000
0000
0000
,
0000
0000
0000
0000
,
1001
0000
0000
0000
,
0000
0000
0000
0000
,
0010
0000
0000
0000
,
0000
0000
0000
0000
,
0110
0000
0000
0000
,
0000
0000
0000
0000
,
0100
0000
0000
0000
,
0000
0000
0000
0000
,
0001
0000
0000
0000
,
0000
0000
0000
0000
,
1000
0000
0000
0000
,
0000
0000
0000
0000
,
1001
0000
0000
0000
,
1001
0000
0000
0000
,
0001
0000
0000
0000
,
1000
0000
0000
0000
,
0000
0000
0000
0000
,
1000
0000
0000
0000
,
0001
0000
0000
0000
,
0001
0000
0000
0000
,
1000
0000
0000
0000
,
1001
0000
0000
0000
,
0010
0000
0000
0000
,
0100
0000
0000
0000
,
0010
0000
0000
0000
,
1001
0000
0000
0000
,
1000
0000
0000
0000
,
1001
0000
0000
0000
,
0001
0000
0000
0000
,
0100
0000
0000
0000
,
0100
0000
0000
0000
,
0010
0000
0000
0000
,
0010
0000
0000
0000
,
0100
0000
0000
0000
,
0100
0000
0000
0000
,
0010
0000
0000
0000
,
0010
0000
0000
0000
,
1001
0000
0000
0000
;
