#TITLE:E reviver;
#SUBTITLE:-imaging you-;
#ARTIST:sasakure.UK arranged by 美月 正;
#TITLETRANSLIT:;
#SUBTITLETRANSLIT:;
#ARTISTTRANSLIT:sasakure.UK arranged by MIZUKI TADASHI;
#CREDIT:DMAxel;
#BANNER:E reviver -imaging you-.png;
#BACKGROUND:E reviver -imaging you--bg.png;
#LYRICSPATH:;
#CDTITLE:DMAxel Original Simfile.png;
#MUSIC:E reviver -imaging you-.mp3;
#OFFSET:-1.420;
#SAMPLESTART:91.940;
#SAMPLELENGTH:12.000;
#SELECTABLE:YES;
#BPMS:0.000=176.000,228.000=88.000,238.500=176.000;
#STOPS:228.000=0.780
;
#BGCHANGES:;

//---------------dance-single - ----------------
#NOTES:
     dance-single:
     :
     Challenge:
     9:
     0.620,0.602,0.448,0.064,0.080:
0000
0000
0000
0000
,
0000
0000
0000
0000
,
0000
0000
0000
0000
,
0000
0000
0000
0000
,
0000
0000
0000
0000
,
1001
0000
0000
1010
0000
0000
0011
0000
,
0001
0100
0000
0100
0010
0000
0101
0000
,
1001
0000
0000
0101
0000
0000
1100
0000
,
1001
0000
0000
0000
1000
0100
0010
0001
,
1001
0000
0000
0100
0000
0000
1100
0000
0000
0000
0001
0000
0010
0000
1000
0000
,
0010
0000
0000
0010
0000
0000
0010
0000
1000
0000
0100
0000
0010
0000
0001
0000
,
0100
0100
0001
0010
0001
0000
1000
0001
,
1000
0010
0100
0010
1000
0100
0010
0001
,
1001
0000
0000
0001
0000
0000
0011
0000
0000
0000
0100
0000
1000
0000
0100
0000
,
0010
0001
0100
0001
1000
0010
1000
0000
,
1001
0000
0000
1000
0000
0000
1100
0000
0000
0000
0010
0000
0001
0000
0010
0000
,
0100
1000
0010
1000
0001
0100
0001
0000
,
1001
0000
0000
1000
0000
0000
1010
0000
0000
0000
0100
0000
0001
0000
0010
0000
,
0100
1000
0100
1000
0001
0010
0001
0010
,
1000
0010
0001
0100
0001
0000
1000
0010
,
0100
0010
1000
0001
0010
0100
1000
0100
,
1001
0000
0000
0001
0000
0000
0101
0000
0000
0000
0010
0000
1000
0000
0100
0000
,
0010
0001
0010
0001
1000
0000
0001
0100
,
0010
0100
0001
0100
1000
0100
0001
0010
,
0100
0000
1000
0000
0010
0000
0000
0000
1001
0000
0000
0010
1000
0000
0100
0000
,
1001
0000
0100
0001
0020
0000
0000
0001
,
0000
0030
0001
0010
0200
0000
0000
1300
,
1001
0000
0010
1000
0200
0000
0000
1000
,
0000
0300
1000
0100
0020
0000
0000
0031
,
1001
0000
0100
0100
0011
0000
0010
1000
,
0100
1000
0010
0010
1100
0000
1001
0000
,
1001
0000
0010
0010
1100
0000
0100
0001
,
0010
0001
0100
0100
0011
0000
1001
0000
,
1001
0100
0010
0001
0100
0001
0000
0001
,
0010
0100
1000
0100
0001
0100
1000
0100
,
0010
0001
0100
0001
0010
0001
0000
0001
,
1000
0100
0010
0001
0100
0001
0010
0000
,
1001
0000
0010
0100
1000
0100
0010
0001
,
0000
0001
1000
0100
0010
0001
0100
0010
,
1000
0100
0010
0100
1000
0001
0000
1000
,
0001
0010
0100
1000
0010
0000
0110
0000
,
1001
0000
0010
1000
0100
1000
0000
1000
,
0001
0010
0100
0010
0001
0010
0100
1000
,
0010
0000
0100
0001
0010
0001
0000
0001
,
1000
0100
0010
0100
1000
0100
0010
0000
,
1001
0000
0010
1000
0100
0010
0100
1000
,
0000
0100
0010
0001
1000
0001
0010
0100
,
0010
0001
1000
0001
1000
0010
0000
0100
,
0001
0010
1000
0010
1001
0000
1100
0000
,
0101
0000
0000
0001
0000
0000
0001
0000
0100
0000
0010
0000
0100
0000
0001
0000
,
0010
0100
1000
0100
0010
0001
0100
0000
,
0110
0000
1000
0100
0001
0000
0100
0100
,
0011
0000
0010
0010
1100
0000
0110
0000
,
1001
0000
0000
0100
0001
0000
0001
0000
0010
0000
0100
0000
0000
0000
1000
0000
,
1001
0000
0000
0010
1000
0000
1000
0000
0100
0000
0010
0000
0001
0000
0010
0000
,
1001
0100
1001
0010
,
1001
1010
0110
0101
,
1001
0000
0000
0000
,
0000
0000
0000
0000
,
0000
0000
0000
0000
0000
0000
0100
1000
0100
0010
1001
0000
0000
0000
0010
0000
,
0001
0000
0001
0010
0100
2000
0000
0000
,
0000
0000
0000
0000
0000
0000
0000
3010
0000
1000
0000
0100
0000
0010
0000
0001
,
0000
0200
0000
0000
0000
0000
0000
0000
0000
0000
0000
0000
0000
0000
0000
0000
,
0000
0000
0310
1000
0100
0010
0002
0000
,
0000
0000
0000
0013
0001
0200
0000
0000
,
0000
0010
0300
1001
,
0000
0000
0011
0000
0000
0000
0100
1000
,
0100
0000
1000
0000
0100
0000
0010
0000
0001
0000
0100
0000
1001
0000
0000
1000
,
0000
1000
0000
0010
1000
0100
0100
1000
,
0001
0000
0010
0010
0001
0010
0100
1000
,
0001
0010
0100
1000
0100
0010
0000
0001
,
1000
0000
0000
0000
1000
0000
0100
0000
0010
0000
0001
0000
0100
0000
0000
0010
,
1000
0100
0000
1000
0100
0010
0001
0001
,
0000
0100
0001
0010
0100
1000
0010
1000
,
0001
0010
0100
1000
0001
0010
0100
1000
,
0000
1000
0010
0100
0010
0000
0100
0001
,
0100
0001
0010
0100
0010
0100
1000
0010
,
1000
0010
0100
0010
0100
0010
0100
0001
,
0100
0001
0010
0100
0010
0100
1000
0001
,
1000
0001
0010
0100
1000
0000
0010
1000
,
0010
1000
0100
0010
0100
0010
0001
0100
,
0001
0100
0010
0100
0010
1000
0010
1000
,
0100
1000
0100
0001
0010
0000
1001
0000
,
0000
0000
1000
0100
0010
0010
0101
0000
;

//---------------dance-single - ----------------
#NOTES:
     dance-single:
     :
     Easy:
     4:
     0.247,0.368,0.144,0.016,0.000: // measure 1
0000
0000
0000
0000
,  // measure 2
0000
0000
0000
0000
,  // measure 3
0000
0000
0000
0000
,  // measure 4
0000
0000
0000
0000
,  // measure 5
0000
0000
0000
0000
,  // measure 6
1001
0000
0000
0000
,  // measure 7
0000
0000
0000
0000
,  // measure 8
0001
0000
0000
0000
,  // measure 9
0110
0000
0000
0000
,  // measure 10
1001
0000
0000
0000
,  // measure 11
1000
0000
0000
0000
,  // measure 12
0001
0000
0000
0000
,  // measure 13
1000
0000
0000
0000
,  // measure 14
0010
0000
0000
0000
,  // measure 15
0100
0000
0000
0000
,  // measure 16
0010
0000
0100
0000
,  // measure 17
0010
0000
0000
0000
,  // measure 18
1000
0001
1000
0000
,  // measure 19
0010
0100
0010
0000
,  // measure 20
1000
0010
1000
0000
,  // measure 21
0001
0100
0001
0000
,  // measure 22
1000
0001
1000
0000
,  // measure 23
0010
0100
0010
0000
,  // measure 24
1000
0100
0010
0001
,  // measure 25
1000
0000
0001
0000
,  // measure 26
1001
0000
0001
0000
,  // measure 27
0010
0000
0100
0000
,  // measure 28
1001
0000
0001
0000
,  // measure 29
1000
0000
0010
0000
,  // measure 30
1001
0000
0010
0000
,  // measure 31
1000
0000
0100
0000
,  // measure 32
0010
0000
0001
0000
,  // measure 33
0100
0000
0001
0000
,  // measure 34
0100
0010
0100
0000
,  // measure 35
0001
1000
0001
0000
,  // measure 36
1000
0001
1000
0000
,  // measure 37
0010
0100
0010
0000
,  // measure 38
1000
0010
1000
0000
,  // measure 39
0001
0100
0001
0000
,  // measure 40
1000
0001
1000
0000
,  // measure 41
0010
0100
0010
1000
,  // measure 42
0100
0000
1000
0000
,  // measure 43
0001
0010
0100
1000
,  // measure 44
0010
1000
0010
0000
,  // measure 45
1000
0100
0010
0001
,  // measure 46
0100
0001
0100
0000
,  // measure 47
0001
0010
0100
1000
,  // measure 48
0100
1000
0100
0010
,  // measure 49
0001
0000
1001
0110
,  // measure 50
1001
0100
0001
0010
,  // measure 51
0001
0010
0000
0000
,  // measure 52
0100
1000
0100
1000
,  // measure 53
0010
1000
0100
0000
,  // measure 54
1000
0001
0010
0001
,  // measure 55
0100
0001
0000
0000
,  // measure 56
0010
0100
1000
0010
,  // measure 57
1000
0100
0010
0001
,  // measure 58
1001
0000
0000
0000
,  // measure 59
0000
0000
0000
0000
,  // measure 60
0000
0000
0000
0000
0000
1001
0000
0000
,  // measure 61
0000
0000
0000
0000
,  // measure 62
0000
0000
0000
0010
,  // measure 63
0000
0000
0000
0000
,  // measure 64
0000
0000
0000
0001
,  // measure 65
0000
0000
0000
0000
,  // measure 66
0000
0000
0000
1001
,  // measure 67
0000
1100
0000
2002
,  // measure 68
0000
0000
3003
0010
,  // measure 69
0001
0010
0000
0001
,  // measure 70
0010
0100
0000
1000
,  // measure 71
0100
1000
0000
0100
,  // measure 72
0010
0001
0000
1000
,  // measure 73
0001
1000
0000
0010
,  // measure 74
0100
0010
1000
0100
,  // measure 75
1000
0100
0010
0001
,  // measure 76
0000
0100
0001
1001
,  // measure 77
0001
0001
0001
0010
,  // measure 78
0010
0010
0010
1000
,  // measure 79
1000
1000
1000
0100
,  // measure 80
0100
0100
0100
1001
,  // measure 81
1000
1000
1000
0010
,  // measure 82
0010
0010
0010
0001
,  // measure 83
0001
0001
0001
0110
,  // measure 84
0000
1000
0010
1001
;

//---------------dance-single - ----------------
#NOTES:
     dance-single:
     :
     Hard:
     8:
     0.518,0.569,0.312,0.016,0.048: // measure 1
0000
0000
0000
0000
,  // measure 2
0000
0000
0000
0000
,  // measure 3
0000
0000
0000
0000
,  // measure 4
0000
0000
0000
0000
,  // measure 5
0000
0000
0000
0000
,  // measure 6
1001
0000
0000
0001
0000
0001
0000
0000
,  // measure 7
0000
0100
0000
0000
0100
0000
0100
0000
,  // measure 8
0010
0000
0000
0010
0000
0010
0000
0000
,  // measure 9
0110
0000
1100
0100
,  // measure 10
1001
0000
0010
0000
0001
0010
0100
1000
,  // measure 11
0010
0000
1000
0000
0100
0000
1000
0100
,  // measure 12
0010
0001
0100
0000
0001
0000
0010
0000
,  // measure 13
0001
1000
0000
0000
0010
1000
0100
0010
,  // measure 14
0001
0000
0100
0001
0000
0001
1000
0001
,  // measure 15
1000
0010
0000
0010
0100
0100
0000
0000
,  // measure 16
1001
0000
0010
1000
0010
1000
0000
1000
,  // measure 17
0100
0000
0010
0010
0001
1000
0100
0010
,  // measure 18
0001
0100
0001
1000
0000
1000
0010
0100
,  // measure 19
0010
0010
0000
1000
0001
1000
0001
0010
,  // measure 20
0100
1000
0010
1000
0010
0000
0100
0001
,  // measure 21
0010
0010
0100
0000
1000
0100
0010
0001
,  // measure 22
0100
0000
0001
1000
0100
1000
0100
0010
,  // measure 23
0001
0001
0000
0100
0010
0100
0001
0000
,  // measure 24
1001
0000
0100
0010
0001
0010
0100
1000
,  // measure 25
0010
0000
0100
0010
1000
1000
1000
0000
,  // measure 26
1001
0010
0001
0010
,  // measure 27
0100
1000
0100
0010
,  // measure 28
1001
0100
1000
0100
,  // measure 29
0010
0001
0010
0100
,  // measure 30
1001
0100
0001
0100
,  // measure 31
1000
0100
0001
0100
,  // measure 32
1001
0010
0001
0010
,  // measure 33
1000
0010
0001
0010
,  // measure 34
1001
0000
0010
0000
1000
0010
0000
0100
,  // measure 35
0001
0100
0001
0100
0010
0100
0000
1001
,  // measure 36
0000
0010
0001
0000
0001
0100
0000
0010
,  // measure 37
1000
0010
1000
0010
0100
0010
0000
1001
,  // measure 38
0000
0010
1000
0000
1000
0100
0000
0010
,  // measure 39
0001
0100
0001
0100
0010
0100
0000
1001
,  // measure 40
0000
0100
0001
0000
0001
0010
0000
0100
,  // measure 41
1000
0100
0010
0001
1000
0100
0010
0000
,  // measure 42
1001
0000
0010
1000
0100
1000
0000
1000
,  // measure 43
0001
0010
0100
1000
0010
1000
0100
0000
,  // measure 44
0010
0001
0100
0001
0100
0001
0000
0001
,  // measure 45
1000
0010
1000
0100
0010
0000
0001
0000
,  // measure 46
1001
0000
0100
1000
0100
1000
0000
1000
,  // measure 47
0001
0010
0001
0010
0100
1000
0000
1001
,  // measure 48
0000
0100
0001
0010
0001
0010
0000
0010
,  // measure 49
0001
0010
0100
0000
1001
0000
0110
0000
,  // measure 50
1001
0000
0000
1000
0000
0000
1000
0000
0000
0000
0010
0000
0100
0000
0001
0000
,  // measure 51
0100
0000
0010
1000
0000
1000
0001
0100
,  // measure 52
0001
0010
0100
1000
0100
0000
1000
0000
,  // measure 53
1001
0000
0110
0000
,  // measure 54
1001
0000
0000
0000
0001
0000
0000
0001
0000
0000
0001
0000
0000
0000
0100
0000
,  // measure 55
0010
1000
0010
0100
0100
0001
0010
0100
,  // measure 56
1000
0000
0010
0010
1100
0000
0100
0100
,  // measure 57
0011
1010
0011
1010
,  // measure 58
1001
0000
0000
0000
,  // measure 59
0000
0000
0000
0000
,  // measure 60
0000
0000
0000
0000
0000
0000
0010
0001
0010
0100
1001
0000
0000
0000
0000
0000
,  // measure 61
1000
0000
0000
0010
0000
0000
0100
0000
,  // measure 62
0000
0000
0000
0001
0000
0000
0000
0001
0000
0000
0000
1001
0000
0000
0000
0000
,  // measure 63
0000
0010
0000
0000
0000
0000
0000
0001
0000
0000
0000
0100
0000
0000
0000
0000
,  // measure 64
0000
0010
0000
0000
0000
0000
0000
0000
0010
0000
0000
0000
0010
0000
0000
0000
,  // measure 65
0100
0010
0000
1000
0001
1000
0001
0000
,  // measure 66
0000
0001
0000
0000
1000
0000
0011
0000
,  // measure 67
0000
1100
0000
2002
,  // measure 68
0000
0000
0000
0000
3003
0000
0010
0010
,  // measure 69
0001
0010
0100
1000
0100
0010
0001
1000
,  // measure 70
0000
1000
0010
1000
0100
0010
0001
0010
,  // measure 71
0100
1000
0010
0010
0000
0000
1000
0010
,  // measure 72
0000
0000
0010
0000
1000
0000
0100
0000
0010
0000
0001
0000
0100
0000
0000
0100
,  // measure 73
0000
0100
0000
0001
0010
0100
1000
0010
,  // measure 74
0000
0010
0010
1000
0001
0010
0100
0000
,  // measure 75
1000
0100
0010
0001
0010
0100
1000
0000
,  // measure 76
0010
1000
0100
0000
0101
0000
1001
0000
,  // measure 77
0001
0100
0001
0000
0001
0100
0010
0000
,  // measure 78
0010
0100
0010
0000
0010
1000
0100
0000
,  // measure 79
0100
1000
0100
0000
0100
1000
0010
0000
,  // measure 80
0010
1000
0010
0000
0010
0000
1001
0000
,  // measure 81
1000
0010
1000
0000
1000
0010
0100
0000
,  // measure 82
0100
0010
0100
0000
0100
0001
0010
0000
,  // measure 83
0010
0001
0010
0000
0010
0000
1001
0000
,  // measure 84
0000
0000
0010
1000
0100
0010
1001
0000
;

//---------------dance-single - ----------------
#NOTES:
     dance-single:
     :
     Beginner:
     1:
     0.072,0.134,0.088,0.000,0.000:
0000
0000
0000
0000
,
0000
0000
0000
0000
,
0000
0000
0000
0000
,
0000
0000
0000
0000
,
0000
0000
0000
0000
,
0001
0000
0000
0000
,
0000
0000
0000
0000
,
0001
0000
0000
0000
,
0000
0000
0000
0000
,
1000
0000
0000
0000
,
0000
0000
0000
0000
,
1000
0000
0000
0000
,
0000
0000
0000
0000
,
0010
0000
0000
0000
,
0000
0000
0000
0000
,
0010
0000
0000
0000
,
0000
0000
0000
0000
,
0110
0000
0000
0000
,
0000
0000
0000
0000
,
1000
0000
0000
0000
,
0000
0000
0000
0000
,
0001
0000
0000
0000
,
0000
0000
0000
0000
,
1000
0000
0000
0000
,
0000
0000
0000
0000
,
0110
0000
0000
0000
,
0000
0000
0000
0000
,
0110
0000
0000
0000
,
0000
0000
0000
0000
,
1001
0000
0000
0000
,
0000
0000
0000
0000
,
1001
0000
0000
0000
,
0000
0000
0000
0000
,
0010
0000
0000
0000
,
0000
0000
0000
0000
,
0010
0000
0000
0000
,
0000
0000
0000
0000
,
0001
0000
0000
0000
,
0000
0000
0000
0000
,
0001
0000
0000
0000
,
0000
0000
0000
0000
,
1000
0000
0000
0000
,
0000
0000
0000
0000
,
1000
0000
0000
0000
,
0000
0000
0000
0000
,
0100
0000
0000
0000
,
0000
0000
0000
0000
,
0100
0000
0000
0000
,
1000
0000
0000
0000
,
1001
0000
0000
0000
,
0010
0000
0000
0000
,
0001
0000
0000
0000
,
0010
0000
0000
0000
,
0100
0000
0000
0000
,
1000
0000
0000
0000
,
0001
0000
1000
0000
,
0001
0000
0000
0000
,
1001
0000
0000
0000
,
0000
0000
0000
0000
,
0000
0000
0000
0000
,
0000
0000
0000
0000
,
0000
0000
0000
0000
,
0000
0000
0000
0000
,
0000
0000
0000
0001
,
0000
0000
0000
0000
,
0000
0000
0000
1000
,
0000
0000
0000
0001
,
0000
0000
0000
1001
,
0000
0000
0000
0000
,
0000
0000
0000
0010
,
0000
0000
0000
0010
,
0000
0000
0000
0100
,
0000
0000
0000
0100
,
0000
0000
0000
0010
,
0000
0000
0000
0010
,
0000
0000
0000
1000
,
0000
0000
0000
0100
,
0000
0000
0000
0010
,
0000
0000
0000
0001
,
0000
0000
0000
1001
,
0000
0000
0000
0010
,
0000
0000
0000
0100
,
0000
0000
0000
1001
,
0000
0000
0000
1001
;

//---------------dance-single - ----------------
#NOTES:
     dance-single:
     :
     Medium:
     6:
     0.349,0.502,0.256,0.032,0.004: // measure 1
0000
0000
0000
0000
,  // measure 2
0000
0000
0000
0000
,  // measure 3
0000
0000
0000
0000
,  // measure 4
0000
0000
0000
0000
,  // measure 5
0000
0000
0000
0000
,  // measure 6
2001
0000
0000
0000
,  // measure 7
0000
0000
0000
0000
,  // measure 8
3002
0000
0000
0003
,  // measure 9
0110
0000
1000
1000
,  // measure 10
1001
0000
0100
0010
,  // measure 11
0001
0000
0000
0010
,  // measure 12
0100
1000
0000
0000
,  // measure 13
0000
0000
0100
1000
,  // measure 14
0100
0100
0100
0000
,  // measure 15
0010
0010
0010
0000
,  // measure 16
1001
0000
0100
0010
,  // measure 17
0100
0000
0001
0010
,  // measure 18
0001
1000
0001
0000
,  // measure 19
0100
0010
0100
0001
,  // measure 20
0010
0100
1000
0010
,  // measure 21
1000
0010
1000
0100
,  // measure 22
0010
0001
0100
0001
,  // measure 23
0100
0010
0100
0000
,  // measure 24
0001
0010
0100
1000
,  // measure 25
0001
0000
1000
0001
,  // measure 26
1001
0000
1000
0000
,  // measure 27
0100
0010
0000
0000
0001
0000
0000
0000
,  // measure 28
1001
0000
0001
0000
,  // measure 29
0010
0100
0000
0000
1000
0000
0000
0000
,  // measure 30
1001
0000
0100
0000
,  // measure 31
0001
1000
0000
0000
0010
0000
0100
0000
,  // measure 32
0010
0000
1001
0000
,  // measure 33
0010
1000
0000
0000
0010
0000
1000
0000
,  // measure 34
0010
0100
0010
1000
,  // measure 35
0100
0010
0001
0100
,  // measure 36
0001
1000
0001
0010
,  // measure 37
0100
1000
0010
0000
,  // measure 38
1001
0100
0001
0010
,  // measure 39
0100
1000
0100
0010
,  // measure 40
0001
1000
0001
1000
,  // measure 41
0100
0010
0001
0001
,  // measure 42
1001
0000
1000
0001
1000
0000
0010
0000
,  // measure 43
1000
0100
0010
0001
,  // measure 44
0100
0000
0001
1000
0001
0000
0100
0000
,  // measure 45
0001
0010
0100
0000
,  // measure 46
1001
0000
0100
0010
0100
0000
0001
0000
,  // measure 47
1000
0100
0010
0001
,  // measure 48
0010
0001
0010
0100
,  // measure 49
1000
0000
1001
0110
,  // measure 50
1001
0000
0010
1000
0100
0000
0000
0000
,  // measure 51
1001
0100
0010
0001
,  // measure 52
0100
0001
0010
0001
0010
0000
0000
0000
,  // measure 53
1001
0000
0011
0000
,  // measure 54
1001
0000
0010
1000
0100
0000
0000
0000
,  // measure 55
1001
0010
0100
1000
,  // measure 56
0110
0000
1001
0000
,  // measure 57
0010
0001
0010
0100
,  // measure 58
1001
0000
0000
0000
,  // measure 59
0000
0000
0000
0000
,  // measure 60
0000
0000
0000
0000
0000
1001
0000
0000
,  // measure 61
0000
0000
0000
0000
,  // measure 62
0000
0000
0000
0000
0000
0000
0000
0001
0000
0000
0000
0000
0000
0000
0000
0000
,  // measure 63
0000
0000
0000
0000
,  // measure 64
0000
0100
0100
0010
,  // measure 65
0000
0000
0000
0000
,  // measure 66
0000
1000
0000
1001
,  // measure 67
0000
0011
0000
2002
,  // measure 68
0000
0000
3003
0100
,  // measure 69
1000
0010
0100
0000
0000
0000
1001
0000
,  // measure 70
0100
0000
0010
0000
0001
1000
0001
0000
,  // measure 71
0010
0000
0001
0100
0001
0000
0010
0000
,  // measure 72
0100
0000
1000
0001
1000
0000
1001
0000
,  // measure 73
0100
0001
0010
0000
0000
0000
1001
0000
,  // measure 74
0010
0000
0100
0000
0001
1000
0001
0000
,  // measure 75
0010
0000
0100
0000
1000
0000
0010
0100
,  // measure 76
0010
0000
1000
0001
0100
0000
1001
0000
,  // measure 77
1000
0100
1000
0100
1000
0000
0010
0100
,  // measure 78
0010
0100
0010
0100
0010
0000
0100
0001
,  // measure 79
0100
0001
0100
0001
0100
0000
0001
1000
,  // measure 80
0001
1000
0001
1000
0001
0000
0100
0010
,  // measure 81
0100
0010
0100
0010
0100
0000
0001
0010
,  // measure 82
0001
0010
0001
0010
0001
0000
1000
0100
,  // measure 83
1000
0100
1000
0100
1000
0000
0110
0000
,  // measure 84
0000
0001
0100
1001
;
