#TITLE:Do you love me?;
#SUBTITLE:(game edit);
#ARTIST:reo-nagumo;
#TITLETRANSLIT:;
#SUBTITLETRANSLIT:;
#ARTISTTRANSLIT:;
#CREDIT:DMAxel;
#BANNER:Do you love me (game edit).png;
#BACKGROUND:Do you love me (game edit)-bg.png;
#LYRICSPATH:Do you love me (game edit).lrc;
#CDTITLE:beatmania.png;
#MUSIC:Do you love me (game edit).mp3;
#OFFSET:-5.180;
#SAMPLESTART:53.160;
#SAMPLELENGTH:12.000;
#SELECTABLE:YES;
#BPMS:0.000=100.000;
#STOPS:;
#BGCHANGES:;

//---------------dance-single - ----------------
#NOTES:
     dance-single:
     :
     Easy:
     2:
     0.145,0.156,0.011,0.043,0.000:
0100
0000
0100
0000
,
0010
0000
0010
0000
,
0100
0000
0100
0000
,
0010
0000
0010
0100
,
0010
1000
0010
0000
,
0100
0001
0100
0000
,
0010
0100
0010
0000
,
0100
0010
0100
0001
,
1001
0000
0001
0000
,
0001
0000
1000
0000
,
1000
0000
0010
0000
,
0010
0000
0100
0010
,
0100
0000
0100
0000
,
0001
0000
0001
0000
,
1000
0000
1000
0000
,
0010
0100
0000
0000
,
0002
0000
0000
1000
0000
0000
1003
0000
,
0000
0010
0000
0010
,
2000
0000
0000
0001
0000
0000
3001
0000
,
0000
0100
0000
0100
,
0001
0010
0001
0010
,
0100
1000
0100
1000
,
0010
0100
0010
0100
,
0001
1000
0001
1000
,
0020
0000
0000
0000
,
0130
0010
0100
0010
,
0200
0000
0000
0000
,
0310
0100
0010
0100
,
0010
0010
0010
0000
,
1000
1000
1000
0000
,
0001
0001
0001
0000
,
1000
1000
1000
0001
,
1000
0000
0000
0000
;

//---------------dance-single - ----------------
#NOTES:
     dance-single:
     :
     Medium:
     4:
     0.282,0.277,0.130,0.043,0.032:
0100
0100
0100
0110
,
0010
0010
0010
0110
,
0100
0101
0100
0101
,
0010
1010
0010
1010
,
0100
0010
0100
0000
0100
0001
0010
0000
,
0100
1000
0010
0000
0010
0100
0010
0000
,
1000
1001
0001
1001
,
0100
1000
0100
0001
0100
1000
0001
0100
,
1001
0100
1000
0010
,
0100
0001
0010
1000
,
0100
0001
0010
1000
,
0010
0100
0010
0000
1000
0000
1001
0000
,
0010
0001
0100
1000
,
0100
0001
0010
1000
,
0001
0000
0100
0010
0000
0010
0000
1000
,
0001
1000
1000
0000
0000
0001
1000
0001
,
1000
0100
0000
0000
0000
0000
1000
0100
0000
0000
0000
0000
1000
0100
0000
0000
,
0000
1000
0010
0000
0100
0010
0100
0000
,
0001
0010
0000
0000
0000
0000
0001
0010
0000
0000
0000
0000
0001
0010
0000
0000
,
0000
0001
0100
0000
0010
0100
0010
0000
,
0010
0100
0010
0100
0010
0100
0010
0000
,
1000
0010
1000
0010
1000
0010
1000
0000
,
0100
0010
0100
0010
0100
0010
0100
0000
,
0001
0010
0001
0010
0001
0010
0001
0001
,
2000
0001
0001
3001
,
0200
0010
0010
0310
,
0020
0100
0100
0130
,
0002
1000
1000
1003
,
1000
0000
1000
0000
1000
0010
1000
0001
,
0100
0000
0100
0000
0100
0001
0100
0001
,
0010
0000
0010
0000
0010
0001
0100
0010
,
0100
0100
0110
0010
,
1001
0000
0000
0000
;

//---------------dance-single - ----------------
#NOTES:
     dance-single:
     :
     Hard:
     6:
     0.326,0.398,0.022,0.000,0.114:
0100
0000
0100
0000
0100
0001
1000
0000
,
0010
0000
0010
0000
0010
1000
0001
0000
,
0100
0000
0100
0000
0100
0001
0010
0000
,
0001
1000
0100
0000
0100
0000
0100
0000
,
0100
1000
0100
0000
1000
0001
0010
0000
,
0010
0001
0010
0000
0001
1000
0100
0000
,
0100
0000
0100
0000
0100
1000
0010
0000
,
0010
0000
0000
0000
0010
0000
0000
0000
0010
1000
0000
0001
0000
1000
0100
0000
,
1001
0000
0100
0000
0001
0010
1000
0000
,
0100
0000
0001
0000
0010
1000
0100
0010
,
0001
0000
0100
0000
0010
1000
0100
0000
,
1000
0001
0010
0000
0010
0000
0010
0000
,
0010
0000
0001
0000
0100
1000
0010
0000
,
0100
0000
0001
0000
0010
1000
0100
0010
,
0001
0000
1000
0010
0000
1000
0000
0001
,
0100
0010
0100
0000
0000
0001
1000
0001
,
1000
0100
1000
0100
1000
0000
0010
0100
0010
0100
0010
0000
1000
0100
1000
0100
,
1000
0001
0001
1000
1000
0001
0001
1000
,
0001
0010
0001
0010
0001
0000
0100
0010
0100
0010
0100
0000
0001
0010
0001
0010
,
0001
1000
0010
0000
1010
0000
0010
0000
,
0010
0000
0100
0000
0010
0000
0000
1000
0010
0000
0010
0000
0010
0000
0000
0000
,
0100
0000
0010
0000
0100
0000
0000
0001
0100
0000
0100
0000
0100
0000
0000
0000
,
0010
0000
0100
0000
0010
0000
0000
0100
0001
0000
0001
0000
0001
0000
0000
0000
,
0100
0000
0010
0000
0100
0000
0000
0010
1000
0000
1000
0000
1000
0000
0001
0000
,
0010
0000
0010
0000
0010
0001
1000
0000
,
0100
0000
0000
0000
0100
0000
0000
1000
0001
0000
0001
0000
0001
0000
0000
0000
,
0010
0000
0010
0000
0010
0001
1000
0000
,
0100
0000
0000
0000
0100
0000
0000
1000
0001
0000
0001
0000
0001
0000
0000
0000
,
0100
0010
0100
0010
0100
0100
0100
0000
,
0010
1000
0010
1000
0010
0010
0010
0000
,
0100
0001
0100
0001
0100
0100
0100
0000
,
0001
0010
0001
0010
0001
0001
1000
1000
,
0001
0000
0000
0000
;

//---------------dance-double - ----------------
#NOTES:
     dance-double:
     :
     Easy:
     3:
     0.190,0.208,0.032,0.000,0.000:
00000001
00000100
00000001
00000100
,
00010000
00001000
00010000
00100000
,
10000000
00100000
00010000
00011000
,
00000100
00000000
00000000
00000000
00010000
00001000
00100000
00000000
,
00001000
00000010
00010000
00100000
,
00001000
00000010
00010000
00100000
,
10000000
00010000
00100000
00001000
,
01000000
00000000
00000000
00000000
00001000
00010000
00000010
00000000
,
00001000
00000010
00001000
00000001
,
00000100
00000001
00000010
00001000
,
00010000
00100000
10000000
01000000
,
00010000
00001000
00010000
00001000
,
00010000
00100000
00010000
00100000
,
01000000
10000000
00100000
00010000
,
00001000
00000000
01000000
00000000
,
00001000
00010000
00000010
00000000
00000000
00000100
00000010
00000000
,
00010000
00000000
00000000
00001000
00000000
00000000
01000000
00000000
,
00000000
01000000
00010000
00000000
00010000
00000000
00100000
00000000
,
00001000
00000000
00000000
00010000
00000000
00000000
00000100
00000000
,
00000000
00000100
00001000
00000000
00001000
00000000
00000010
00000000
,
00000010
00000000
00000010
00000000
00000010
00000010
00000010
00000000
,
00010000
00000000
00010000
00000000
00010000
00010000
00010000
00000000
,
00001000
00000000
00001000
00000000
00001000
00001000
00001000
00000000
,
00100000
00000000
00100000
00000000
00100000
00100000
00100000
00100000
,
00010000
00000000
00000000
00000000
,
00000001
00000000
00000000
00000000
,
10000000
00000000
00000000
00000000
,
00000001
00000000
00000000
00000000
,
00011000
00010000
00010000
00001000
,
00000100
00000100
00001000
01000000
,
01000000
01000000
00010000
00001000
,
00001000
00000000
00001000
00000000
00010000
00001000
00010000
00000000
,
00011000
00000000
00000000
00000000
;

//---------------dance-double - ----------------
#NOTES:
     dance-double:
     :
     Medium:
     6:
     0.306,0.347,0.087,0.000,0.092:
00001000
00100000
00010000
00000000
00100000
00010000
00100000
00000000
,
00010000
00000010
00001000
00000010
00001000
00000100
00010000
00000000
,
01010000
00000000
01000000
00000000
00010000
00000010
00001000
00000000
,
00010000
00001000
00010000
00001000
00010000
00001000
00000100
00001000
,
00000100
00000001
00000010
00000000
00000100
00010000
00001000
00000000
,
01000000
00010000
00100000
00000000
00010000
00001000
00100000
00000000
,
01000000
10000000
00010000
00100000
,
01000000
10000000
00100000
00010000
00001000
00000010
00000100
00001000
,
00001001
00000001
00000010
00001000
,
00010000
00100000
10000000
01000000
,
00010000
00001000
00000100
00000001
,
00000000
00000001
00000000
00000010
00000000
00000100
00000000
00001000
,
00010000
00100000
10000000
01000000
,
00010000
00000100
00000001
00000010
,
00001001
00000000
00011000
00000000
,
01000000
00001000
00010000
00000100
00001000
00000010
00000001
00000000
,
00001000
00000100
00001000
00000100
00001000
00000000
00001000
00000100
00001000
00000100
00001000
00000000
00001000
00000100
00001000
00000100
,
00001000
00010000
00001000
00000000
00100000
00000000
00010000
00000000
,
00010000
01000000
00010000
01000000
00010000
00000000
00010000
01000000
00010000
01000000
00010000
00000000
00010000
01000000
00010000
01000000
,
00000000
00001000
00010000
00000000
00000010
00000000
00001000
00000000
,
00000010
00000000
00000000
00000000
00000010
00000000
00000000
00000010
00001000
00000000
00001000
00000000
00001000
00000000
00000000
00000000
,
00010000
00000000
00000000
00000000
00010000
00000000
00000000
00010000
01000000
00000000
01000000
00000000
01000000
00000000
00000000
00000000
,
00100000
00000000
00000000
00000000
00100000
00000000
00000000
00100000
00010000
00000000
00010000
00000000
00010000
00000000
00000000
00000000
,
00001000
00000000
00000000
00000000
00001000
00000000
00000000
00001000
00000100
00000000
00000100
00000000
00000100
00000000
00000100
00000000
,
00000010
00000000
00000000
00000000
,
00000001
00000100
00001000
00100000
,
10000000
00100000
00010000
00000100
,
00000001
00000000
00000000
00000000
00000001
00000000
00000000
00000001
00001000
00000000
00001000
00000000
00001000
00000000
00001000
00000000
,
00011000
00000000
00011000
00000000
00010000
00000100
00001000
00000100
,
00010000
00000000
00011000
00000000
00001000
00100000
00010000
00100000
,
00001000
00001000
00001000
00001000
00001000
00010000
00000100
00000100
,
00010000
00010000
00010000
00010000
00010000
00000100
00000010
00000001
,
00001001
00000000
00000000
00000000
;

//---------------dance-single - ----------------
#NOTES:
     dance-single:
     :
     Challenge:
     7:
     0.441,0.416,0.238,0.000,0.173: // measure 1
1000
1000
0001
0010
0001
1000
1010
0000
,  // measure 2
0001
0000
0001
0000
1000
0000
1000
0000
0010
0000
0100
0000
0001
0000
0100
0010
,  // measure 3
0100
0000
0001
0000
1000
0000
0010
0100
0010
0100
0000
0001
1000
0000
0100
0000
,  // measure 4
1000
0001
0011
1000
1100
0001
1001
0000
,  // measure 5
1000
1000
0001
0100
0110
0001
1001
0000
,  // measure 6
0001
0001
1000
0010
0110
1000
1001
0000
,  // measure 7
1001
0000
0000
0000
1000
0000
0010
0000
0100
0000
0010
0000
1000
0000
0001
0010
,  // measure 8
0001
0000
0100
0010
0000
0100
0010
0000
1000
0001
0000
0001
0000
0100
0010
0000
,  // measure 9
0110
0000
0100
0010
0100
0001
1000
1100
,  // measure 10
0000
0000
0010
0001
1000
1000
0001
0001
,  // measure 11
0100
0010
0100
0001
1000
0100
0010
0110
,  // measure 12
0000
0000
1001
0000
0000
0000
0000
0001
1000
0000
1000
0000
0010
0000
0010
0000
,  // measure 13
0100
0000
0010
0100
0010
1000
0001
0011
,  // measure 14
0000
0000
0100
1000
0001
0001
1000
1000
,  // measure 15
0010
0100
0010
1000
0001
0011
0000
1001
,  // measure 16
0000
1001
1000
0000
0010
1000
0001
0100
,  // measure 17
0010
0100
0010
0100
0010
0000
1000
0100
1000
0100
1000
0000
0001
0100
0001
0100
,  // measure 18
0001
0000
0010
0000
0100
0000
1000
0001
1000
0000
0010
0000
0100
0000
0001
0000
,  // measure 19
0100
0010
0100
0010
0100
0000
0001
0010
0001
0010
0001
0000
1000
0010
1000
0010
,  // measure 20
1000
0000
0100
0000
0010
0000
0001
1000
0001
0000
0010
0000
0100
0000
1000
0000
,  // measure 21
0010
1000
0010
1000
0010
1000
0001
0010
,  // measure 22
0001
0010
0001
0010
0001
0100
0010
0100
,  // measure 23
0010
0100
0010
0100
0010
0100
0001
1000
,  // measure 24
0001
1000
0001
1000
1010
0000
1001
0000
,  // measure 25
1000
1000
1000
0010
0100
0001
0010
0001
,  // measure 26
0100
0100
0100
0001
0010
0001
1000
0100
,  // measure 27
1000
1000
1000
0010
0100
0001
1000
0010
,  // measure 28
0100
0000
0100
0000
0101
0000
0000
0010
1000
0000
0000
0001
0100
0000
0000
0000
,  // measure 29
0110
0000
0100
0000
0010
0000
0100
0001
0100
0000
0001
0000
0010
0000
0100
0000
,  // measure 30
1000
0000
0001
0000
1000
0000
0010
1000
0010
0000
1000
0000
0010
0000
0100
0000
,  // measure 31
0001
0000
0010
0000
0001
0000
0100
0010
0100
0000
0001
0000
0010
0000
0100
0000
,  // measure 32
1000
0000
0010
0000
1000
0000
0001
0010
0001
0000
0010
0001
0010
0000
0001
0000
,  // measure 33
1001
0000
0000
0000
;

//---------------dance-single - ----------------
#NOTES:
     dance-single:
     :
     Beginner:
     1:
     0.054,0.087,0.054,0.000,0.000:
0001
0000
0000
0000
,
0000
0000
0000
0000
,
1000
0000
0000
0000
,
0000
0000
0000
0000
,
0010
0000
0000
0000
,
0000
0000
0000
0000
,
0100
0000
0000
0000
,
0001
0000
1001
0000
,
1000
0000
0000
0000
,
0000
0010
0000
0000
,
0100
0000
0000
0000
,
0000
0001
0000
0000
,
1000
0000
0000
0000
,
0000
0000
0001
0000
,
1000
0000
0000
0000
,
0000
0000
0000
0000
,
0010
0000
0000
0000
,
0100
0000
0000
0000
,
0010
0000
0000
0000
,
0100
0000
0000
0000
,
0110
0000
0000
0000
,
0100
0000
0000
0000
,
0010
0000
0000
0000
,
0110
0000
0000
0000
,
1001
0000
0000
0000
,
0001
0000
0000
0000
,
1000
0000
0000
0000
,
0100
0000
0000
0000
,
1000
0000
0000
0000
,
0010
0000
0000
0000
,
0100
0000
0000
0000
,
0001
0000
0000
0000
,
1001
0000
0000
0000
;
