#TITLE:Do you love me?;
#SUBTITLE:(FINAL EDIT);
#ARTIST:reo-nagumo (arranged by TATSUYA NISHIWAKI);
#TITLETRANSLIT:;
#SUBTITLETRANSLIT:;
#ARTISTTRANSLIT:;
#CREDIT:DMAxel;
#BANNER:Do you love me (FINAL EDIT).png;
#BACKGROUND:Do you love me (FINAL EDIT)-bg.png;
#LYRICSPATH:Do you love me (FINAL EDIT).lrc;
#CDTITLE:beatmania.png;
#MUSIC:Do you love me (FINAL EDIT).mp3;
#OFFSET:-4.840;
#SAMPLESTART:52.820;
#SAMPLELENGTH:12.000;
#SELECTABLE:YES;
#BPMS:0.000=99.910;
#STOPS:;
#BGCHANGES:;

//---------------dance-single - ----------------
#NOTES:
     dance-single:
     :
     Easy:
     2:
     0.116,0.154,0.032,0.053,0.000: // measure 1
0001
0000
0010
0000
,  // measure 2
0001
0000
1000
0000
,  // measure 3
0100
0000
1000
0000
,  // measure 4
0010
0000
0100
0000
,  // measure 5
0010
0000
0100
0000
,  // measure 6
0001
0000
1000
0001
,  // measure 7
0002
0000
0000
0000
0000
0000
0000
1003
,  // measure 8
0000
0000
0000
0000
,  // measure 9
0000
1000
0000
0010
,  // measure 10
0000
0100
0000
0010
,  // measure 11
0000
0100
0000
0001
,  // measure 12
0000
0010
0000
0100
,  // measure 13
0000
1000
0000
0010
,  // measure 14
0000
0100
0000
0001
,  // measure 15
0000
0010
0000
0001
,  // measure 16
0000
1000
0000
0100
,  // measure 17
1000
0010
0000
0100
,  // measure 18
0000
0001
0000
0010
,  // measure 19
0000
0001
0000
0010
,  // measure 20
0000
0100
0000
1001
,  // measure 21
2000
0000
0000
0000
,  // measure 22
3020
0000
0000
0000
,  // measure 23
0230
0000
0000
0000
,  // measure 24
0302
0000
0000
0000
,  // measure 25
0013
0000
0000
0000
,  // measure 26
0100
0000
0000
0000
,  // measure 27
1000
0000
0000
0000
,  // measure 28
0001
0000
0000
0000
,  // measure 29
0100
0000
0010
0000
,  // measure 30
0100
0000
0010
0000
,  // measure 31
1000
0000
0001
0000
,  // measure 32
0010
0000
0001
1000
,  // measure 33
1001
0000
0000
0010
,  // measure 34
0000
0100
0000
0010
,  // measure 35
0000
1000
0000
0001
,  // measure 36
0010
0100
1000
0001
,  // measure 37
1001
0000
0000
0000
;

//---------------dance-single - ----------------
#NOTES:
     dance-single:
     :
     Hard:
     6:
     0.343,0.308,0.235,0.128,0.064:
0020
0000
1030
0002
0000
0000
0013
0200
,
0000
0000
0310
0001
1000
0010
1000
0000
,
0001
0010
0000
0001
1000
0001
0000
2200
,
0000
3300
0010
0110
,
0200
0000
0301
2000
0000
0000
3100
0020
,
0000
0000
0130
1000
0001
0100
0001
0000
,
1000
0000
0000
0100
0000
0000
0010
0000
0001
0000
1000
0000
0100
0000
1100
0000
,
0000
0000
0001
1001
,
1000
0000
1010
0000
0100
0001
0000
1001
,
0000
0000
0010
0100
0010
0100
0010
0000
,
0110
0000
1000
0001
0000
0011
0000
1001
,
0000
0000
0100
0000
0100
0010
0100
0000
,
0001
0000
0101
0000
0010
1000
0000
1001
,
0000
0000
0100
0010
0100
0010
0100
0000
,
0101
0000
0001
0100
0000
0110
0000
1000
,
0000
0000
0010
0000
0100
0000
0000
0000
0010
0000
0000
1000
0001
0000
0001
0000
,
0011
0000
0100
0000
1000
0010
0000
0110
,
0000
1000
0001
1000
0001
1000
0001
0000
,
1100
0000
0010
0000
0001
0100
0000
0110
,
0000
0001
0000
0000
0010
0000
0000
0100
0000
0000
1000
0000
0001
0000
0000
0000
,
1000
0100
1000
0100
1000
0100
1000
0000
,
0010
0100
0010
0100
0010
0100
0010
0000
,
0100
0001
0100
0001
0100
0001
0100
0000
,
0001
0010
0001
0010
0001
0010
0001
0000
,
1001
0000
1000
0000
1000
0010
0100
0010
,
1000
0000
0001
0000
0001
0100
0010
0100
,
0001
0000
0010
0000
0100
1000
0010
0100
,
0010
0000
1000
0001
0000
0010
0000
0001
,
1000
0000
0000
0100
0000
0000
1000
0000
0010
0000
0000
1000
0000
0000
0001
0000
,
0100
0000
0000
0001
0000
0000
0010
0000
0001
0000
0000
0100
0000
0000
0010
0000
,
2000
0000
0000
3001
0000
0100
0020
0000
,
0230
0000
0000
0302
0000
0000
1003
0010
,
0110
0000
0000
0000
0001
0000
0010
0000
0001
0000
1000
0000
0000
0010
0000
0000
,
0100
0000
0000
0001
0000
0000
1000
0000
0000
0000
0001
0000
0000
0100
0000
0000
,
0010
0000
1000
1001
0000
0000
1000
1000
,
0001
0000
0000
0000
0010
0000
0000
0001
0000
0000
1000
0000
0110
0000
0000
0000
,
1001
0000
0000
0000
;

//---------------dance-single - ----------------
#NOTES:
     dance-single:
     :
     Challenge:
     7:
     0.460,0.404,0.160,0.011,0.256:
0001
0000
0010
0000
0001
1000
0000
0000
1000
0000
0100
0000
1000
0001
0000
0000
,
0001
0000
0010
0000
0001
1000
0000
1000
0010
0000
0010
0000
0010
0000
0100
0010
,
0100
0000
0001
0100
0000
0001
0100
0000
0010
0000
1000
0000
0100
0000
0010
0000
,
0001
0000
0100
0000
0001
1000
0000
0000
1000
0000
0001
0000
0010
0000
0100
0000
,
1000
0000
0010
0000
1000
0001
0000
0000
0001
0000
0100
0000
0001
1000
0000
0000
,
1000
0000
0100
0000
1000
0001
0000
0001
0100
0000
0100
0000
0100
0000
0010
0100
,
0010
0000
1000
0010
0000
1000
0010
0000
1000
0000
0001
0010
0001
0000
0011
0000
,
0000
1000
0002
0000
0000
1000
0000
0000
1003
0000
0000
0001
1000
0000
0010
0000
,
0010
0100
0010
1000
0100
0010
0001
0100
,
0001
0000
0000
0000
1000
0100
1000
0100
1000
0000
0100
0000
0010
0000
0001
0000
,
1001
0000
0010
1000
0000
1000
0010
0110
,
0000
0001
1001
0000
0100
0010
1000
1000
,
0010
0100
0010
1000
0100
0010
0001
1001
,
0000
0000
0000
0000
0001
0010
0001
0010
0001
0000
0010
0000
0100
0000
1000
0000
,
1001
0000
1000
0010
0000
0110
0000
1001
,
0000
0000
0100
0000
0001
0000
0010
0000
0100
0000
0000
1000
0001
0000
0010
0000
,
0001
0000
1000
0000
0010
1000
0000
0010
1000
0000
0010
0000
0100
0000
0101
0000
,
0000
0000
0001
0000
0010
0000
0100
0000
1000
0001
0000
0010
0000
0001
0000
0000
,
1000
0000
0001
0000
0100
0001
0000
0100
0001
0000
0100
0000
0010
0000
1010
0000
,
0000
0000
1000
0000
0100
0010
0000
0001
1000
0000
0010
0000
0110
0000
0000
0000
,
1001
0001
1000
0001
1000
0001
1000
0100
,
0010
0100
0010
0100
0010
0100
0010
0001
,
0100
0001
0100
0001
0100
0001
0100
0010
,
1000
0000
0010
0000
1000
0000
0010
0000
1000
0000
0010
0000
1000
0100
0010
0000
,
1001
1000
0010
0010
0100
0001
0100
0010
,
1000
1000
0001
0001
0010
0001
0010
0100
,
1000
1000
0010
0010
0100
0001
0100
0010
,
1000
0000
1000
0000
0010
0000
0010
0000
0100
0000
0001
0000
0100
0000
0001
0010
,
0100
0000
0000
1000
0000
0000
0010
0000
0100
0000
0010
1000
0000
0000
0001
0000
,
0010
0000
0000
0001
0000
0000
0100
0000
0010
0000
0000
1000
0000
0000
0001
0000
,
1000
0100
0010
0001
0000
1000
0010
0000
,
1000
0000
0001
0000
0010
0000
0100
0000
1000
0000
0001
0000
0001
0000
1000
0100
,
0010
0000
0001
0000
0100
0000
0001
0000
0010
0000
0100
0000
0000
1000
0000
0000
,
0100
0000
0000
1000
0000
0000
0001
0000
0100
0000
0001
0000
0000
0010
0000
0000
,
0001
1000
0100
1100
0000
0010
0001
1000
,
0100
1000
0000
0010
0100
0000
0001
0010
0000
0001
1000
0000
0010
0100
0010
0000
,
1001
0000
0000
0000
;

//---------------dance-single - ----------------
#NOTES:
     dance-single:
     :
     Medium:
     4:
     0.263,0.250,0.118,0.150,0.021: // measure 1
0001
0010
0001
0100
,  // measure 2
0010
0000
1000
0000
0010
0100
0010
0000
,  // measure 3
1000
0010
1000
0001
,  // measure 4
0010
0001
0010
0100
,  // measure 5
1000
0100
0001
1000
,  // measure 6
0001
0010
1000
0010
,  // measure 7
1000
0001
1000
0001
1000
0000
0010
0110
,  // measure 8
0000
0000
1000
1100
,  // measure 9
0000
0001
0010
0001
,  // measure 10
1000
0000
0010
0100
0010
0000
1000
0000
,  // measure 11
0001
0000
0100
0010
0000
1000
0100
0010
,  // measure 12
0000
0001
0000
0000
0100
0000
0110
0000
,  // measure 13
1000
0000
0001
1000
0001
0000
0100
0000
,  // measure 14
0010
0000
1000
0010
0100
0001
0010
0001
,  // measure 15
0010
0000
0000
0001
0000
0100
0000
0001
,  // measure 16
0000
1000
0000
0000
0000
0000
1100
0000
,  // measure 17
0101
0000
0010
0000
1000
0001
0000
0210
,  // measure 18
0000
0000
0000
0000
,  // measure 19
0310
0000
1000
0000
0001
0100
0000
0120
,  // measure 20
0000
0000
0000
1030
,  // measure 21
0002
0000
0000
0203
0000
0000
0320
0000
,  // measure 22
0230
0000
0000
0320
0000
0000
1030
0002
,  // measure 23
0000
0000
0000
0000
0000
0000
0013
0100
,  // measure 24
1000
0000
0001
1000
0000
1000
0001
0000
,  // measure 25
1001
0000
0100
0000
0010
0100
0010
0000
,  // measure 26
1000
0000
0001
0000
1000
0001
1000
0000
,  // measure 27
0001
0000
0100
0000
0001
0100
0001
0000
,  // measure 28
1000
0000
0010
0000
1000
0010
1000
0100
,  // measure 29
0012
0000
0010
0000
,  // measure 30
2003
0000
0100
0000
,  // measure 31
3002
0000
0000
1003
0000
0000
0020
0000
,  // measure 32
0230
0000
0000
0302
0000
0000
1003
0100
,  // measure 33
1001
0000
0000
0000
0010
0000
0000
0000
0100
0000
0010
0000
0000
0100
0000
0000
,  // measure 34
0010
0000
0000
1000
0000
0000
0001
0000
0000
0000
1000
0000
0000
0010
0000
0000
,  // measure 35
0100
0000
0001
1000
0000
0000
0010
0100
,  // measure 36
0010
0000
0000
0000
1000
0000
0000
0010
0000
0000
0100
0000
0001
0000
0000
0000
,  // measure 37
1001
0000
0000
0000
;

//---------------dance-single - ----------------
#NOTES:
     dance-single:
     :
     Beginner:
     1:
     0.061,0.096,0.053,0.000,0.000:
0100
0000
0000
0000
,
0010
0000
0000
0000
,
0100
0000
0000
0000
,
0010
0000
0000
0000
,
1000
0000
0000
0000
,
0001
0000
0000
0000
,
1000
0000
0000
0000
,
0000
0000
0000
0000
,
0000
0001
0000
0000
,
0000
0100
0000
0000
,
0000
0010
0000
0000
,
0000
0100
0000
0000
,
0000
0010
0000
0000
,
0000
1000
0000
0000
,
0000
0100
0000
0000
,
0000
1000
0000
0000
,
1001
0000
0000
0000
,
0000
0010
0000
0000
,
0000
0100
0000
0000
,
0000
0000
0000
0000
,
0001
0000
0000
0000
,
0001
0000
0000
0000
,
1000
0000
0000
0000
,
1000
0000
0000
0000
,
1001
0000
0000
0000
,
0010
0000
0000
0000
,
0100
0000
0000
0000
,
0010
0000
0000
0000
,
1001
0000
0000
0000
,
0010
0000
0000
0000
,
0001
0000
0000
0000
,
1000
0000
0000
0000
,
1001
0000
0000
0000
,
0000
0000
0000
0000
,
0100
0000
0010
0000
,
0100
0000
0000
0000
,
1001
0000
0000
0000
;

//---------------dance-double - ----------------
#NOTES:
     dance-double:
     :
     Easy:
     2:
     0.124,0.173,0.085,0.043,0.000:
00010000
00000000
00100000
00000000
,
00010000
00000000
10000000
00000000
,
01000000
00000000
10000000
00000000
,
00100000
00000000
01000000
00000000
,
00100000
00000000
01000000
00000000
,
00010000
00000000
10000000
01000000
,
00100000
00000000
00010000
00000000
00000000
00011000
00000000
00000000
,
00000000
00000000
00000000
00000000
,
00000001
00000000
00000100
00000000
,
00000010
00000000
00000100
00000000
,
00000010
00000000
00001000
00000000
,
00000010
00000000
00001000
00000000
,
00010000
00000000
00100000
00000000
,
01000000
00000000
10000000
00000000
,
00100000
00000000
10000000
00000000
,
00100000
00000000
01000000
00011000
,
00000010
00000000
00000010
00000000
,
00001000
00000000
00000100
00000000
,
00001000
00000000
00000100
00000010
,
00000000
00000000
00000000
00001001
,
00021000
00000000
00000000
00000000
,
00230000
00000000
00000000
00000000
,
02300000
00000000
00000000
00000000
,
23000000
00000000
00000000
00000000
,
30010000
00000000
00000000
00000000
,
01000000
00000000
00000000
00000000
,
10000000
00000000
00000000
00000000
,
00010000
00000000
00000000
00000000
,
00011000
00000000
00000010
00000000
,
00000100
00000000
00000010
00000000
,
00001000
00000000
00000010
00000000
,
00000100
00000000
00000010
00001000
,
00011000
00000000
00000000
01000000
,
00000000
00100000
00000000
01000000
,
00000000
00010000
00000000
10000000
,
01000000
00100000
00010000
10010000
,
00011000
00000000
00000000
00000000
;

//---------------dance-double - ----------------
#NOTES:
     dance-double:
     :
     Medium:
     4:
     0.269,0.269,0.150,0.160,0.021:
00010000
00100000
00010000
01000000
,
00100000
10000000
01000000
00100000
,
00010000
01000000
00010000
10000000
,
00100000
10000000
00010000
00010000
,
00001000
00000010
00000100
00000001
,
00000100
00000010
00001000
00000001
,
00002002
00000000
00000000
00000000
00000000
00003003
00000100
00000110
,
00000000
00000000
00000010
00011000
,
00000000
01000000
00010000
01000000
,
00100000
00000000
10000000
00100000
01000000
00000000
00010000
00000000
,
10010000
00000000
01000000
00100000
00000000
10000000
01000000
00100000
,
00000000
00000000
00010000
00000000
01000000
00010000
00100000
00000000
,
00001000
00000000
00001000
00000001
00001000
00000000
00000010
00000000
,
00000100
00000000
00000001
00000100
00000010
00001000
00000100
00001000
,
00000100
00000000
00000000
00001000
00000000
00000010
00000000
00001000
,
00000000
00000001
00000000
00000000
00000000
00000000
00001000
00000000
,
00011000
00000000
00100000
00000000
10000000
00010000
00000000
02100000
,
00000000
00000000
00000000
00000000
,
03100000
00000000
10000000
00000000
00010000
01000000
00000000
01200000
,
00000000
00000000
00000000
10300000
,
20000000
00000000
00000000
32000000
00000000
00000000
03100000
00010000
,
00002000
00000000
00000000
00003200
00000000
00000000
00000310
00000001
,
00000010
00000000
00000001
00000000
00000010
00000000
00000100
00001000
,
00010000
00000000
00100000
01000000
00000000
10000000
10010000
00000000
,
10010000
00000000
10000000
00000000
01000000
00100000
00010000
00000000
,
00001000
00000000
00000100
00000000
00000010
00000001
00000100
00000000
,
00000010
00000000
00001000
00000000
00010000
00100000
01000000
00000000
,
10000000
00000000
00100000
00000000
10000000
00100000
01000000
00010000
,
00012000
00000000
00010000
00003000
,
00021000
00000000
00001000
00030000
,
00002000
00000000
00000000
00003200
00000000
00000000
00000320
00000000
,
00000032
00000000
00000000
00000203
00000000
00000000
00000310
00001000
,
00001001
00000000
00000000
00000000
00010000
00000000
00000000
00000000
01000000
00000000
00100000
00000000
00000000
01000000
00000000
00000000
,
00100000
00000000
00000000
10000000
00000000
00000000
00010000
00000000
00000000
00000000
10000000
00000000
00000000
00100000
00000000
00000000
,
01000000
00000000
00010000
00011000
00000000
00000000
00000100
00000010
,
00000001
00000000
00000000
00000000
00000100
00000000
00000000
00000010
00000000
00000000
00000100
00000000
00001000
00000000
00000000
00000000
,
00011000
00000000
00000000
00000000
;
