#TITLE:Disconnected;
#SUBTITLE:;
#ARTIST:Inspector K;
#TITLETRANSLIT:;
#SUBTITLETRANSLIT:;
#ARTISTTRANSLIT:;
#CREDIT:DMAxel;
#BANNER:Disconnected.png;
#BACKGROUND:Disconnected-bg.png;
#LYRICSPATH:;
#CDTITLE:in the groove.png;
#MUSIC:Disconnected.mp3;
#OFFSET:-0.040;
#SAMPLESTART:67.147;
#SAMPLELENGTH:12.000;
#SELECTABLE:YES;
#BPMS:0.000=200.000;
#STOPS:288.000=2.080
;
#BGCHANGES:;

//---------------dance-single - ----------------
#NOTES:
     dance-single:
     :
     Hard:
     8:
     0.670,0.685,0.638,0.215,0.000: // measure 1
0000
0000
0000
0000
,  // measure 2
0000
0000
0000
0000
,  // measure 3
0000
0000
0000
0000
,  // measure 4
0000
0000
0000
0000
,  // measure 5
0000
0000
0000
0000
,  // measure 6
0000
0000
0000
0000
,  // measure 7
0000
0000
0000
0000
,  // measure 8
0000
0000
0000
0000
,  // measure 9
0010
0001
0010
0001
0010
0000
1001
0000
,  // measure 10
0100
0001
0100
0010
0000
1001
0000
0000
,  // measure 11
0100
1000
0100
1000
0100
0000
1001
0000
,  // measure 12
0010
1000
0010
0100
0000
1001
0000
0001
,  // measure 13
1000
0000
1000
0100
0000
1010
0000
0000
,  // measure 14
0100
0100
0000
1000
0010
0001
0100
0000
,  // measure 15
0101
0000
0001
0010
1000
0100
0000
0010
,  // measure 16
0000
0001
1000
0000
1010
0000
1001
0000
,  // measure 17
0010
0100
1000
0100
0010
0000
1001
0000
,  // measure 18
0100
0010
0001
0010
0000
1001
0000
0000
,  // measure 19
0100
0010
0001
0010
0100
0000
1001
0000
,  // measure 20
0010
0100
1000
0100
0000
1001
0000
0100
,  // measure 21
0001
0000
0001
1000
0000
1010
0000
0000
,  // measure 22
0100
0100
0000
0001
0010
1000
0100
0000
,  // measure 23
1001
0000
1000
0010
0100
0010
1000
0010
,  // measure 24
0000
1000
0000
0001
0100
0010
0100
0000
,  // measure 25
1001
0100
0010
0001
,  // measure 26
0010
1000
0010
0100
,  // measure 27
0001
0000
1000
0100
0000
0000
0101
0000
,  // measure 28
0010
0100
1000
0100
,  // measure 29
1001
0100
0010
0001
,  // measure 30
0010
1000
0010
0100
,  // measure 31
0010
0000
0100
0001
0000
0000
0011
0000
,  // measure 32
0100
1001
0001
1000
,  // measure 33
0100
0010
0001
0100
0010
0100
0001
0000
,  // measure 34
0010
0100
0000
1000
0001
1000
0001
0010
,  // measure 35
0100
1000
0010
0100
0010
1000
0010
0000
,  // measure 36
0100
0010
0000
0001
1000
0001
1000
0001
,  // measure 37
0010
0100
1000
0010
0100
0001
0010
0000
,  // measure 38
0100
1000
0010
1000
0010
1000
0001
0000
,  // measure 39
0101
0000
0010
1000
0000
1000
0000
0000
,  // measure 40
0010
0100
0010
0100
0010
1001
0000
0000
,  // measure 41
0100
0010
0001
0100
0010
0100
0001
0000
,  // measure 42
0010
0001
0000
0010
0100
1000
0001
0000
,  // measure 43
0010
0100
1000
0010
0100
0010
1000
0000
,  // measure 44
0100
0010
0001
0100
0001
0000
1001
0000
,  // measure 45
0100
1000
0010
1000
0010
1000
0100
0000
,  // measure 46
0010
0001
0100
0001
0100
0001
1000
0000
,  // measure 47
1010
0000
0100
0001
0000
0001
0000
0000
,  // measure 48
1001
0000
0100
0010
0100
0010
0100
0000
,  // measure 49
1002
0000
0000
0010
0000
0000
0100
0000
,  // measure 50
2003
3200
0320
0030
,  // measure 51
2001
0000
0000
0100
0000
0000
0010
0000
,  // measure 52
3002
0023
0230
0300
,  // measure 53
1002
0000
0000
0010
0000
0000
0100
0000
,  // measure 54
2003
3200
0320
0030
,  // measure 55
2001
0000
0000
0100
0000
0000
0010
0000
,  // measure 56
3002
0023
0230
0300
,  // measure 57
1001
0000
0101
0000
0001
0010
0100
1000
,  // measure 58
0010
1001
0110
1001
,  // measure 59
1001
0000
1010
0000
1000
0100
0010
0001
,  // measure 60
1000
1001
0110
1001
,  // measure 61
1001
0000
1010
0000
0010
0100
0001
1000
,  // measure 62
0010
0110
0101
1001
,  // measure 63
1001
0000
0101
0000
0100
0010
1000
0001
,  // measure 64
0100
0110
1010
1001
,  // measure 65
1001
0000
0001
1000
0001
0010
1000
0100
,  // measure 66
0001
0010
0100
0000
1010
0000
0110
0000
,  // measure 67
1001
0000
1000
0001
1000
0100
0001
0010
,  // measure 68
1000
0100
0010
0000
0101
0000
0110
0000
,  // measure 69
1001
0000
0001
0100
0001
0010
1000
0100
,  // measure 70
0001
0010
0100
0000
1010
0000
0110
0000
,  // measure 71
1001
0000
1000
0000
0100
0010
0000
0100
,  // measure 72
0010
1001
0110
2002
,  // measure 73
3003
0000
1000
0010
0100
0001
0010
0100
,  // measure 74
1000
0000
0001
0100
0010
1000
0100
0010
,  // measure 75
0001
0000
0010
0100
1000
0010
0000
1001
,  // measure 76
0000
0000
0010
1000
0010
1000
0010
1001
,  // measure 77
0000
0000
0001
0010
0100
1000
0010
0100
,  // measure 78
0001
0000
1000
0100
0010
0001
0100
0010
,  // measure 79
1000
0000
0100
0010
0001
0100
0000
1001
,  // measure 80
0000
0000
0100
0001
0100
0001
0100
1001
,  // measure 81
0000
0000
0100
0001
1000
0010
1000
0100
,  // measure 82
1000
0000
0010
1000
0001
0100
0001
0010
,  // measure 83
0001
0000
0010
0001
0010
1000
0000
1010
,  // measure 84
0000
0000
0010
1000
0010
1000
0010
1001
,  // measure 85
0000
0000
1000
0100
0010
0100
1000
0010
,  // measure 86
0100
0000
0001
0010
0100
0010
0001
0100
,  // measure 87
0010
0000
1000
0010
0100
0010
1000
0010
,  // measure 88
0001
0000
0100
0010
0100
0010
0100
1001
,  // measure 89
0000
0000
0101
0000
0010
1000
0000
0000
,  // measure 90
2200
0000
0000
0000
3300
0000
1000
0001
,  // measure 91
1000
0000
1010
0000
0100
0001
0000
0000
,  // measure 92
0022
0000
0033
0000
,  // measure 93
0001
1000
0001
0000
1000
0100
0000
0000
,  // measure 94
0220
0000
0000
0000
0330
0000
0000
0010
,  // measure 95
0001
0000
1001
0000
0100
0001
0000
0001
,  // measure 96
1000
0000
0000
0100
1000
0100
0110
0000
,  // measure 97
1010
2002
0000
0000
,  // measure 98
0000
3003
0000
0000
;

//---------------dance-single - ----------------
#NOTES:
     dance-single:
     :
     Easy:
     4:
     0.276,0.399,0.249,0.017,0.000: // measure 1
0000
0000
0000
0000
,  // measure 2
0000
0000
0000
0000
,  // measure 3
0000
0000
0000
0000
,  // measure 4
0000
0000
0000
0000
,  // measure 5
0000
0000
0000
0000
,  // measure 6
0000
0000
0000
0000
,  // measure 7
0000
0000
0000
0000
,  // measure 8
0000
0000
0000
0000
,  // measure 9
1000
0000
0001
0000
,  // measure 10
1000
0000
0001
0000
,  // measure 11
0100
0000
0010
0000
,  // measure 12
1000
0000
0100
0000
,  // measure 13
1000
0000
1000
0000
,  // measure 14
0001
0000
0001
0000
,  // measure 15
0010
0000
0100
0000
,  // measure 16
1000
0000
0001
0000
,  // measure 17
1000
0000
0001
0000
,  // measure 18
1000
0000
0001
0000
,  // measure 19
0100
0000
0010
0000
,  // measure 20
1000
0000
0100
0000
,  // measure 21
1000
0000
0001
0000
,  // measure 22
0010
0000
0001
0000
,  // measure 23
1000
0000
0001
0000
,  // measure 24
0010
0000
0100
0000
,  // measure 25
1001
0000
0000
0000
,  // measure 26
0000
0000
0000
0000
,  // measure 27
0110
0000
0000
0000
,  // measure 28
0000
0000
0000
0000
,  // measure 29
1001
0000
0000
0000
,  // measure 30
0000
0000
0000
0000
,  // measure 31
0110
0000
0000
0000
,  // measure 32
0000
0000
0000
0000
,  // measure 33
1001
0000
1000
0000
,  // measure 34
0100
1000
0100
0000
,  // measure 35
1000
0000
0001
0000
,  // measure 36
0010
0001
0010
0000
,  // measure 37
0001
0000
1000
0000
,  // measure 38
0010
1000
0010
0000
,  // measure 39
1000
0000
0001
0000
,  // measure 40
0100
0001
0100
0000
,  // measure 41
0001
1000
0001
0000
,  // measure 42
0001
1000
0001
0000
,  // measure 43
0010
0100
1000
0000
,  // measure 44
1000
0001
1000
0000
,  // measure 45
1000
0001
1000
0000
,  // measure 46
0100
0010
0001
0000
,  // measure 47
0001
1000
0001
0000
,  // measure 48
0010
0100
1000
0010
,  // measure 49
1000
0000
1000
0000
,  // measure 50
1001
0000
0000
0000
,  // measure 51
0001
0000
0001
0000
,  // measure 52
1001
0000
0000
0000
,  // measure 53
1000
0000
1000
0000
,  // measure 54
1001
0000
0000
0000
,  // measure 55
0010
0000
0001
0000
,  // measure 56
1001
0000
0000
0000
,  // measure 57
1001
0000
1001
0000
,  // measure 58
0010
0001
0010
0100
,  // measure 59
1001
0000
1001
0000
,  // measure 60
0100
1000
0100
0010
,  // measure 61
1001
0000
1001
0000
,  // measure 62
0010
0001
0010
0100
,  // measure 63
1001
0000
1001
0000
,  // measure 64
0100
0000
0000
0000
,  // measure 65
1100
0000
0010
0000
,  // measure 66
0001
0010
0100
0000
,  // measure 67
1100
0000
0010
0000
,  // measure 68
0001
0010
0100
0000
,  // measure 69
1001
0000
0011
0000
,  // measure 70
0100
1000
0100
0000
,  // measure 71
0011
0000
0000
2002
,  // measure 72
0000
0000
0000
3003
,  // measure 73
0000
1000
0010
1000
,  // measure 74
0000
1000
0001
1000
,  // measure 75
0100
0010
0001
0100
,  // measure 76
0000
0001
0010
0001
,  // measure 77
0000
0001
1000
0001
,  // measure 78
0010
0100
1000
0010
,  // measure 79
0100
0010
1000
0010
,  // measure 80
0000
0010
0100
0010
,  // measure 81
0000
1000
0100
0010
,  // measure 82
0001
1000
0010
0100
,  // measure 83
0010
1000
0010
1000
,  // measure 84
0100
0010
0001
1000
,  // measure 85
0000
0001
0010
0100
,  // measure 86
1000
0010
0100
0010
,  // measure 87
1000
0100
0010
0001
,  // measure 88
1000
0010
0100
0001
,  // measure 89
0000
1001
0000
0000
,  // measure 90
0001
0000
0000
0000
,  // measure 91
0000
0000
1001
0000
0000
1000
0000
0000
,  // measure 92
1001
0000
0000
0000
,  // measure 93
0000
1100
0000
0000
,  // measure 94
1000
0000
0000
0000
,  // measure 95
0000
0000
1001
0000
0000
0001
0000
0000
,  // measure 96
0011
0000
0000
0100
,  // measure 97
0100
1001
0000
0000
;

//---------------dance-single - ----------------
#NOTES:
     dance-single:
     :
     Medium:
     7:
     0.503,0.598,0.530,0.174,0.000: // measure 1
0000
0000
0000
0000
,  // measure 2
0000
0000
0000
0000
,  // measure 3
0000
0000
0000
0000
,  // measure 4
0000
0000
0000
0000
,  // measure 5
0000
0000
0000
0000
,  // measure 6
0000
0000
0000
0000
,  // measure 7
0000
0000
0000
0000
,  // measure 8
0000
0000
0000
0000
,  // measure 9
0001
1000
0001
1000
,  // measure 10
0010
0100
0010
1000
,  // measure 11
0100
1000
0100
1000
,  // measure 12
0001
0010
0001
0010
,  // measure 13
0001
0010
0100
1000
,  // measure 14
0010
0100
0010
1000
,  // measure 15
0100
0010
0001
0100
,  // measure 16
0010
0100
0001
1001
,  // measure 17
0010
0001
0010
0001
,  // measure 18
1000
0001
1000
0001
,  // measure 19
1000
0100
1000
0100
,  // measure 20
1000
0010
1000
0010
,  // measure 21
0100
0010
1000
0010
,  // measure 22
0100
0010
1000
0100
,  // measure 23
0010
0001
0100
0001
,  // measure 24
0010
0001
1000
1001
,  // measure 25
0020
0000
0000
0031
,  // measure 26
0000
0000
0000
0000
,  // measure 27
0200
0000
0000
1000
0000
0000
1300
0000
,  // measure 28
0000
0000
0000
0000
,  // measure 29
0200
0000
0000
0301
,  // measure 30
0000
0000
0000
0000
,  // measure 31
0020
0000
0000
1000
0000
0000
1030
0000
,  // measure 32
0000
0010
0010
1010
,  // measure 33
1000
0001
1000
0000
0010
0000
0100
0000
,  // measure 34
0101
0010
1000
0110
,  // measure 35
0001
1000
0001
0000
0100
0000
0010
0000
,  // measure 36
1010
0100
0001
0110
,  // measure 37
1000
0001
1000
0000
0001
0000
0010
0000
,  // measure 38
0011
0100
1000
0110
,  // measure 39
0001
1000
0001
0000
1000
0000
0100
0000
,  // measure 40
0011
0011
1001
0000
,  // measure 41
1000
0001
1000
0000
1000
0010
1000
0000
,  // measure 42
0100
0010
0001
0101
,  // measure 43
0001
1000
0001
0000
0001
0100
0001
0000
,  // measure 44
0010
0100
1000
1010
,  // measure 45
1000
0001
1000
0000
1000
0100
1000
0000
,  // measure 46
0010
0100
0001
0011
,  // measure 47
0001
1000
0001
0000
0001
0010
0001
0000
,  // measure 48
0100
0010
1000
1100
,  // measure 49
2001
0000
0001
0000
,  // measure 50
3002
0023
0230
0300
,  // measure 51
1002
0000
1000
0000
,  // measure 52
2003
3200
0320
0030
,  // measure 53
1002
0000
1000
0000
,  // measure 54
2003
3200
0320
0030
,  // measure 55
2001
0000
0001
0000
,  // measure 56
3002
0023
0230
0300
,  // measure 57
1001
1001
1001
0010
,  // measure 58
0100
1000
0100
0010
,  // measure 59
1001
1001
1001
0100
,  // measure 60
0010
0001
0010
0100
,  // measure 61
1001
0110
1001
0100
,  // measure 62
0010
1000
0010
0100
,  // measure 63
1001
0110
1001
0010
,  // measure 64
0011
0000
1001
0000
,  // measure 65
0011
0000
0100
0000
1001
0000
1000
0100
,  // measure 66
1000
0001
0101
0101
,  // measure 67
1100
0000
0010
0000
1001
0000
0001
0010
,  // measure 68
0001
1000
1010
1010
,  // measure 69
0011
0000
0100
0000
1001
0000
1000
0010
,  // measure 70
1000
0001
0101
0101
,  // measure 71
1100
0000
0000
0101
,  // measure 72
0100
0020
0000
0000
0000
0000
0030
0000
,  // measure 73
0000
0000
1000
0010
1000
0010
1000
0000
,  // measure 74
0000
0100
0010
0001
,  // measure 75
1001
0000
0001
0100
0001
0100
0000
0001
,  // measure 76
0000
0010
0100
1000
,  // measure 77
1001
0000
0001
0100
0001
0100
0001
0000
,  // measure 78
0000
0100
0010
1000
,  // measure 79
1001
0000
1000
0010
1000
0010
0000
1000
,  // measure 80
0000
0010
0100
0001
,  // measure 81
1001
0000
0010
0001
0010
0001
0100
0000
,  // measure 82
1000
0100
0010
0011
,  // measure 83
1001
0000
0100
1000
0100
1000
0010
0000
,  // measure 84
0001
0010
0100
1100
,  // measure 85
1001
0000
0010
1000
0010
1000
0100
0000
,  // measure 86
0001
0010
0100
1010
,  // measure 87
1001
0000
0100
0001
0100
0001
0010
0000
,  // measure 88
1000
0100
0010
0101
,  // measure 89
1001
0000
1000
0000
0010
0100
0000
0000
,  // measure 90
1010
0000
0000
0000
0000
0000
0100
0010
,  // measure 91
0100
0000
0001
0000
0100
0010
0000
0100
,  // measure 92
0001
0000
0000
0000
,  // measure 93
0100
0010
0100
0000
0010
1000
0000
0000
,  // measure 94
1001
0000
0000
0000
0000
0000
0000
0010
,  // measure 95
0000
0000
0101
0000
0100
0010
0000
0100
,  // measure 96
0001
0000
1000
0000
0010
0100
0010
0100
,  // measure 97
0010
1001
0000
0000
;

//---------------dance-single - ----------------
#NOTES:
     dance-single:
     :
     Beginner:
     2:
     0.098,0.199,0.133,0.000,0.000: // measure 1
0000
0000
0000
0000
,  // measure 2
0000
0000
0000
0000
,  // measure 3
0000
0000
0000
0000
,  // measure 4
0000
0000
0000
0000
,  // measure 5
0000
0000
0000
0000
,  // measure 6
0000
0000
0000
0000
,  // measure 7
0000
0000
0000
0000
,  // measure 8
0000
0000
0000
0000
,  // measure 9
0001
0000
0000
0000
,  // measure 10
0001
0000
0000
0000
,  // measure 11
0001
0000
0000
0000
,  // measure 12
0001
0000
0000
0000
,  // measure 13
1001
0000
0000
0000
,  // measure 14
0000
0000
0000
0000
,  // measure 15
0010
0000
0000
0000
,  // measure 16
0000
0000
0000
0000
,  // measure 17
1000
0000
0000
0000
,  // measure 18
1000
0000
0000
0000
,  // measure 19
1000
0000
0000
0000
,  // measure 20
1000
0000
0000
0000
,  // measure 21
1001
0000
0000
0000
,  // measure 22
0000
0000
0000
0000
,  // measure 23
0100
0000
0000
0000
,  // measure 24
0000
0000
0000
0000
,  // measure 25
1001
0000
0000
0000
,  // measure 26
0000
0000
0000
0000
,  // measure 27
1001
0000
0000
0000
,  // measure 28
0000
0000
0000
0000
,  // measure 29
1001
0000
0000
0000
,  // measure 30
0000
0000
0000
0000
,  // measure 31
1001
0000
0000
0000
,  // measure 32
0000
0000
0000
0000
,  // measure 33
0001
0000
0000
0000
,  // measure 34
1000
0000
0000
0000
,  // measure 35
0001
0000
0000
0000
,  // measure 36
1000
0000
0000
0000
,  // measure 37
0001
0000
0000
0000
,  // measure 38
1000
0000
0000
0000
,  // measure 39
0001
0000
0000
0000
,  // measure 40
0001
0000
0000
0000
,  // measure 41
1001
0000
0000
0000
,  // measure 42
1000
0000
0000
0000
,  // measure 43
0001
0000
0000
0000
,  // measure 44
1000
0000
0000
0000
,  // measure 45
0010
0000
0000
0000
,  // measure 46
0100
0000
0000
0000
,  // measure 47
0010
0000
0000
0000
,  // measure 48
0010
0000
0000
0000
,  // measure 49
1001
0000
0000
0000
,  // measure 50
0000
0000
0000
0000
,  // measure 51
1000
0000
0000
0000
,  // measure 52
0000
0000
0000
0000
,  // measure 53
0001
0000
0000
0000
,  // measure 54
0000
0000
0000
0000
,  // measure 55
1000
0000
0000
0000
,  // measure 56
0000
0000
0000
0000
,  // measure 57
1001
0000
0000
0000
,  // measure 58
0001
0000
0000
0000
,  // measure 59
0010
0000
0000
0000
,  // measure 60
0001
0000
0000
0000
,  // measure 61
1000
0000
0000
0000
,  // measure 62
0100
0000
0000
0000
,  // measure 63
1000
0000
0000
0000
,  // measure 64
1001
0000
0000
0000
,  // measure 65
1001
0000
0000
0000
,  // measure 66
0001
0000
0000
0000
,  // measure 67
0100
0000
0000
0000
,  // measure 68
0001
0000
0000
0000
,  // measure 69
1000
0000
0000
0000
,  // measure 70
0010
0000
0000
0000
,  // measure 71
1000
0000
0000
0000
,  // measure 72
0000
0000
0000
0000
,  // measure 73
0000
0000
0000
0000
,  // measure 74
0000
0000
0000
0000
,  // measure 75
0000
0000
0000
0000
,  // measure 76
0000
0000
0000
0000
,  // measure 77
0000
0001
0000
0000
,  // measure 78
0000
0000
0000
0000
,  // measure 79
0000
0001
0000
0000
,  // measure 80
0000
1000
0000
0000
,  // measure 81
0000
0001
0000
0000
,  // measure 82
0000
0001
0000
0000
,  // measure 83
0000
1000
0000
0000
,  // measure 84
0000
1000
0000
0000
,  // measure 85
0000
0100
0000
0000
,  // measure 86
0000
1000
0000
0000
,  // measure 87
0000
0001
0000
0000
,  // measure 88
0000
0010
0000
0000
,  // measure 89
0000
1001
0000
0000
,  // measure 90
0000
0000
0000
0000
,  // measure 91
0000
0110
0000
0000
,  // measure 92
0000
0000
0000
0000
,  // measure 93
0000
1001
0000
0000
,  // measure 94
0000
0000
0000
0000
,  // measure 95
0000
0110
0000
0000
,  // measure 96
0000
0000
0000
0000
,  // measure 97
0000
1001
0000
0000
;

//---------------dance-single - ----------------
#NOTES:
     dance-single:
     :
     Challenge:
     9:
     0.709,0.685,0.522,0.083,0.000: // measure 1
0000
0000
0000
0000
,  // measure 2
0000
0000
0000
0000
,  // measure 3
0000
0000
0000
0000
,  // measure 4
0000
0000
0000
0000
,  // measure 5
0000
0000
0000
0000
,  // measure 6
0000
0000
0000
0000
,  // measure 7
0000
0000
0000
0000
,  // measure 8
0000
0000
0000
0000
,  // measure 9
0100
1000
0100
1000
0100
1000
0001
0000
,  // measure 10
0010
0001
0010
0001
0010
1000
0010
0000
,  // measure 11
1000
0100
1000
0100
1000
0100
1000
0000
,  // measure 12
0001
0100
0001
0100
0001
0100
0001
0100
,  // measure 13
1000
0000
0100
0010
0000
0001
1000
0001
,  // measure 14
0010
0010
0000
0001
0100
1000
0010
0000
,  // measure 15
1010
0000
1000
0100
0001
0010
0000
0100
,  // measure 16
1000
0100
0010
0001
0100
0000
1001
0000
,  // measure 17
0100
0001
0010
0001
0100
0001
0010
0000
,  // measure 18
0100
1000
0010
1000
0100
0001
0100
0000
,  // measure 19
0001
0100
0010
0100
0001
0100
0010
0000
,  // measure 20
1000
0010
0100
0010
1000
0100
0001
0010
,  // measure 21
0100
0000
1000
0010
0000
0100
0001
0100
,  // measure 22
0010
0010
0000
1000
0100
0001
0010
0000
,  // measure 23
1001
0000
0001
0100
0010
0100
0001
0100
,  // measure 24
0001
0010
0100
1000
0010
0100
0010
0000
,  // measure 25
1001
0000
0100
0001
0000
0001
1000
0000
,  // measure 26
0010
0000
0100
0010
0000
0010
1000
0000
,  // measure 27
1001
0000
0001
0010
0000
0001
0010
0000
,  // measure 28
1001
0000
0010
0001
0000
0001
0100
0000
,  // measure 29
1001
0000
0010
1000
0000
1000
0100
0000
,  // measure 30
1000
0000
0001
0100
0000
0100
0010
0000
,  // measure 31
1001
0000
1000
0100
0000
1000
0100
0000
,  // measure 32
1001
0000
1000
0010
1000
0010
1000
0001
,  // measure 33
0010
0100
1000
0010
0100
0010
1000
0000
,  // measure 34
0100
0010
0001
0010
1000
0010
0001
0010
,  // measure 35
0100
0000
1000
0100
1000
0001
1000
0000
,  // measure 36
0100
0001
0100
1000
0100
0010
0001
0000
,  // measure 37
0010
0100
1000
0001
0010
0001
0100
0000
,  // measure 38
0010
1000
0100
1000
0100
0010
0001
0100
,  // measure 39
0001
0000
0100
0001
0000
0001
1000
0000
,  // measure 40
0100
0010
0001
0010
1000
0100
0000
0000
,  // measure 41
1000
0100
1000
0010
0100
0001
0010
0000
,  // measure 42
0100
1000
0100
0010
0001
1000
0001
0000
,  // measure 43
0001
0010
0001
0100
0010
1000
0100
0000
,  // measure 44
0010
0001
0010
0100
1000
0001
1000
0000
,  // measure 45
1000
0001
0010
1000
0100
0010
0001
0000
,  // measure 46
0001
1000
0100
0001
0010
0100
1000
0001
,  // measure 47
1000
0000
1000
0001
0000
0001
0100
0000
,  // measure 48
0010
1000
0010
0100
0010
1000
0100
0000
,  // measure 49
1001
0000
1000
0010
0000
0000
0110
0000
,  // measure 50
0101
0110
1010
0000
,  // measure 51
1001
0000
0001
0100
0000
0000
0110
0000
,  // measure 52
1010
0110
1010
0000
,  // measure 53
1001
0000
1000
0010
0000
0000
0110
0000
,  // measure 54
1010
0110
0101
0000
,  // measure 55
1001
0000
0001
0100
0000
0000
0100
0010
,  // measure 56
0100
0001
0010
0100
1000
0000
1100
0000
,  // measure 57
1001
0000
1100
0000
0100
0001
0010
0100
,  // measure 58
1000
1100
0101
0101
,  // measure 59
1001
0000
0011
0000
0010
1000
0100
0010
,  // measure 60
0001
0011
1010
1010
,  // measure 61
1001
0000
0101
0000
0100
0010
1000
0001
,  // measure 62
0100
0110
1010
1001
,  // measure 63
1001
0000
1010
0000
0010
0100
0001
1000
,  // measure 64
0010
0100
0010
0000
1000
0001
1000
0000
,  // measure 65
1001
0000
1000
0100
0001
0010
1000
0100
,  // measure 66
0010
0001
0100
0001
0010
0000
1010
0000
,  // measure 67
1001
0000
0001
0010
1000
0100
0001
0010
,  // measure 68
0100
1000
0010
1000
0100
0000
0101
0000
,  // measure 69
1001
0000
1000
0100
0001
0010
1000
0001
,  // measure 70
0010
0100
1000
0010
0100
0000
1100
0000
,  // measure 71
1001
0000
0001
0100
0010
0100
0000
0100
,  // measure 72
0010
1000
0010
0000
0110
0000
2002
0000
,  // measure 73
3003
0000
0001
0100
0010
1000
0100
0010
,  // measure 74
0001
0000
1000
0010
0100
0001
0010
0100
,  // measure 75
1000
0000
0100
0010
0001
0100
0000
1001
,  // measure 76
0000
0000
0100
0001
0010
1000
0100
0010
,  // measure 77
0001
0000
1000
0100
0010
0001
0100
0010
,  // measure 78
1000
0000
0001
0010
0100
1000
0010
0100
,  // measure 79
0001
0000
0010
0100
1000
0010
0000
1001
,  // measure 80
0000
0000
0010
1000
0100
0001
0010
0100
,  // measure 81
1000
0000
0010
1000
0001
0100
0001
0010
,  // measure 82
0001
0000
0100
0001
1000
0010
1000
0100
,  // measure 83
1000
0000
0100
1000
0100
0001
1000
0001
,  // measure 84
0010
0100
1000
0100
0001
0010
1000
0100
,  // measure 85
0010
0000
0001
0010
0100
0010
0001
0100
,  // measure 86
0010
0000
1000
0100
0010
0100
1000
0010
,  // measure 87
0100
0000
0001
0100
0010
0100
0001
0100
,  // measure 88
1000
0000
0100
0001
0010
1000
0100
0010
,  // measure 89
0001
0000
1010
0000
0100
0101
0000
0000
,  // measure 90
0220
0000
0000
0330
0000
0001
0010
1000
,  // measure 91
0001
0000
0101
0000
0010
1010
0000
0000
,  // measure 92
0220
0000
0000
0330
0000
1000
0000
0000
,  // measure 93
1000
0010
0100
0000
0001
0100
0000
0000
,  // measure 94
0220
0000
0000
0330
0000
1000
0000
0100
,  // measure 95
0010
0000
1001
0000
0010
1000
0000
1000
,  // measure 96
0001
0000
0000
0010
0001
0010
1000
0100
,  // measure 97
1000
2002
0000
0000
,  // measure 98
0000
3003
0000
0000
;
