#TITLE:Dazzlin' Darlin;
#SUBTITLE:;
#ARTIST:HHH;
#TITLETRANSLIT:;
#SUBTITLETRANSLIT:;
#ARTISTTRANSLIT:;
#CREDIT:DMAxel;
#BANNER:Dazzlin' Darlin.png;
#BACKGROUND:Dazzlin' Darlin-bg.png;
#LYRICSPATH:Dazzlin' Darlin.lrc;
#CDTITLE:beatmaniaIIDX.png;
#MUSIC:Dazzlin' Darlin.mp3;
#OFFSET:0.660;
#SAMPLESTART:87.478;
#SAMPLELENGTH:12.000;
#SELECTABLE:YES;
#BPMS:0.000=149.000;
#STOPS:214.000=1.200
;
#BGCHANGES:-0.160=Dazzlin' Darlin.AVI=1.000=1=1=0,
99999=-nosongbg-=1.000=0=0=0 // don't automatically add -songbackground-
;

//---------------dance-single - ----------------
#NOTES:
     dance-single:
     :
     Easy:
     4:
     0.300,0.361,0.377,0.017,0.000: // measure 1
0000
0000
0000
0000
,  // measure 2
0000
0000
0000
0000
,  // measure 3
0000
0000
0000
0000
,  // measure 4
0000
0000
0000
0000
,  // measure 5
0000
0000
0000
0000
,  // measure 6
0000
0000
0000
0000
,  // measure 7
0000
0000
0000
0000
,  // measure 8
0000
0000
0000
0001
,  // measure 9
0000
1000
1001
0000
,  // measure 10
0000
0000
0010
0100
,  // measure 11
0010
0100
0001
1000
,  // measure 12
0001
0000
1001
1000
,  // measure 13
0100
1000
0010
0100
,  // measure 14
0001
0000
1001
0010
,  // measure 15
0100
0001
0010
0001
,  // measure 16
1000
0001
0010
0100
,  // measure 17
1000
0100
0010
0001
,  // measure 18
0010
0000
1001
0010
,  // measure 19
0100
1000
0010
0100
,  // measure 20
0001
0100
0010
0100
,  // measure 21
0001
1000
0100
0010
,  // measure 22
0001
0000
1001
0100
,  // measure 23
0010
0100
0001
0010
,  // measure 24
0001
1000
1001
0001
,  // measure 25
0110
1000
1001
0110
,  // measure 26
1001
0000
0000
0000
,  // measure 27
0000
0000
0001
0010
,  // measure 28
0100
1000
0100
0010
,  // measure 29
0001
1000
0100
0010
,  // measure 30
0001
0010
0100
1000
,  // measure 31
1000
1000
1001
1000
,  // measure 32
0100
0010
0001
1000
,  // measure 33
0001
1000
0010
0100
,  // measure 34
0010
1000
0001
1000
,  // measure 35
0000
0000
1001
0010
,  // measure 36
0100
1000
0010
0100
,  // measure 37
0001
1000
1001
0010
,  // measure 38
0100
0001
0010
0100
,  // measure 39
1000
0001
0110
1000
,  // measure 40
0001
1000
0010
0100
,  // measure 41
0010
0100
0001
0010
,  // measure 42
0100
1000
0220
0000
,  // measure 43
0000
0330
1001
0000
,  // measure 44
0000
0000
0011
0000
,  // measure 45
0000
0000
1100
0000
,  // measure 46
0000
0000
0101
0000
,  // measure 47
0000
0000
1010
0000
,  // measure 48
0000
0000
0110
0000
,  // measure 49
0000
0000
1001
0000
,  // measure 50
1001
0000
0011
1100
,  // measure 51
1001
0000
0101
1010
,  // measure 52
1001
0000
1100
0000
,  // measure 53
0110
0000
0011
0110
,  // measure 54
1001
0000
0000
0000
,  // measure 55
0000
0000
0000
1000
,  // measure 56
0100
0010
0001
0100
,  // measure 57
0010
1000
0001
0010
,  // measure 58
0100
1000
0010
0100
,  // measure 59
0001
1000
0001
1001
,  // measure 60
0100
0010
1000
0001
,  // measure 61
0010
0001
0100
0001
,  // measure 62
0010
0100
1000
0001
,  // measure 63
1000
0000
0000
1001
,  // measure 64
0010
0100
0100
1000
,  // measure 65
0100
0010
0001
1001
,  // measure 66
0010
0100
0100
1000
,  // measure 67
0100
0010
0001
1001
,  // measure 68
0010
0001
0001
0110
,  // measure 69
1000
0100
0010
0101
,  // measure 70
0000
1010
0000
1001
,  // measure 71
0110
1001
0000
0000
;

//---------------dance-single - ----------------
#NOTES:
     dance-single:
     :
     Hard:
     7:
     0.438,0.512,0.583,0.000,0.017: // measure 1
0000
0000
0000
0000
,  // measure 2
0000
0000
0000
0000
,  // measure 3
0000
0000
0000
0000
,  // measure 4
0000
0000
0000
0000
,  // measure 5
0000
0000
0000
0000
,  // measure 6
0000
0000
0000
0000
,  // measure 7
0000
0000
0000
0000
,  // measure 8
0000
0000
0000
1000
,  // measure 9
0000
0001
1001
0000
,  // measure 10
0000
0000
0001
0010
1000
0000
0010
0000
,  // measure 11
0100
0000
0000
0000
0010
0000
0000
0000
0100
0000
0000
0001
0000
0000
0100
0000
,  // measure 12
0010
0000
0000
0000
1001
0000
0100
0001
,  // measure 13
0010
0000
0000
0100
0000
0000
1000
0000
0100
0000
0010
0000
0001
0000
0010
0000
,  // measure 14
1000
0000
1001
0011
,  // measure 15
0100
1001
0100
1100
,  // measure 16
0010
0000
0000
0000
0001
0000
0010
0000
0100
0000
0000
1000
0000
0000
0010
0000
,  // measure 17
0100
0000
0000
0001
0000
0000
1000
0000
0100
0000
0010
0000
0001
0000
0100
0000
,  // measure 18
1000
0001
1001
0100
,  // measure 19
0001
0000
0100
0000
1000
0100
0010
0001
,  // measure 20
0100
0010
1000
0010
,  // measure 21
0001
0000
0010
0000
1000
0100
0010
0001
,  // measure 22
0100
0000
0010
0100
0001
0000
0010
0000
,  // measure 23
1000
0000
0010
0000
1001
0000
0100
1000
,  // measure 24
0010
0000
0100
0000
1001
1001
0000
0000
,  // measure 25
1001
1001
0000
0000
1000
0100
0001
0010
,  // measure 26
1001
0000
0000
0000
,  // measure 27
0000
0000
1001
0100
,  // measure 28
1000
0100
0010
0001
,  // measure 29
0010
0100
1000
0100
,  // measure 30
0001
0010
0100
1000
,  // measure 31
0010
0010
1001
0110
,  // measure 32
0001
1000
0001
0000
0100
0000
0010
0000
,  // measure 33
1000
0001
1000
0000
0010
0000
0100
0000
,  // measure 34
0001
0100
0001
0000
0100
0000
0010
0000
,  // measure 35
1000
0010
1000
0000
0110
0000
1001
0000
,  // measure 36
1000
0100
0010
0001
0100
0000
0001
0000
,  // measure 37
1000
0000
0001
0000
1001
0000
0010
1000
,  // measure 38
0100
0010
0001
0100
0010
0000
1000
0000
,  // measure 39
0001
0000
1000
0000
1001
0000
0010
0001
,  // measure 40
0010
0100
1000
0010
0100
0000
0001
0000
,  // measure 41
0010
0100
1000
0010
,  // measure 42
0100
0001
1001
0000
,  // measure 43
0000
0000
1001
0010
,  // measure 44
0001
0010
0001
1000
,  // measure 45
0100
0010
1001
0010
,  // measure 46
0100
0001
0110
0110
,  // measure 47
0110
0000
1100
0010
,  // measure 48
0100
0001
0011
1000
,  // measure 49
0010
0100
1100
0010
,  // measure 50
1001
0010
1001
1001
,  // measure 51
1001
0000
0110
0110
,  // measure 52
0110
0000
1000
0000
0101
0101
0000
0000
,  // measure 53
1010
1010
0000
0000
1001
0010
0100
0010
,  // measure 54
1001
0000
0000
0000
,  // measure 55
0000
0000
0000
0000
1000
0010
0001
0000
,  // measure 56
0011
1100
1001
1001
,  // measure 57
0001
0010
0100
1000
0010
0000
1100
0000
,  // measure 58
0011
0000
1001
0000
1001
0000
0001
0010
,  // measure 59
0100
1000
0010
0000
1001
0000
0010
0001
,  // measure 60
0100
0000
1001
0000
1001
0000
0100
0001
,  // measure 61
0010
0001
0100
0000
0001
0100
1000
0000
,  // measure 62
0001
0100
0001
0000
1000
0010
0100
0001
,  // measure 63
0010
0100
1000
0000
1001
0000
0010
0100
,  // measure 64
0010
0000
1100
0000
0011
0000
0100
1000
,  // measure 65
0100
0010
0001
0000
1010
0000
0101
0000
,  // measure 66
0010
0001
0010
0100
1000
0010
0100
0000
,  // measure 67
0011
0000
1100
0000
1001
0000
0010
0001
,  // measure 68
0100
0001
0010
0100
1000
0000
1001
0000
,  // measure 69
0010
1000
0100
1000
0010
0000
0101
0101
,  // measure 70
0000
0000
1010
1010
0000
0000
1001
0010
,  // measure 71
0100
0010
1001
0000
0000
0000
0000
0000
;

//---------------dance-single - ----------------
#NOTES:
     dance-single:
     :
     Challenge:
     8:
     0.529,0.632,0.617,0.017,0.099: // measure 1
0000
0000
0000
0000
,  // measure 2
0000
0000
0000
0000
,  // measure 3
0000
0000
0000
0000
,  // measure 4
0000
0000
0000
0000
,  // measure 5
0000
0000
0000
0000
,  // measure 6
0000
0000
0000
0000
,  // measure 7
0000
0000
0000
0000
,  // measure 8
0000
0000
0100
0010
,  // measure 9
0100
0010
1001
0000
,  // measure 10
0000
0000
0000
0000
1000
0000
0100
0000
0001
0000
0000
0100
0000
0000
0010
0000
,  // measure 11
0100
0000
0000
0000
0101
0000
0000
0000
1000
0000
0000
0010
0000
0000
0100
0000
,  // measure 12
0010
0000
0000
0000
1000
0000
0100
0000
1001
0000
0000
0010
0000
0000
1000
0000
,  // measure 13
0001
0000
0000
0100
0000
0000
0010
0000
1000
0000
0100
0000
0001
0000
0100
0000
,  // measure 14
1000
0000
0000
0000
0001
0000
0010
0000
1001
0000
0000
0100
0000
0000
1000
0000
,  // measure 15
0010
0000
0000
0000
0101
0000
0000
0000
0001
0000
0000
0010
0000
0000
0001
0000
,  // measure 16
0100
0000
0000
0000
0001
0000
0100
0000
1000
0000
0000
0010
0000
0000
1000
0000
,  // measure 17
0001
0000
0000
0100
0000
0000
0010
0000
0100
0000
0010
0000
1000
0000
0010
0000
,  // measure 18
0001
0000
1000
0010
0001
0010
0100
0010
,  // measure 19
0001
0010
0100
0000
0010
0001
0010
0100
,  // measure 20
0010
0000
0001
0100
1000
0100
0010
0100
,  // measure 21
1000
0000
0100
0010
0100
1000
0100
0010
,  // measure 22
0001
0000
1000
0010
0001
0010
0100
0010
,  // measure 23
0001
0010
0100
0000
0010
0001
0010
0100
,  // measure 24
1000
0010
0100
0000
0011
1001
0000
0000
,  // measure 25
1100
1001
0000
0000
1001
0010
0100
0010
,  // measure 26
1001
0000
0000
0000
,  // measure 27
0000
0000
1001
0010
,  // measure 28
0101
0010
1001
0100
,  // measure 29
1010
0100
1001
0100
,  // measure 30
0010
0001
0010
1001
,  // measure 31
0100
0000
0010
0000
1001
0000
0010
0001
,  // measure 32
0100
0001
0010
0001
0010
0100
1000
0010
,  // measure 33
0100
0010
1000
0000
1000
0010
0100
0010
,  // measure 34
1000
0100
0010
0001
0100
0001
0010
0000
,  // measure 35
0100
0000
1000
0000
1001
0000
0010
0001
,  // measure 36
0100
0001
0010
0100
1000
0000
0011
0000
,  // measure 37
1100
0000
0011
0000
1001
0000
0100
1000
,  // measure 38
0010
1000
0100
0010
0001
0000
1100
0000
,  // measure 39
0011
0000
1100
0000
1001
0000
0100
0001
,  // measure 40
0010
0001
0100
0010
1000
0000
0011
0000
,  // measure 41
1100
0000
1001
0000
0010
0100
0010
1000
,  // measure 42
0100
1000
0010
0100
2002
0000
0000
0000
,  // measure 43
3003
0000
0000
0000
1000
0000
0100
0000
1001
0000
0000
1000
0000
0000
0010
0000
,  // measure 44
0100
0000
0000
0000
1001
0000
0000
0000
0010
0000
0000
0001
0000
0000
0100
0000
,  // measure 45
0010
0000
0000
0000
1000
0000
0010
0000
1001
0000
0000
1000
0000
0000
0010
0000
,  // measure 46
0100
0000
0000
0001
0000
0000
0100
0000
0110
0000
0000
0000
1010
0000
0000
0000
,  // measure 47
1001
0000
0000
0000
0010
0000
0100
0000
0101
0000
0000
0010
0000
0000
1000
0000
,  // measure 48
0100
0000
0000
0000
1000
0000
0000
0000
0011
0000
0000
0100
0000
0000
1000
0000
,  // measure 49
0010
0000
0100
0001
0011
0000
0100
0000
,  // measure 50
1100
0000
0010
0000
1001
0010
0100
0010
,  // measure 51
1001
0000
0100
0010
1001
0100
0010
0100
,  // measure 52
1001
0000
0100
1000
0110
0110
0001
0010
,  // measure 53
1001
0000
1001
0000
0100
0000
1000
0000
0110
0000
0110
0000
0001
1000
0001
0000
,  // measure 54
1001
0000
0000
0000
,  // measure 55
0000
0000
0000
0000
0000
0000
0000
0000
0001
0000
0100
0000
1001
0000
0000
0100
,  // measure 56
0000
0000
1000
0000
0010
0000
0000
0000
0101
0000
0000
0000
1001
0000
0000
0010
,  // measure 57
0000
0000
0001
0000
0100
0000
0000
0000
1000
0000
0010
0000
1001
0000
0000
0010
,  // measure 58
0000
0000
0001
0000
0100
0000
0000
0010
0000
0000
1000
0000
0010
0000
0001
0000
,  // measure 59
0010
0100
1000
0000
1001
0000
0100
1000
,  // measure 60
0010
0100
0010
1000
0100
0010
0001
0000
,  // measure 61
0010
0000
0001
0000
0100
0000
0001
0000
0010
0000
0001
0000
0100
0000
0000
0010
,  // measure 62
0000
0000
1000
0000
0010
0000
0000
0001
0000
0000
0010
0000
0100
0000
1000
0000
,  // measure 63
0100
0001
0100
0000
1010
0000
1001
0000
,  // measure 64
0100
0001
0010
0100
1000
0100
0001
0100
,  // measure 65
1000
0101
1010
1001
,  // measure 66
0100
1000
0100
0010
0001
0010
1000
0010
,  // measure 67
0001
1010
0101
1001
,  // measure 68
0010
0000
1000
0000
0100
0000
1000
0000
0100
0000
0010
0000
0101
0000
0000
0010
,  // measure 69
0000
0100
0001
1000
0100
0010
0101
1001
,  // measure 70
0000
0000
1010
1001
0000
0000
1001
0010
,  // measure 71
0100
0010
0100
0000
1001
0000
0000
0000
0000
0000
0000
0000
0000
0000
0000
0000
;

//---------------dance-single - ----------------
#NOTES:
     dance-single:
     :
     Medium:
     6:
     0.410,0.482,0.429,0.000,0.000: // measure 1
0000
0000
0000
0000
,  // measure 2
0000
0000
0000
0000
,  // measure 3
0000
0000
0000
0000
,  // measure 4
0000
0000
0000
0000
,  // measure 5
0000
0000
0000
0000
,  // measure 6
0000
0000
0000
0000
,  // measure 7
0000
0000
0000
0000
,  // measure 8
0000
0000
0000
0100
,  // measure 9
0000
0010
1001
0000
,  // measure 10
0000
0000
1000
0100
0001
0000
0100
0000
,  // measure 11
0010
0100
0001
0010
,  // measure 12
0100
0000
1001
0010
,  // measure 13
0100
0010
1000
0100
,  // measure 14
0010
0000
0000
0000
1001
0000
0100
0001
,  // measure 15
0010
0000
0100
0000
1000
0010
0100
0000
,  // measure 16
0001
0000
0010
0100
1000
0000
1010
0000
,  // measure 17
0001
0000
0101
0000
0010
1000
0100
0010
,  // measure 18
0001
0100
1001
0010
,  // measure 19
1000
0010
0001
0100
,  // measure 20
1000
0100
0001
0010
,  // measure 21
1000
0000
0100
0000
0001
0010
0100
1000
,  // measure 22
0010
0000
0100
0010
1000
0000
0100
0000
,  // measure 23
0010
0000
0001
0000
1001
0000
0010
0100
,  // measure 24
1000
0000
0100
0000
1001
1001
0000
0000
,  // measure 25
1001
1001
0000
0000
1000
0010
0100
0010
,  // measure 26
1001
0000
0000
0000
,  // measure 27
0000
0000
1001
0010
,  // measure 28
0100
1000
0100
0010
,  // measure 29
0001
1000
0100
0010
,  // measure 30
0001
0010
0100
1000
,  // measure 31
0001
1000
0110
0001
,  // measure 32
1000
0001
1000
0000
0010
0000
0100
0000
,  // measure 33
0001
1000
0001
0000
0100
0000
0010
0000
,  // measure 34
1000
0001
1000
0000
0010
0000
0100
0000
,  // measure 35
0001
0000
0010
0000
1001
0000
0010
0100
,  // measure 36
0001
0010
0100
1000
0010
0000
1000
0000
,  // measure 37
0100
0000
0010
0000
1001
0000
0100
0001
,  // measure 38
0010
0100
1000
0010
0100
0000
0001
0000
,  // measure 39
0010
0000
0100
0000
1001
0000
0100
1000
,  // measure 40
0100
0010
0001
0100
0010
0000
1000
0000
,  // measure 41
0100
0000
0010
0000
0001
0100
0001
0000
,  // measure 42
1000
0010
1000
0010
0100
0000
0000
0000
,  // measure 43
0000
0001
0110
1000
,  // measure 44
0100
0010
0001
0100
,  // measure 45
0001
0010
1001
0100
,  // measure 46
1000
0000
0010
0000
0001
0010
0100
1000
,  // measure 47
0010
1000
1001
0010
,  // measure 48
0100
0010
0011
1000
,  // measure 49
0010
0100
1100
0010
,  // measure 50
1001
0100
0011
1100
,  // measure 51
1001
0010
0101
1010
,  // measure 52
1001
0000
0010
0000
1100
1100
0000
0000
,  // measure 53
0011
0011
0000
0000
0110
0000
1000
0001
,  // measure 54
1001
0000
0000
0000
,  // measure 55
0000
0000
0000
0000
0001
0100
1000
0000
,  // measure 56
0100
0010
0001
1000
,  // measure 57
0001
0010
0100
1000
0010
0000
1000
0000
,  // measure 58
0100
0010
0001
1000
,  // measure 59
0100
1000
0001
0000
1001
0000
0100
1000
,  // measure 60
0010
0000
1000
0100
0010
0001
0010
0000
,  // measure 61
0001
0000
1000
0000
0010
0100
0001
0000
,  // measure 62
1000
0010
0100
0000
0001
0100
0010
1000
,  // measure 63
0100
0010
0001
0000
1001
0000
0100
0010
,  // measure 64
0100
0001
0010
0100
1000
0000
0100
0000
,  // measure 65
1010
0101
1001
1001
,  // measure 66
0010
0100
0010
1000
0100
0010
0001
0000
,  // measure 67
0100
1010
0101
1001
,  // measure 68
0100
0000
0010
0100
0010
0000
1001
0000
,  // measure 69
0010
0000
0100
0010
0100
0000
1010
1010
,  // measure 70
0000
0000
0101
0101
0000
0000
1000
0000
,  // measure 71
0001
1000
1001
0000
0000
0000
0000
0000
;

//---------------dance-single - ----------------
#NOTES:
     dance-single:
     :
     Beginner:
     2:
     0.093,0.211,0.094,0.000,0.000: // measure 1
0000
0000
0000
0000
,  // measure 2
0000
0000
0000
0000
,  // measure 3
0000
0000
0000
0000
,  // measure 4
0000
0000
0000
0000
,  // measure 5
0000
0000
0000
0000
,  // measure 6
0000
0000
0000
0000
,  // measure 7
0000
0000
0000
0000
,  // measure 8
0000
0000
0000
0000
,  // measure 9
0000
0000
1001
0000
,  // measure 10
0000
0000
1000
0000
,  // measure 11
0000
0000
0001
0000
,  // measure 12
0000
0000
1000
0000
,  // measure 13
0000
0000
0001
0000
,  // measure 14
0000
0000
0100
0000
,  // measure 15
0000
0000
0010
0000
,  // measure 16
0000
0000
0100
0000
,  // measure 17
0000
0000
0010
0000
,  // measure 18
0000
0000
1000
0000
,  // measure 19
0000
0000
0001
0000
,  // measure 20
0000
0000
1000
0000
,  // measure 21
0000
0000
0001
0000
,  // measure 22
0000
0000
1000
0000
,  // measure 23
0000
0000
0100
0000
,  // measure 24
0000
0000
1000
0000
,  // measure 25
0001
0000
0010
0000
,  // measure 26
0000
0000
0000
0000
,  // measure 27
0000
0000
1001
0000
,  // measure 28
0000
0000
0000
0000
,  // measure 29
0000
0000
1000
0000
,  // measure 30
0000
0000
0000
0000
,  // measure 31
0000
0000
0001
0000
,  // measure 32
0000
0000
0000
0000
,  // measure 33
0000
0000
0100
0000
,  // measure 34
0000
0000
0010
0000
,  // measure 35
0000
0000
1001
0000
,  // measure 36
0000
0000
0000
0000
,  // measure 37
0000
0000
1001
0000
,  // measure 38
0000
0000
0000
0000
,  // measure 39
0000
0000
1001
0000
,  // measure 40
0000
0000
0000
0000
,  // measure 41
0000
0000
0100
0000
,  // measure 42
0000
0000
1001
0000
,  // measure 43
0000
0000
0010
0000
,  // measure 44
0000
0000
0010
0000
,  // measure 45
0000
0000
0010
0000
,  // measure 46
0000
0000
0100
0000
,  // measure 47
0000
0000
0100
0000
,  // measure 48
0000
0000
0100
0000
,  // measure 49
0000
0000
0001
0000
,  // measure 50
1000
0000
0001
0000
,  // measure 51
0000
0000
1001
0000
,  // measure 52
0000
0000
1000
0000
,  // measure 53
0001
0000
1000
0000
,  // measure 54
0000
0000
0000
0000
,  // measure 55
0000
0000
0000
0010
,  // measure 56
0000
0000
0000
0100
,  // measure 57
0000
0000
0000
0010
,  // measure 58
0000
0000
0000
1000
,  // measure 59
0000
0000
0000
0001
,  // measure 60
0000
0000
1000
0000
,  // measure 61
0001
0000
1000
0000
,  // measure 62
0010
0000
0100
0000
,  // measure 63
0000
0000
0000
0000
,  // measure 64
0010
0000
0100
0000
,  // measure 65
0010
0000
1000
0000
,  // measure 66
0001
0000
1000
0000
,  // measure 67
0001
0000
0000
0000
,  // measure 68
1000
0000
0100
0000
,  // measure 69
1000
0000
0000
1001
,  // measure 70
0000
0110
0000
1001
,  // measure 71
0000
1001
0000
0000
;
