#TITLE:DUE YESTERDAY;
#SUBTITLE:;
#ARTIST:Remixed by Spelunker;
#TITLETRANSLIT:;
#SUBTITLETRANSLIT:;
#ARTISTTRANSLIT:;
#CREDIT:DMAxel;
#BANNER:DUE YESTERDAY.png;
#BACKGROUND:DUE YESTERDAY-bg.png;
#LYRICSPATH:;
#CDTITLE:BEMANI game remix.png;
#MUSIC:DUE YESTERDAY.mp3;
#OFFSET:-0.060;
#SAMPLESTART:25.660;
#SAMPLELENGTH:12.000;
#SELECTABLE:YES;
#DISPLAYBPM:300.000;
#BPMS:0.000=150.000,60.000=75.000,60.750=150.000,62.000=225.000,63.500=300.000,448.000=150.000;
#STOPS:;
#BGCHANGES:;

//---------------dance-single - ----------------
#NOTES:
     dance-single:
     :
     Easy:
     5:
     0.376,0.521,0.258,0.018,0.000:
0000
0000
0000
0000
,
0000
0000
0000
0000
,
0000
0000
0000
0000
,
0000
0000
0000
0000
,
1000
0000
1000
0000
,
0001
0000
0001
0000
,
1000
0000
1000
0000
,
0001
0000
0001
0000
,
0100
0000
0010
0000
,
0100
0000
0001
0000
,
1000
0000
0010
0000
,
0100
0000
0010
0000
,
1000
0000
0100
0000
,
1000
0000
0001
0000
,
0010
0000
0001
1000
,
0000
0000
0000
0000
,
1001
0000
1000
0000
,
0001
0000
0001
0000
,
1000
0000
1000
0000
,
0001
0000
0001
0000
,
1000
0000
1000
0000
,
0001
0000
0001
0000
,
1000
0000
0100
0000
,
0010
0000
0001
0000
,
0100
0000
0100
0000
,
0010
0000
0010
0000
,
0100
0000
0100
0000
,
0010
0000
0010
0000
,
0100
0000
0100
0000
,
0010
0000
0010
0000
,
1000
0000
0010
0000
,
0100
0000
0001
0000
,
1000
0000
1000
0000
,
0010
0000
0010
0000
,
1000
0000
1000
0000
,
0001
0000
0001
0000
,
0100
0000
0100
0000
,
0001
0000
0001
0000
,
1000
0000
0010
0000
,
0100
0000
0001
0000
,
1000
0000
0001
0000
,
1000
0000
0001
0000
,
0100
0000
0010
0000
,
0100
0000
0010
0000
,
1000
0000
0010
0000
,
1000
0000
0001
0000
,
0100
0000
0001
0000
,
0010
0000
0100
0000
,
1000
0000
0001
0000
,
1000
0000
0010
0000
,
1000
0000
0100
0000
,
1000
0000
0010
0000
,
0100
0000
0010
0000
,
0100
0000
0001
0000
,
0100
0000
0001
0000
,
0010
0000
0001
0000
,
1001
0000
0010
0000
,
1001
0000
0100
0000
,
1001
0000
0010
0000
,
0110
0000
0010
0000
,
1001
0000
0100
0000
,
1001
0000
0010
0000
,
1001
0000
0100
0000
,
0110
0000
0100
0000
,
1001
0000
0010
0000
,
1001
0000
0100
0000
,
1001
0000
0010
0000
,
0110
0000
0010
0000
,
1001
0000
0100
0000
,
1001
0000
0010
0000
,
1001
0000
0100
0000
,
0110
0000
0100
0000
,
1001
0000
1000
0000
,
0110
0000
0001
0000
,
0110
0000
1000
0000
,
0110
0000
0001
0000
,
1001
0000
0001
0000
,
0110
0000
1000
0000
,
0110
0000
0110
0000
,
0110
0000
1001
0000
,
0001
1000
0001
0000
,
1000
0001
1000
0000
,
0001
1000
0001
0000
,
1000
0001
1000
0000
,
0010
0100
0010
0000
,
1000
0010
1000
0000
,
0010
0100
0010
0000
,
1000
0010
1000
0000
,
0001
0100
0001
0000
,
0100
0010
0100
0000
,
0001
0100
0001
0000
,
0100
0010
0100
0000
,
0001
0010
0001
0000
,
1000
0100
1000
0000
,
0001
0010
0001
1000
,
0010
0100
0010
0000
,
1000
0010
1000
0000
,
0010
0100
0010
0000
,
1000
0010
1000
0000
,
0001
0010
0001
0000
,
0100
0010
0100
0010
,
1000
0100
1000
0000
,
0010
0100
0010
0100
,
0001
0010
0001
0000
,
0010
0001
0010
0001
,
0100
0010
0100
0000
,
0010
1000
0010
1000
,
0010
0100
0010
0000
,
1000
0100
1000
0010
,
1000
0100
1000
0000
,
0001
0010
0001
0100
,
0001
0010
1000
0010
,
2002
0000
0000
0000
,
3003
0000
0000
0000
;

//---------------dance-single - ----------------
#NOTES:
     dance-single:
     :
     Medium:
     7:
     0.491,0.468,0.332,0.018,0.000:
0000
0000
0000
0000
,
0000
0000
0000
0000
,
0000
0000
0000
0000
,
0000
0000
0000
0000
,
1000
1000
0010
0010
,
1000
1000
0010
0010
,
0100
0100
0001
0001
,
0100
0100
0001
0001
,
1000
1000
0100
0100
,
0010
0010
0001
0001
,
1000
1000
0100
0100
,
0010
0010
0001
0001
,
0100
0010
0100
0010
,
0100
0001
1000
0001
,
1000
0000
0100
0000
0010
0100
0010
0000
,
0000
0000
0000
0000
,
0001
1000
0001
0000
,
0001
1000
0001
0000
,
1000
0001
1000
0000
,
1000
0001
1000
0000
,
0001
0100
0001
0000
,
0001
0100
0001
0000
,
1000
0010
1000
0000
,
1000
0010
1000
0000
,
0001
0010
0001
0000
,
0001
0010
0001
0000
,
1000
0100
1000
0000
,
1000
0100
1000
0000
,
0010
1000
0010
0000
,
0010
0100
0010
0000
,
0100
0001
0100
0000
,
0100
0010
0100
0000
,
0001
0100
0010
0000
,
1000
0010
0100
0000
,
0001
0100
0010
0000
,
1000
0010
0100
0000
,
0001
1000
0001
1000
,
0010
0100
0001
0000
,
0001
1000
0001
1000
,
0010
0100
0001
0000
,
1000
0001
1000
0001
,
0100
0010
1000
0000
,
1000
0001
1000
0001
,
0100
0010
1000
0000
,
0001
0010
0100
1000
,
0001
1000
0001
0000
,
0001
0010
0100
1000
,
0001
0100
0001
0000
,
1001
0000
1010
0000
,
1000
0001
1000
0000
,
1001
0000
0101
0000
,
0001
1000
0001
0000
,
1001
0000
1010
0000
,
1000
0001
1000
0000
,
1001
0000
0101
0000
,
0001
1000
0001
0000
,
1001
0000
1100
0000
,
1001
0000
0010
0000
,
1001
0000
0011
0000
,
1001
0000
0100
0000
,
1001
0000
1100
0000
,
1001
0000
0010
0000
,
1001
0000
0011
0000
,
1001
0000
0100
0000
,
1001
0000
0101
0000
,
0100
0001
1000
0000
,
1001
0000
1010
0000
,
0010
1000
0001
0000
,
1001
0000
0101
0000
,
0100
0001
1000
0000
,
1001
0000
1010
0000
,
0010
1000
0001
0000
,
1001
0000
0011
0000
,
0010
0001
1000
0000
,
1001
0000
1100
0000
,
0100
1000
0001
0000
,
1001
0000
0011
0000
,
0010
0001
1000
0000
,
0010
0100
0010
0100
,
0010
0000
1001
0000
,
1000
0010
0100
0001
,
0100
1000
0001
0000
,
1000
0010
0100
0001
,
0100
1000
0001
0000
,
1000
0010
0100
0001
,
0100
1000
0001
0000
,
1000
0010
0100
0001
,
1000
0100
1000
0000
,
0001
0100
0010
1000
,
0100
0001
1000
0000
,
0001
0100
0010
1000
,
0100
0001
1000
0000
,
0001
0100
0010
1000
,
0100
0001
1000
0000
,
0010
0000
0000
0010
0000
0000
1000
0000
,
0001
0000
0000
0100
0000
0000
0100
0000
,
0010
1000
0010
0100
,
0001
0010
0100
0000
,
1000
0010
0100
0001
,
0010
0001
1000
0000
,
0001
0100
0010
1000
,
0100
1000
0001
0000
,
1000
0100
0010
0001
,
0100
0001
1000
0000
,
0001
0010
0100
1000
,
0010
1000
0001
0000
,
0010
0100
1000
0001
,
0100
0010
1000
0000
,
0100
0010
0001
1000
,
0010
0100
0001
0000
,
0100
0000
0000
0100
0000
0000
0001
0000
,
1000
0000
0000
0010
0000
0000
0010
0000
,
2002
0000
0000
0000
,
3003
0000
0000
0000
;

//---------------dance-single - ----------------
#NOTES:
     dance-single:
     :
     Hard:
     10:
     0.767,0.781,0.304,0.018,0.005:
0000
0000
0000
0000
,
0000
0000
0000
0000
,
0000
0000
0000
0000
,
0000
0000
0000
0000
,
1000
0001
1000
0000
1000
0010
1000
0000
,
0001
1000
0001
0000
0001
0100
0001
0000
,
0100
0010
0100
0000
0010
0100
0010
0000
,
1000
0100
1000
0100
1000
0100
1000
0000
,
0001
0100
0010
1000
0001
0010
0100
0000
,
1000
0010
0100
0001
1000
0100
0010
0000
,
0001
0100
0010
1000
0001
0010
0100
0000
,
1000
0010
0100
0001
1000
0100
0010
0000
,
0001
0010
0100
1000
0001
0100
0010
0000
,
1000
0100
0010
0001
1000
0010
0100
0000
,
0001
0000
0100
0000
0010
0000
1000
0000
0001
0000
0100
0000
0010
0100
0010
0000
,
0000
0000
0000
0000
,
0001
0100
0001
0000
0100
0001
0100
0000
,
0001
0000
1001
0000
,
1000
0010
1000
0000
0010
1000
0010
0000
,
1000
0000
1001
0000
,
0001
0100
0001
0000
0100
0001
0100
0000
,
0001
0000
1001
0000
,
1000
0010
1000
0000
0010
1000
0010
0000
,
1000
0000
1001
0000
,
0001
0010
0001
0000
1000
0100
1000
0000
,
0001
0100
0010
0000
,
1000
0100
1000
0000
0001
0010
0001
0000
,
1000
0010
0100
0001
,
1000
0100
1000
0000
0100
1000
0100
0000
,
1000
0010
0100
0001
,
0010
0001
0010
0000
0001
0010
0001
0000
,
1000
0010
0100
0000
,
0001
0100
0001
0000
1000
0000
0010
0000
,
0100
0001
0100
1000
,
0001
0100
0001
0000
1000
0000
0010
0000
,
0100
0001
0100
1000
,
0010
1000
0010
0000
1000
0000
0010
0000
,
0100
0001
0100
1000
,
0010
1000
0010
0000
1000
0000
0010
0000
,
0100
0001
0100
1000
,
0010
0100
0010
0000
1000
0000
0100
0000
,
0010
0001
0010
0000
0001
1000
0000
0000
,
0010
0100
0010
0000
1000
0000
0100
0000
,
0010
0001
0010
0000
0001
1000
0000
0000
,
0100
0010
0100
0000
1000
0000
0001
0000
,
1000
0100
1000
0000
0001
1000
0000
0000
,
0100
0010
0100
0000
1000
0001
1000
0000
,
0010
0100
0000
0001
0000
1000
0001
0000
,
1001
0000
0000
1000
0010
0000
0100
0000
,
0110
0000
0000
0010
1000
0000
0001
0000
,
1001
0000
0000
0001
0100
0000
0010
0000
,
0110
0000
0000
0010
1000
0000
0001
0000
,
1001
0000
0000
0001
0100
0000
0010
0000
,
0110
0000
0000
0010
1000
0000
0001
0000
,
1001
0000
0000
1000
0010
0000
0100
0000
,
0110
0000
0000
0100
0001
0000
1000
0000
,
1001
0000
0000
0100
1000
0000
0001
0000
,
1001
0000
0000
0010
0001
0000
1000
0000
,
1001
0000
0000
0100
1000
0000
0001
0000
,
1001
0000
0000
0010
0001
0000
1000
0000
,
1001
0000
0000
0001
0100
0000
0100
0000
,
0110
0000
0000
1000
0010
0000
0010
0000
,
0110
0000
0000
0001
0100
0000
0100
0000
,
0110
0000
0000
1000
0010
0000
0010
0000
,
1000
0010
1000
0000
0010
0100
0010
0000
,
0100
0001
0100
1000
,
0001
0100
0001
0000
0100
0010
0100
0000
,
0010
1000
0100
0001
,
1000
0010
1000
0000
0010
0100
0010
0000
,
0100
0001
0100
1000
,
0001
0010
0001
0000
0100
0010
1000
0000
,
0010
1000
0100
0001
,
1000
0100
1000
0000
0010
0100
0001
0000
,
0100
0001
0010
1000
,
0001
0100
0001
0000
0010
0100
1000
0000
,
0010
1000
0100
0001
,
1000
0010
1000
0000
0100
0010
0001
0000
,
0100
0001
0010
1000
,
0010
0100
0010
0000
1000
0100
1000
0000
,
0001
0100
0010
1000
0001
1000
0001
1000
,
0001
0010
0001
0000
0100
0010
1000
0000
,
0100
0000
1000
0100
0010
0000
0001
0000
,
1000
0100
1000
0000
0010
0100
0001
0000
,
0010
0000
0001
0010
0100
0000
1000
0000
,
0001
0010
0001
0000
0100
0010
1000
0000
,
0100
0000
1000
0100
0010
0000
0001
0000
,
1000
0010
0100
0000
0001
0100
0010
0000
,
1000
0000
0001
0010
0100
0000
1000
0000
,
0001
0100
0010
0000
1000
0010
0100
0000
,
0001
0000
1000
0100
0010
0000
0001
0000
,
1000
0010
1000
0000
0001
0010
0100
0000
,
1000
0000
0010
0100
0001
0000
1000
0000
,
0001
0100
0001
0000
1000
0100
0010
0000
,
0001
0000
0100
0010
1000
0000
0001
0000
,
0011
0000
0000
0011
0000
0000
0011
0000
,
1010
0000
0000
1010
0000
0000
1010
0000
,
0010
0100
0010
0000
1000
0010
1000
0001
,
0010
0100
1000
0000
0010
0000
0010
0000
,
0100
0010
0100
0000
0001
0100
0001
1000
,
0100
0010
0001
0000
0100
0000
0100
0000
,
0010
0100
0010
0000
1000
0100
1000
0001
,
0100
0010
1000
0000
0010
0000
0010
0000
,
0100
0010
0100
0000
0001
0010
0001
1000
,
0010
0100
0001
0000
0100
0000
0100
0000
,
0010
1000
0010
0000
0100
0001
0100
0010
,
1000
0100
0010
0000
0001
1000
0001
0000
,
0100
0001
0100
0000
0010
1000
0010
0100
,
0001
0010
0100
0000
1000
0001
1000
0000
,
0100
1000
0100
0000
0010
0001
0010
0100
,
1000
0001
0100
0000
0001
1000
0001
0000
,
0101
0000
0000
0101
0000
0000
0101
0000
,
1100
0000
0000
1100
0000
0000
1100
0000
,
2002
0000
0000
0000
,
3003
0000
0000
0000
;

//---------------dance-single - ----------------
#NOTES:
     dance-single:
     :
     Challenge:
     10:
     0.869,0.885,0.166,0.018,0.032: // measure 1
0000
0000
0000
0000
,  // measure 2
0000
0000
0000
0000
,  // measure 3
0000
0000
0000
0000
,  // measure 4
0000
0000
0000
0000
,  // measure 5
0100
0000
0000
0001
0000
0000
1000
0000
0000
0010
0000
0000
1000
0000
0001
0000
,  // measure 6
0010
0000
0000
1000
0000
0000
0001
0000
0000
0100
0000
0000
0001
0000
1000
0000
,  // measure 7
0100
0000
0000
0001
0000
0000
1000
0000
0000
0010
0000
0000
1000
0000
0001
0000
,  // measure 8
0010
1000
0010
1000
0010
1000
0001
0001
,  // measure 9
0001
0100
0010
1000
0001
0010
0100
1000
,  // measure 10
0001
0100
0010
1000
0001
0010
0100
1000
,  // measure 11
0100
0001
0100
1000
0001
0010
0100
1000
,  // measure 12
0100
0001
0100
1000
0100
0010
0001
1000
,  // measure 13
0010
0001
0010
1000
0001
0100
0010
1000
,  // measure 14
0010
0001
0100
0010
1000
0100
0001
0010
,  // measure 15
1000
0000
0100
0000
0010
0000
0001
0000
1000
0000
0001
0000
0100
0010
1000
0000
,  // measure 16
0000
0000
0000
0000
,  // measure 17
0010
0100
0010
0000
0010
1000
0010
0000
,  // measure 18
1000
0001
1000
0001
1000
0000
0000
0000
,  // measure 19
0010
0100
0010
0000
0010
1000
0010
0000
,  // measure 20
1000
0001
1000
0001
1000
0000
0000
0000
,  // measure 21
0010
1000
0010
0000
0010
0001
0010
0000
,  // measure 22
0001
1000
0001
1000
0001
0000
0000
0000
,  // measure 23
0100
0001
0100
0000
0100
0010
0100
0000
,  // measure 24
0001
1000
0001
1000
0001
0000
0000
0000
,  // measure 25
0010
0001
0010
0000
0010
1000
0010
0000
,  // measure 26
1000
0100
1000
0001
1000
0000
0000
0000
,  // measure 27
0100
1000
0100
0000
0100
0001
0100
0000
,  // measure 28
0001
0010
0001
1000
0001
0000
1000
0000
,  // measure 29
0010
0100
0010
0000
0010
1000
0010
0000
,  // measure 30
0100
0001
0100
0010
1000
0000
0001
0000
,  // measure 31
0100
0010
0100
0000
0100
0001
0100
0000
,  // measure 32
0010
1000
0010
0100
0001
0000
0001
0000
,  // measure 33
1000
0010
1000
0000
0001
0000
0001
0000
,  // measure 34
1000
0100
1000
0000
0001
0000
0001
0000
,  // measure 35
1000
0010
1000
0000
0001
0000
0001
0000
,  // measure 36
0010
0100
0010
0000
1000
0000
1000
0000
,  // measure 37
0001
0100
0001
0000
1000
0000
1000
0000
,  // measure 38
0001
0010
0001
0000
1000
0000
1000
0000
,  // measure 39
0100
0010
0100
0000
1000
0000
0001
0000
,  // measure 40
0100
0001
0100
0010
1000
0001
1000
0000
,  // measure 41
0010
1000
0010
0000
1000
0000
0001
0000
,  // measure 42
0100
0001
0100
0000
0001
0000
1000
0000
,  // measure 43
0100
1000
0100
0000
1000
0000
0001
0000
,  // measure 44
0010
0001
0010
0000
0001
0000
1000
0000
,  // measure 45
0010
0100
0010
0000
1000
0100
1000
0000
,  // measure 46
0010
0100
0010
1000
0001
1000
0000
0000
,  // measure 47
0010
0100
0010
1000
0001
0100
0001
0000
,  // measure 48
0100
0010
0100
0001
1000
0100
1000
0000
,  // measure 49
0001
1000
0001
0010
0100
0000
1000
0000
,  // measure 50
0010
0100
0000
0100
0001
0000
1000
0010
,  // measure 51
1000
0001
1000
0100
0010
0000
0001
0000
,  // measure 52
0100
0010
0000
0010
1000
0000
0001
0100
,  // measure 53
0001
1000
0001
0010
0100
0000
1000
0000
,  // measure 54
0010
0100
0000
0100
0001
0000
1100
0000
,  // measure 55
1000
0001
1000
0010
0100
0000
0001
0000
,  // measure 56
0100
0010
0000
0010
1000
0000
0011
0000
,  // measure 57
0001
1000
0001
0100
0010
0000
1000
0000
,  // measure 58
0010
0100
0000
0100
0001
0000
1100
0000
,  // measure 59
1000
0001
1000
0010
0100
0000
0001
0000
,  // measure 60
0100
0010
0000
0010
1000
0000
0011
0000
,  // measure 61
0001
1000
0001
0100
0010
0000
1000
0000
,  // measure 62
0010
0100
0000
0100
0001
0000
1001
0000
,  // measure 63
0010
1000
0100
1000
0010
0000
1000
0000
,  // measure 64
0001
0100
0000
0100
0010
0000
1001
0000
,  // measure 65
0100
0001
0010
0001
0100
0000
0001
0000
,  // measure 66
1000
0010
0000
0010
0100
0000
1001
0000
,  // measure 67
0100
1000
0010
1000
0100
0000
1000
0000
,  // measure 68
0001
0100
0000
0100
0010
0000
1001
0000
,  // measure 69
0010
0001
0100
0001
0010
0000
0001
0000
,  // measure 70
1000
0010
0000
0010
0100
0000
1001
0000
,  // measure 71
0010
0001
0100
0001
0010
0000
0001
0000
,  // measure 72
1000
0010
0000
0010
0100
0000
1001
0000
,  // measure 73
0010
0100
0010
1000
0100
1000
0100
0000
,  // measure 74
1000
0100
0000
0100
0010
0000
1001
0000
,  // measure 75
0100
0010
0100
0001
0010
0001
0010
0000
,  // measure 76
0001
0010
0000
0010
0100
0000
1001
0000
,  // measure 77
0010
1000
0010
1000
0100
1000
0100
0000
,  // measure 78
1000
0100
0000
0100
0010
0000
1001
0000
,  // measure 79
0100
0001
0100
0001
0010
0001
0010
0001
,  // measure 80
0100
0010
1000
0100
0010
0100
1000
0001
,  // measure 81
1000
0000
1000
0010
0100
0000
0100
0000
,  // measure 82
0001
0000
0100
0010
0100
0001
1000
0000
,  // measure 83
0001
0000
0001
0100
0010
0000
0010
0000
,  // measure 84
1000
0000
0010
0100
0010
1000
0001
0000
,  // measure 85
1000
0000
1000
0010
0100
0000
0100
0000
,  // measure 86
0001
0000
1000
0010
0100
0001
1000
0000
,  // measure 87
0001
0000
0001
0100
0010
0000
0010
0000
,  // measure 88
1000
0000
0001
0100
0010
1000
0001
0000
,  // measure 89
1000
0000
1000
0001
0010
0000
0010
0001
,  // measure 90
1000
0000
0001
0100
0010
1000
0001
0000
,  // measure 91
1000
0000
1000
0001
0100
0000
0100
0001
,  // measure 92
1000
0000
0100
0010
0001
1000
0001
0000
,  // measure 93
1000
0000
0001
1000
0010
0000
0010
1000
,  // measure 94
0001
0000
0010
0100
1000
0001
0010
0000
,  // measure 95
0100
1000
0000
1000
0010
0000
1100
0000
,  // measure 96
0100
0001
0000
0001
0010
0000
1001
0000
,  // measure 97
1000
0000
0001
0100
0010
0000
0010
0100
,  // measure 98
0001
1000
0100
0010
0001
1000
0001
0000
,  // measure 99
0001
0000
1000
0010
0100
0000
0100
0001
,  // measure 100
1000
0100
0010
0001
1000
0001
1000
0000
,  // measure 101
1000
0000
0001
0100
0010
0000
0010
1000
,  // measure 102
0001
0010
0100
1000
0001
0010
0001
0000
,  // measure 103
0001
0000
1000
0010
0100
0000
0100
0001
,  // measure 104
1000
0100
0010
0001
1000
0100
1000
0000
,  // measure 105
1000
0000
0001
0100
0010
0000
0010
1000
,  // measure 106
0010
0100
0001
0010
0100
1000
0001
0000
,  // measure 107
0001
0000
1000
0010
0100
0000
0100
0001
,  // measure 108
0100
0010
1000
0100
0010
0001
1000
0000
,  // measure 109
1000
0000
0010
0100
0001
0000
0001
0010
,  // measure 110
0001
1000
0010
0100
0001
1000
0001
0000
,  // measure 111
0100
0001
0000
0001
0010
0000
1010
0000
,  // measure 112
0010
1000
0000
1000
0100
0000
0110
0000
,  // measure 113
2002
0000
0000
0000
,  // measure 114
3003
0000
0000
0000
;

//---------------dance-single - ----------------
#NOTES:
     dance-single:
     :
     Beginner:
     3:
     0.200,0.310,0.018,0.000,0.000:
0000
0000
0000
0000
,
0000
0000
0000
0000
,
0000
0000
0000
0000
,
0000
0000
0000
0000
,
1000
0000
0000
0000
,
0001
0000
0000
0000
,
1000
0000
0000
0000
,
0001
0000
0000
0000
,
0001
0000
0000
0000
,
0001
0000
0000
0000
,
1000
0000
0000
0000
,
1000
0000
0000
0000
,
1000
0000
0000
0000
,
0001
0000
0000
0000
,
1000
0000
0000
0000
,
0000
0000
0000
0000
,
0001
0000
0000
0000
,
0001
0000
0000
0000
,
1000
0000
0000
0000
,
1000
0000
0000
0000
,
0001
0000
0000
0000
,
0001
0000
0000
0000
,
1000
0000
0000
0000
,
1000
0000
0000
0000
,
0010
0000
0000
0000
,
0010
0000
0000
0000
,
0100
0000
0000
0000
,
0100
0000
0000
0000
,
0010
0000
0000
0000
,
0010
0000
0000
0000
,
0100
0000
0000
0000
,
0010
0000
0000
0000
,
1000
0000
1000
0000
,
1000
0000
0000
0000
,
0001
0000
0001
0000
,
0001
0000
0000
0000
,
1000
0000
1000
0000
,
1000
0000
0000
0000
,
0001
0000
0001
0000
,
0001
0000
0000
0000
,
1000
0000
0001
0000
,
1000
0000
0000
0000
,
0001
0000
1000
0000
,
0001
0000
0000
0000
,
0100
0000
0010
0000
,
0100
0000
0000
0000
,
0010
0000
0010
0000
,
0010
0000
0010
0000
,
0100
0000
0010
0000
,
0100
0000
0000
0000
,
0001
0000
1000
0000
,
0001
0000
0000
0000
,
1000
0000
0001
0000
,
1000
0000
0000
0000
,
0001
0000
1000
0000
,
0001
0000
0000
0000
,
0100
0000
0010
0000
,
0100
0000
0000
0000
,
0001
0000
0010
0000
,
0001
0000
0000
0000
,
1000
0000
0001
0000
,
1000
0000
0000
0000
,
0010
0000
0100
0000
,
0010
0000
0000
0000
,
1000
0000
0100
0000
,
1000
0000
0000
0000
,
0010
0000
0100
0000
,
0010
0000
0000
0000
,
1000
0000
0001
0000
,
1000
0000
0000
0000
,
0001
0000
0100
0000
,
0001
0000
0000
0000
,
1000
0000
0100
0000
,
1000
0000
0000
0000
,
0010
0000
0100
0000
,
0010
0000
0000
0000
,
1000
0000
0010
0000
,
1000
0000
0000
0000
,
0001
0000
0001
0000
,
0001
0000
0001
0000
,
1001
0000
0000
0000
,
0001
0000
0000
0000
,
1000
0000
0000
0000
,
0100
0000
0000
0000
,
1000
0000
0010
0000
,
1000
0000
0010
0000
,
1000
0000
0001
0000
,
1000
0000
0000
0000
,
0001
0000
0000
0000
,
0010
0000
0000
0000
,
0001
0000
0000
0000
,
1000
0000
0000
0000
,
0001
0000
0100
0000
,
0001
0000
0100
0000
,
0010
0000
1000
0000
,
0010
0000
1000
0000
,
0001
0000
0100
0000
,
0001
0000
0000
0000
,
1000
0000
0010
0000
,
1000
0000
0000
0000
,
0001
0000
1000
0000
,
0001
0000
0000
0000
,
0100
0000
0010
0000
,
0100
0000
0000
0000
,
0010
0000
0100
0000
,
0010
0000
0000
0000
,
1000
0000
0001
0000
,
1000
0000
0000
0000
,
0001
0000
0010
0000
,
0001
0000
0000
0000
,
0100
0000
0100
0000
,
0100
0000
0100
0000
,
1001
0000
0000
0000
;

//---------------dance-double - ----------------
#NOTES:
     dance-double:
     :
     Easy:
     5:
     0.362,0.521,0.074,0.018,0.000:
00000000
00000000
00000000
00000000
,
00000000
00000000
00000000
00000000
,
00000000
00000000
00000000
00000000
,
00000000
00000000
00000000
00000000
,
00000001
00000000
00000001
00000000
,
00000010
00000000
00000010
00000000
,
00000100
00000000
00000100
00000000
,
00001000
00000000
00001000
00000000
,
00010000
00000000
00100000
00000000
,
01000000
00000000
10000000
00000000
,
00100000
00000000
01000000
00000000
,
00010000
00000000
00001000
00000000
,
00000010
00000000
00000100
00000000
,
00000001
00000000
00000010
00000000
,
00000100
00000000
00001000
00010000
,
00000000
00000000
00000000
00000000
,
10010000
00000000
10000000
00000000
,
10000000
00000000
10000000
00000000
,
00100000
00000000
00100000
00000000
,
00100000
00000000
00100000
00000000
,
01000000
00000000
01000000
00000000
,
01000000
00000000
01000000
00000000
,
00010000
00000000
00010000
00000000
,
00010000
00000000
00010000
00000000
,
00001000
00000000
00001000
00000000
,
00001000
00000000
00001000
00000000
,
00010000
00000000
00010000
00000000
,
00010000
00000000
00010000
00000000
,
00001000
00000000
00001000
00000000
,
00001000
00000000
00001000
00000000
,
00000100
00000000
00000100
00000000
,
00000100
00000000
00000100
00000000
,
00000010
00000000
00000001
00000000
,
00000010
00000000
00000001
00000000
,
00000010
00000000
00000001
00000000
,
00000010
00000000
00000001
00000000
,
00001000
00000000
00000001
00000000
,
00001000
00000000
00000001
00000000
,
00001000
00000000
00000001
00000000
,
00001000
00000000
00010000
00000000
,
00001000
00000000
00010000
00000000
,
00001000
00000000
00010000
00000000
,
00100000
00000000
00010000
00000000
,
00100000
00000000
00010000
00000000
,
10000000
00000000
00010000
00000000
,
10000000
00000000
00010000
00000000
,
10000000
00000000
00100000
00000000
,
10000000
00000000
00100000
00000000
,
10000000
00000000
00010000
00000000
,
10000000
00000000
00010000
00000000
,
00100000
00000000
00010000
00000000
,
00100000
00000000
00010000
00000000
,
00001000
00000000
00010000
00000000
,
00001000
00000000
00010000
00000000
,
00001000
00000000
00010000
00000000
,
00000100
00000000
00001000
00000000
,
00000100
00000000
00001000
00000000
,
00000010
00000000
00001000
00000000
,
00000100
00000000
00001000
00000000
,
00000001
00000000
00000010
00000000
,
00001001
00000000
00000010
00000000
,
00000001
00000000
00000010
00000000
,
00000001
00000000
00001000
00000000
,
00000100
00000000
00000010
00000000
,
00001001
00000000
00000010
00000000
,
00001000
00000000
00000010
00000000
,
00001000
00000000
00010000
00000000
,
00001000
00000000
00010000
00000000
,
00001000
00000000
00010000
00000000
,
00001000
00000000
00010000
00000000
,
00100000
00000000
00010000
00000000
,
00100000
00000000
00010000
00000000
,
10000000
00000000
00100000
00000000
,
10000000
00000000
00100000
00000000
,
10000000
00000000
01000000
00000000
,
10000000
00000000
01000000
00000000
,
00100000
00000000
00010000
00000000
,
10000000
00000000
00010000
00000000
,
00110000
00000000
00110000
00000000
,
00110000
00000000
10010000
00000000
,
10000000
01000000
10000000
01000000
,
10000000
01000000
10000000
00000000
,
00010000
01000000
00010000
01000000
,
00010000
01000000
00010000
00000000
,
10000000
00100000
10000000
00100000
,
10000000
00100000
10000000
00000000
,
00001000
00010000
00001000
00010000
,
00001000
00010000
00001000
00000000
,
00010000
00000100
00010000
00000100
,
00010000
00000100
00010000
00000000
,
00000100
00001000
00000100
00001000
,
00000100
00001000
00000100
00000000
,
00001000
00000001
00001000
00000001
,
00001000
00000001
00001000
00000000
,
00000001
00000010
00000001
00000010
,
00000001
00000010
00000001
00000000
,
00000100
00000010
00000100
00000001
,
00000010
00000001
00000100
00000000
,
00000010
00001000
00000100
00001000
,
00000010
00001000
00000100
00000000
,
00010000
00001000
00100000
00001000
,
00100000
00001000
00010000
00000000
,
00100000
01000000
10000000
00100000
,
01000000
00100000
10000000
00000000
,
00100000
01000000
00100000
10000000
,
00100000
01000000
00100000
00000000
,
01000000
00010000
01000000
00100000
,
01000000
00010000
00100000
00000000
,
00010000
00100000
00010000
00001000
,
00000100
00001000
00000100
00000000
,
00000010
00000001
00000010
00000100
,
00001000
00010000
00001000
00100000
,
20020000
00000000
00000000
00000000
,
30030000
00000000
00000000
00000000
;
