#TITLE:DREAMER;
#SUBTITLE:;
#ARTIST:Hate;
#TITLETRANSLIT:;
#SUBTITLETRANSLIT:;
#ARTISTTRANSLIT:;
#CREDIT:DMAxel;
#BANNER:DREAMER.png;
#BACKGROUND:DREAMER-bg.png;
#LYRICSPATH:;
#CDTITLE:DMAxel Original Simfile.png;
#MUSIC:DREAMER.mp3;
#OFFSET:-0.040;
#SAMPLESTART:61.810;
#SAMPLELENGTH:12.000;
#SELECTABLE:YES;
#BPMS:0.000=155.000;
#STOPS:;
#BGCHANGES:;

//---------------dance-single - ----------------
#NOTES:
     dance-single:
     :
     Easy:
     3:
     0.234,0.311,0.086,0.233,0.000: // measure 1
0000
0000
0000
0000
,  // measure 2
0000
0000
0000
0000
,  // measure 3
0000
0000
0000
0000
,  // measure 4
0000
0000
0000
0000
,  // measure 5
0000
0000
0000
0000
,  // measure 6
0000
0000
0000
0000
,  // measure 7
0000
0000
0000
0000
,  // measure 8
0000
0000
0000
0000
,  // measure 9
0100
0010
0100
0010
,  // measure 10
0100
0010
0100
0001
,  // measure 11
1000
0001
1000
0001
,  // measure 12
1000
0100
1000
0100
,  // measure 13
1000
0100
0010
0001
,  // measure 14
0010
0001
0010
0001
,  // measure 15
0100
0001
0100
0001
,  // measure 16
1000
0010
1000
0010
,  // measure 17
0200
0000
0000
0000
,  // measure 18
0000
0300
0000
0000
,  // measure 19
0020
0000
0000
0000
,  // measure 20
0000
0030
0000
0000
,  // measure 21
2000
0000
0000
0000
,  // measure 22
3000
0000
0000
0000
,  // measure 23
0002
0000
0000
0000
,  // measure 24
0003
0010
0000
0001
0000
0010
0000
0000
,  // measure 25
1001
0000
0000
0001
,  // measure 26
0000
1000
0000
0001
,  // measure 27
0000
0100
0000
0001
,  // measure 28
0000
1000
0000
0010
,  // measure 29
0000
1000
0000
0001
,  // measure 30
0000
0100
0000
0001
,  // measure 31
0000
0000
1000
0000
0000
0000
0000
0100
,  // measure 32
0000
1000
0000
0100
0000
0010
0000
0000
,  // measure 33
1001
0000
0020
0000
,  // measure 34
0030
0000
0020
0000
,  // measure 35
0030
0000
0200
0000
,  // measure 36
0300
0000
0200
0000
,  // measure 37
0300
0000
0002
0000
,  // measure 38
0003
0000
2000
0000
,  // measure 39
3000
0000
0020
0000
,  // measure 40
0030
0000
0100
0000
,  // measure 41
1001
0010
0001
0010
,  // measure 42
0001
0010
0001
1000
,  // measure 43
0100
1000
0100
1000
,  // measure 44
0100
1000
0100
1000
,  // measure 45
1001
0010
1000
0010
,  // measure 46
1000
0010
1000
0010
,  // measure 47
0100
0001
0100
0001
,  // measure 48
0010
0100
1000
0010
,  // measure 49
1002
0000
0000
0000
,  // measure 50
0103
0010
0100
0001
,  // measure 51
2001
0000
0000
0000
,  // measure 52
3010
0100
0001
0100
,  // measure 53
1002
0000
0000
0000
,  // measure 54
0103
0010
1000
0010
,  // measure 55
1002
0000
0000
0000
,  // measure 56
0103
0010
1000
0001
,  // measure 57
2001
0000
0000
0000
,  // measure 58
3001
0010
0001
1000
,  // measure 59
0200
0000
0000
0000
,  // measure 60
0000
0300
0000
0000
,  // measure 61
2000
0000
0000
0000
,  // measure 62
3002
0000
0000
0000
,  // measure 63
2003
0000
0000
0000
,  // measure 64
3020
0000
0000
0000
,  // measure 65
0130
0010
0200
0000
,  // measure 66
0301
1000
0002
0000
,  // measure 67
0013
0001
0200
0000
,  // measure 68
0310
1000
0100
0000
,  // measure 69
1000
0010
0200
0000
,  // measure 70
0301
0010
0002
0000
,  // measure 71
0103
0010
2000
0000
,  // measure 72
3020
0000
0000
0000
,  // measure 73
0230
0001
0001
0001
,  // measure 74
0001
0001
0001
0301
,  // measure 75
1000
0000
0000
0000
,  // measure 76
1001
0000
0000
0000
,  // measure 77
0020
1000
1000
1000
,  // measure 78
1000
1000
1000
1030
,  // measure 79
0001
0000
0000
0000
,  // measure 80
1001
0000
0000
0000
,  // measure 81
0010
0000
0000
0000
;

//---------------dance-single - ----------------
#NOTES:
     dance-single:
     :
     Challenge:
     7:
     0.476,0.560,0.272,0.288,0.000: // measure 1
0000
0000
0000
0000
,  // measure 2
0000
0000
0000
0000
,  // measure 3
0000
0000
0000
0000
,  // measure 4
0000
0000
0000
0000
,  // measure 5
0000
0000
0000
0000
,  // measure 6
0000
0000
0000
0000
,  // measure 7
0000
0000
0000
0000
,  // measure 8
0000
0000
0000
0000
,  // measure 9
0010
0100
0010
0100
0001
0010
0001
0000
,  // measure 10
0100
0010
0100
0010
1000
0100
1000
0000
,  // measure 11
0010
0100
0010
0100
0001
0100
0001
0000
,  // measure 12
0100
0010
0100
0010
1000
0010
1000
0000
,  // measure 13
0100
1000
0010
0100
0010
0100
0001
0000
,  // measure 14
0010
0001
0100
0010
0100
0010
1000
0000
,  // measure 15
0010
1000
0010
0100
0001
0010
0001
0000
,  // measure 16
0100
0001
0100
0010
1000
0100
0000
0100
,  // measure 17
1002
0010
0100
0010
,  // measure 18
0100
0000
0013
0000
0100
0010
1000
0010
,  // measure 19
2001
0100
0010
0100
,  // measure 20
0010
0000
3100
0000
0010
0100
0000
0100
,  // measure 21
1020
0001
1000
0001
,  // measure 22
1000
0000
0031
0000
0100
0010
1000
0010
,  // measure 23
0201
1000
0001
1000
,  // measure 24
0301
0010
0000
1100
0000
0101
0000
1010
,  // measure 25
1001
0020
0030
0200
,  // measure 26
0300
0020
0030
0100
,  // measure 27
1001
0002
0003
2000
,  // measure 28
3000
0000
0002
0000
0003
0000
1000
1000
,  // measure 29
1001
0000
0020
0000
0030
0000
0100
0100
,  // measure 30
1001
0000
2000
0000
3000
0000
0001
0001
,  // measure 31
1001
0000
0020
0000
0030
0000
0100
0001
,  // measure 32
0000
1010
0000
0011
0000
1100
0000
0011
,  // measure 33
1002
0000
0000
0000
0010
0000
0000
0010
,  // measure 34
0000
0013
0000
0000
2100
0000
0000
0100
,  // measure 35
0000
0000
0000
0000
0010
0000
0000
0010
,  // measure 36
0000
3010
0000
0000
0201
0000
0000
0001
,  // measure 37
0000
0000
0000
0000
0010
0000
0000
0010
,  // measure 38
0000
0310
0000
0000
1020
0000
0000
1000
,  // measure 39
0000
0000
0000
0000
0100
0000
0000
0100
,  // measure 40
0000
0130
0000
0000
0011
0000
0100
0000
,  // measure 41
1000
0010
0100
0010
1000
0100
1000
0010
,  // measure 42
1000
0100
0010
0100
1000
0010
0100
0000
,  // measure 43
0001
0100
0010
0100
0001
0010
0001
0100
,  // measure 44
0001
0010
0100
0010
0001
0100
0010
0000
,  // measure 45
1001
0010
0001
0100
0001
1000
0001
0100
,  // measure 46
0010
0001
0010
0100
0010
1000
0010
0000
,  // measure 47
1000
0100
1000
0010
1000
0001
1000
0010
,  // measure 48
0100
1000
0100
0010
0100
0001
0000
0001
,  // measure 49
2001
0000
0000
0000
0000
0000
0000
3010
,  // measure 50
0100
0000
0010
0100
0001
0000
0100
0010
,  // measure 51
1002
0000
0000
0000
0000
0000
0000
0103
,  // measure 52
0010
0000
0100
0010
1000
0000
0010
0100
,  // measure 53
2001
0000
0000
0000
0000
0000
0000
3010
,  // measure 54
0100
0000
0010
0100
0001
0000
0100
0010
,  // measure 55
1002
0000
0000
0000
0000
0000
0000
0103
,  // measure 56
0010
0100
0000
0001
1000
0001
0000
0100
,  // measure 57
2001
0010
0000
0100
,  // measure 58
3100
1001
0010
1001
,  // measure 59
0002
0100
0000
0010
,  // measure 60
0013
0000
0100
0000
1001
0000
0100
0010
,  // measure 61
2001
0000
0000
0000
0000
0000
3000
0010
,  // measure 62
0200
0000
0000
0000
0000
0000
0300
0001
,  // measure 63
0020
0000
0000
0000
,  // measure 64
0032
0000
0000
0000
,  // measure 65
0103
0010
0100
0001
2000
0000
0010
0000
,  // measure 66
3001
0100
0010
0100
0002
0000
0010
0000
,  // measure 67
1003
0010
0100
0010
2000
0000
0100
0000
,  // measure 68
3001
0010
0001
0100
0002
0000
0100
0000
,  // measure 69
1003
0010
0100
0010
2000
0000
0010
0000
,  // measure 70
3001
0100
0010
0100
0002
0000
0010
0000
,  // measure 71
1003
0010
0100
0010
2000
0000
0100
0000
,  // measure 72
3001
0100
0000
1010
0000
0011
0000
1100
,  // measure 73
0000
0001
0010
0100
1000
0100
0010
0001
,  // measure 74
0100
0010
1000
0100
0010
0100
1000
0010
,  // measure 75
0100
0200
0000
0000
0310
0000
0010
0100
,  // measure 76
0001
0002
0000
0000
1003
0000
0010
0000
,  // measure 77
1001
0100
0010
0001
0010
0100
1000
0010
,  // measure 78
0100
0001
0010
0100
0010
0001
0100
0010
,  // measure 79
0100
0200
0000
0000
0301
0000
0010
0001
,  // measure 80
0100
0100
0001
0010
0100
1000
0010
0100
,  // measure 81
0100
0000
0000
0000
;

//---------------dance-single - ----------------
#NOTES:
     dance-single:
     :
     Hard:
     8:
     0.503,0.591,0.202,0.093,0.035: // measure 1
0000
0000
0000
0000
,  // measure 2
0000
0000
0000
0000
,  // measure 3
0000
0000
0000
0000
,  // measure 4
0000
0000
0000
0000
,  // measure 5
0000
0000
0000
0000
,  // measure 6
0000
0000
0000
0000
,  // measure 7
0000
0000
0000
0000
,  // measure 8
0000
0000
0000
0000
,  // measure 9
1000
0010
0100
0010
1000
0100
1000
0010
,  // measure 10
0000
0100
0001
0010
0001
0100
0010
0100
,  // measure 11
0000
0010
0100
0010
1000
0100
1000
0010
,  // measure 12
0000
0100
0010
0100
0001
0100
0010
1000
,  // measure 13
0000
0100
1000
0010
0100
0010
0100
0001
,  // measure 14
0000
0100
0001
0100
0010
1000
0100
1000
,  // measure 15
0000
0100
1000
0010
1000
0100
1000
0010
,  // measure 16
0000
0100
0001
0100
0010
0100
0000
0100
,  // measure 17
0001
0100
0000
0010
0000
1000
0000
0010
,  // measure 18
0100
0010
0000
0100
0000
0001
0000
1000
,  // measure 19
0010
1000
0000
0100
0000
1000
0000
0010
,  // measure 20
0100
0010
0000
0100
0000
0001
0000
0010
,  // measure 21
0001
0010
0000
0001
0000
0100
0000
0010
,  // measure 22
0100
0010
0000
1000
0000
0010
0000
0100
,  // measure 23
0010
1000
0100
0010
0001
0100
0010
1000
,  // measure 24
0100
1100
0000
0011
0000
1010
0000
0101
,  // measure 25
1001
0000
0000
0000
0100
0000
0000
0100
0010
0000
0000
0000
0010
0000
0000
0010
,  // measure 26
1000
0000
0000
0000
1000
0000
0000
1000
0001
0000
0000
0000
0001
0000
0000
0000
,  // measure 27
1001
0000
0000
0000
0100
0000
0000
0100
0001
0000
0000
0000
0001
0000
0000
0001
,  // measure 28
1000
0000
0000
0000
1000
0000
0000
1000
0010
0000
0000
0000
0100
0000
0001
0000
,  // measure 29
1001
0000
0000
0000
0010
0000
0000
0010
0001
0000
0000
0000
0001
0000
0010
0000
,  // measure 30
1001
0000
0000
0000
0100
0000
0000
0100
1000
0000
0000
0000
1000
0000
0100
0000
,  // measure 31
1001
0000
0000
0000
0010
0000
0000
0010
0100
0000
0000
0000
0100
0000
1010
0000
,  // measure 32
0000
0101
0000
1100
0000
0011
0000
1100
,  // measure 33
1001
0000
0010
0000
1000
0000
0100
1000
,  // measure 34
0000
1000
0010
0000
0100
0000
0001
0010
,  // measure 35
0000
0000
0001
0000
0100
0000
0010
0100
,  // measure 36
0000
0100
0001
0000
0100
0000
0010
1000
,  // measure 37
0000
0000
0100
0000
1000
0000
0100
1000
,  // measure 38
0000
1000
0010
0000
1000
0000
0010
0000
,  // measure 39
0001
0000
0100
0000
1001
0000
0100
0010
,  // measure 40
0000
0010
1000
0000
0100
1000
0010
0000
,  // measure 41
0100
0010
1000
0100
1000
0010
1000
0100
,  // measure 42
0010
0001
0010
0100
1000
0010
0100
0000
,  // measure 43
0001
0100
0010
0100
0001
0010
0001
0100
,  // measure 44
0001
0010
0100
0010
0001
0100
0010
0000
,  // measure 45
1001
0010
0001
0100
0001
1000
0001
0100
,  // measure 46
0010
0001
0010
0100
0010
1000
0010
0000
,  // measure 47
1000
0100
1000
0010
1000
0001
1000
0010
,  // measure 48
0100
1000
0100
0010
0100
0001
0000
0001
,  // measure 49
0100
0010
0000
1000
0000
0100
0000
1000
,  // measure 50
0001
1000
0000
0010
0000
0100
0000
0010
,  // measure 51
0100
0001
0000
0100
0000
0010
0000
1000
,  // measure 52
0001
1000
0000
0010
0000
0100
0000
0010
,  // measure 53
0100
0001
0000
0100
0000
0010
0000
1000
,  // measure 54
0001
1000
0000
0010
0000
0100
0000
0001
,  // measure 55
1000
0010
0000
0100
0000
0010
0000
1000
,  // measure 56
0100
0001
0000
0100
0010
1000
0000
0010
,  // measure 57
0011
0000
0100
0000
1000
0000
0010
0100
,  // measure 58
0001
0000
1001
0000
0100
0000
1001
0100
,  // measure 59
1000
0000
0010
0000
0100
0000
0010
0100
,  // measure 60
0001
0000
0100
0000
1001
0000
0100
0010
,  // measure 61
1001
0000
0100
0000
0010
0000
1000
0010
,  // measure 62
0001
0000
1000
0000
0100
0000
1000
0100
,  // measure 63
0002
0000
0000
0000
,  // measure 64
2003
0000
0000
0000
,  // measure 65
3010
0100
0010
1000
0002
0000
0100
0000
,  // measure 66
1003
0010
0100
0010
2000
0000
0100
0000
,  // measure 67
3001
0100
0010
0100
0020
0000
0001
0000
,  // measure 68
1030
0010
0100
0010
0200
0000
1000
0000
,  // measure 69
0301
0100
0010
0100
0002
0000
0100
0000
,  // measure 70
1003
0010
0100
0010
2000
0000
0100
0000
,  // measure 71
3001
0100
0010
0100
0020
0000
0001
0000
,  // measure 72
1030
0010
0000
0101
0000
1100
0000
0011
,  // measure 73
0000
1000
0100
0010
0001
0010
0100
1000
,  // measure 74
0010
0100
0001
0010
0100
0010
0001
0100
,  // measure 75
0010
0020
0000
0000
0130
0000
0100
0010
,  // measure 76
1000
2000
0000
0000
3001
0000
0100
0000
,  // measure 77
1001
0010
0100
1000
0100
0010
0001
0100
,  // measure 78
0010
1000
0100
0010
0100
1000
0010
0100
,  // measure 79
0010
0020
0000
0000
1030
0000
0100
1000
,  // measure 80
0010
0010
1000
0100
0010
0001
0100
0010
,  // measure 81
0010
0000
0000
0000
;

//---------------dance-single - ----------------
#NOTES:
     dance-single:
     :
     Medium:
     5:
     0.310,0.435,0.101,0.202,0.000: // measure 1
0000
0000
0000
0000
,  // measure 2
0000
0000
0000
0000
,  // measure 3
0000
0000
0000
0000
,  // measure 4
0000
0000
0000
0000
,  // measure 5
0000
0000
0000
0000
,  // measure 6
0000
0000
0000
0000
,  // measure 7
0000
0000
0000
0000
,  // measure 8
0000
0000
0000
0000
,  // measure 9
0010
0100
0010
0100
,  // measure 10
0001
0010
0100
1000
,  // measure 11
0001
1000
0001
1000
,  // measure 12
0001
0010
0100
1000
,  // measure 13
0010
0100
0010
1000
,  // measure 14
0001
0100
0001
0010
,  // measure 15
0100
1000
0010
1000
,  // measure 16
0001
0000
0100
0000
0010
0100
0000
0100
,  // measure 17
0020
0000
0000
0000
,  // measure 18
1030
0001
1000
0001
,  // measure 19
0200
0000
0000
0000
,  // measure 20
0310
0100
0010
0100
,  // measure 21
0002
0000
0000
0000
,  // measure 22
0103
0010
0100
0010
,  // measure 23
2000
0000
0000
0000
0000
0000
0000
3000
,  // measure 24
0000
1001
0000
0010
0000
0110
0000
0100
,  // measure 25
1002
0000
0000
0000
,  // measure 26
0000
0000
0000
0000
,  // measure 27
0203
0000
0000
0000
,  // measure 28
0000
0000
0000
0000
,  // measure 29
0320
0000
0000
0000
,  // measure 30
0230
0000
0000
0000
,  // measure 31
0302
0000
0000
0000
0000
0003
0000
0100
,  // measure 32
0000
1001
0000
0010
0000
0110
0000
0100
,  // measure 33
1001
0000
0010
0000
,  // measure 34
1000
0000
0010
0000
,  // measure 35
0001
0000
0100
0000
,  // measure 36
0010
0000
1000
0000
,  // measure 37
0010
0000
0001
0000
,  // measure 38
0100
0000
0010
0000
,  // measure 39
1000
0000
0010
0000
,  // measure 40
0001
0000
0100
0000
,  // measure 41
0001
0010
0001
0000
1000
0100
1000
0000
,  // measure 42
0001
0100
0001
1000
0010
1000
0001
0000
,  // measure 43
1000
0010
1000
0000
0001
0100
0001
0000
,  // measure 44
1000
0100
1000
0001
0010
0001
1000
0000
,  // measure 45
0001
0100
0010
0000
1000
0010
0100
0000
,  // measure 46
0010
0100
0010
1000
0001
1000
0001
0000
,  // measure 47
0100
0010
1000
0000
0010
0100
0001
0000
,  // measure 48
1000
0001
1000
0001
0100
0010
0000
0010
,  // measure 49
0200
0000
0000
0000
,  // measure 50
0301
1000
0010
0100
,  // measure 51
0002
0000
0000
0000
,  // measure 52
0103
0010
1000
0010
,  // measure 53
0200
0000
0000
0000
,  // measure 54
0310
1000
0001
0100
,  // measure 55
0020
0000
0000
0000
,  // measure 56
1030
0001
0100
0010
,  // measure 57
1001
0000
0010
0000
0001
0000
0100
0010
,  // measure 58
1000
0000
1001
0000
0010
0000
1001
0010
,  // measure 59
0001
0000
0100
0000
0010
0000
0100
0010
,  // measure 60
1000
0000
0010
0000
1001
0000
0010
0100
,  // measure 61
1001
0000
0010
0000
0100
0000
0001
0100
,  // measure 62
1000
0000
0001
0000
0010
0000
0001
0010
,  // measure 63
2000
0000
0000
0000
,  // measure 64
3002
0000
0000
0000
,  // measure 65
0103
0000
0001
0100
2000
0000
0000
0000
,  // measure 66
3001
0000
1000
0010
0002
0000
0000
0000
,  // measure 67
1003
0000
0001
0100
0020
0000
0000
0000
,  // measure 68
0130
0000
1000
0010
0200
0000
0000
0000
,  // measure 69
0310
0000
0100
0001
0020
0000
0000
0000
,  // measure 70
0031
0000
0100
0010
2000
0000
0000
0000
,  // measure 71
3001
0000
0010
0100
0002
0000
0000
0000
,  // measure 72
0003
0100
0000
0110
0000
0010
0000
1001
,  // measure 73
0000
0001
0010
0000
0001
0000
0100
0000
,  // measure 74
0010
1000
0100
1000
,  // measure 75
0010
0200
0000
0000
0000
0000
0000
0300
,  // measure 76
0010
0200
0000
0000
0000
0000
0000
0000
,  // measure 77
0301
1000
0100
0010
,  // measure 78
0001
0100
0010
1000
,  // measure 79
0001
0200
0000
0000
0000
0000
0000
0000
,  // measure 80
0310
2000
0000
0000
0000
0000
0000
3001
;

//---------------dance-single - ----------------
#NOTES:
     dance-single:
     :
     Beginner:
     2:
     0.087,0.187,0.062,0.000,0.000: // measure 1
0000
0000
0000
0000
,  // measure 2
0000
0000
0000
0000
,  // measure 3
0000
0000
0000
0000
,  // measure 4
0000
0000
0000
0000
,  // measure 5
0000
0000
0000
0000
,  // measure 6
0000
0000
0000
0000
,  // measure 7
0000
0000
0000
0000
,  // measure 8
0000
0000
0000
0000
,  // measure 9
0010
0000
0000
0000
,  // measure 10
0010
0000
0000
0000
,  // measure 11
0010
0000
0000
0000
,  // measure 12
0010
0000
0000
0000
,  // measure 13
0100
0000
0000
0000
,  // measure 14
0100
0000
0000
0000
,  // measure 15
0100
0000
0000
0000
,  // measure 16
0100
0000
0000
0000
,  // measure 17
1001
0000
0000
0000
,  // measure 18
0000
0000
0000
0000
,  // measure 19
1000
0000
0000
0000
,  // measure 20
0000
0000
0000
0000
,  // measure 21
0001
0000
0000
0000
,  // measure 22
0000
0000
0000
0000
,  // measure 23
1000
0000
0000
0000
,  // measure 24
0000
0000
0000
0000
,  // measure 25
1001
0000
0000
0000
,  // measure 26
0000
0000
0000
0000
,  // measure 27
0010
0000
0000
0000
,  // measure 28
0000
0000
0000
0000
,  // measure 29
0100
0000
0000
0000
,  // measure 30
0010
0000
0000
0000
,  // measure 31
0100
0000
0000
0000
,  // measure 32
0001
0000
0000
0000
,  // measure 33
1001
0000
0000
0000
,  // measure 34
0000
0000
0000
0000
,  // measure 35
0000
0000
0000
0000
,  // measure 36
0000
0000
0000
0000
,  // measure 37
0100
0000
0000
0000
,  // measure 38
0000
0000
0000
0000
,  // measure 39
0000
0000
0000
0000
,  // measure 40
0010
0000
0000
0000
,  // measure 41
1001
0000
1000
0000
,  // measure 42
1000
0000
1000
0000
,  // measure 43
0010
0000
0010
0000
,  // measure 44
0010
0000
0010
0000
,  // measure 45
0100
0000
0100
0000
,  // measure 46
0100
0000
0100
0000
,  // measure 47
0001
0000
0001
0000
,  // measure 48
0001
0000
0001
0000
,  // measure 49
1001
0000
0000
0000
,  // measure 50
1000
0000
0000
0000
,  // measure 51
0010
0000
0000
0000
,  // measure 52
0100
0000
0000
0000
,  // measure 53
1001
0000
0000
0000
,  // measure 54
0010
0000
0000
0000
,  // measure 55
0100
0000
0000
0000
,  // measure 56
1000
0000
0000
0000
,  // measure 57
0010
0000
0000
0000
,  // measure 58
0000
0000
0000
0000
,  // measure 59
0010
0000
0000
0000
,  // measure 60
0000
0000
0000
0000
,  // measure 61
0010
0000
0000
0000
,  // measure 62
0000
0000
0000
0000
,  // measure 63
0100
0000
0000
0000
,  // measure 64
0000
0000
0000
0000
,  // measure 65
0001
0000
0001
0000
,  // measure 66
1000
0000
1000
0000
,  // measure 67
0001
0000
0001
0000
,  // measure 68
1000
0000
0000
0000
,  // measure 69
0010
0000
0010
0000
,  // measure 70
0100
0000
0100
0000
,  // measure 71
0010
0000
0010
0000
,  // measure 72
0100
0000
0000
0000
,  // measure 73
1001
0000
0000
0000
,  // measure 74
0000
0000
0000
0000
,  // measure 75
1000
0000
0000
0000
,  // measure 76
0001
0000
0000
0000
,  // measure 77
0110
0000
0000
0000
,  // measure 78
0000
0000
0000
0000
,  // measure 79
0100
0000
0000
0000
,  // measure 80
0010
0000
0000
0000
,  // measure 81
0100
0000
0000
0000
;
