#TITLE:DO ME;
#SUBTITLE:(MONDO DISCO ITALO STYLE);
#ARTIST:DJ MOjo;
#TITLETRANSLIT:;
#SUBTITLETRANSLIT:;
#ARTISTTRANSLIT:;
#CREDIT:DMAxel;
#BANNER:DO ME (MONDO DISCO ITALO STYLE).png;
#BACKGROUND:DO ME (MONDO DISCO ITALO STYLE)-bg.png;
#LYRICSPATH:;
#CDTITLE:DanceManiaX.png;
#MUSIC:DO ME (MONDO DISCO ITALO STYLE).mp3;
#OFFSET:-0.060;
#SAMPLESTART:29.553;
#SAMPLELENGTH:12.000;
#SELECTABLE:YES;
#BPMS:0.000=130.050;
#STOPS:;
#BGCHANGES:;

//---------------dance-single - ----------------
#NOTES:
     dance-single:
     :
     Hard:
     7:
     0.447,0.452,0.462,0.061,0.091:
0000
0000
0000
0000
,
0000
0000
0000
0000
,
0000
0000
0000
0000
,
0000
0000
0000
0000
,
1010
0000
1010
0000
0010
1000
0001
0000
,
0100
0100
0101
0101
,
1001
0001
0011
1000
,
1100
0110
0011
1001
,
1000
0000
0010
0000
0100
0000
0000
0000
0001
0000
0000
0001
0000
0000
1000
0000
,
0010
0000
0000
0010
0000
0000
1000
0000
0100
0000
0000
0100
0000
0000
1000
0000
,
0001
0000
0100
0000
0010
0000
0000
0000
1000
0000
0000
1000
0000
0000
0001
0000
,
0100
0000
0000
0100
0000
0000
0001
0000
0010
0000
0000
0010
0000
0000
0001
0000
,
1000
0000
1000
0001
0100
0000
0001
0100
,
1000
0000
0010
0100
0010
0000
1000
0000
,
0001
0000
0001
1000
0010
0000
1000
0010
,
0001
0000
0100
0010
0100
0000
0001
0000
,
1100
1000
0010
0100
0001
2000
0000
3010
,
0000
0100
0002
0000
1000
1000
1003
0000
,
0011
0001
0100
0010
1000
0002
0000
0103
,
0000
0010
2000
0000
0001
0001
3001
0000
,
1010
0000
0000
1000
0000
0000
0001
0000
0100
0000
0000
0000
0101
0000
0000
0000
,
0001
1000
0020
0000
1000
1000
1030
0000
,
0101
0000
0000
0001
0000
0000
1000
0000
0010
0000
0000
0000
1010
0000
0000
0000
,
0110
0110
1001
1001
,
0010
0000
0010
0000
0010
1000
0100
0010
,
0001
0000
0100
0000
0100
0001
0010
0100
,
1000
0000
0010
0000
0010
1000
0100
0010
,
0001
0000
0100
0000
0100
0001
0010
0100
,
1100
0000
0001
0000
1000
0100
0001
0000
,
1000
0000
1000
0000
0001
0100
1100
0000
,
1001
0001
0101
1000
,
1010
0001
0101
1000
,
1001
0000
0000
0000
,
0100
0001
1100
1100
,
1000
0000
0010
0000
0100
0000
0001
0000
1000
0000
0000
1000
0000
0000
0001
0000
,
0100
0000
0000
0100
0000
0000
0001
0000
0010
0000
0100
0000
1000
0000
0001
0000
,
1000
0000
0000
1000
0000
0000
0001
0000
0010
0000
0000
0010
0000
0000
0001
0000
,
0100
0010
1000
0001
1001
0000
1001
0000
,
0001
0000
0000
0001
0000
0000
1000
0000
0010
0000
0000
0010
0000
0000
1000
0000
,
0100
0010
0001
1000
0001
0010
0100
1000
,
1001
0000
1000
0000
1000
0001
0010
1000
,
0001
0011
1000
1100
,
1001
0000
0001
0000
0001
1000
0100
0001
,
1000
0000
0000
0000
1010
0000
0000
0000
0101
0000
0000
1001
0000
0000
0000
0000
;

//---------------dance-single - ----------------
#NOTES:
     dance-single:
     :
     Easy:
     3:
     0.254,0.344,0.280,0.110,0.000:
0000
0000
0000
0000
,
0000
0000
0000
0000
,
0000
0000
0000
0000
,
0000
0000
0000
0000
,
1001
0000
0001
0000
,
1000
0000
0000
0000
,
1001
0000
1000
0000
,
2002
0000
0000
3003
,
0100
0100
0100
0000
,
0010
0000
0100
0000
,
0010
0010
0010
0000
,
0100
0000
0010
0000
,
1000
0001
1000
0000
,
0001
1000
0001
0000
,
1000
0001
1000
0000
,
0001
1000
0001
0000
,
1001
0001
0001
0000
,
1000
1000
0100
1000
,
0001
0001
1000
0000
,
1000
1000
0001
0100
,
0001
0001
1000
0000
,
1000
1000
0001
0000
,
1001
0000
1001
0000
,
1001
1001
1001
1001
,
0100
0010
0100
0000
,
0010
0100
0010
0000
,
1000
0001
1000
0000
,
0001
1000
0001
0000
,
0100
0001
1000
1000
,
0010
1000
0001
0001
,
1001
0000
1100
0000
,
0011
0000
1001
1000
,
1001
0000
0000
0000
,
0002
0000
1000
0000
,
1003
0100
1000
1000
,
1100
0002
1000
1003
,
0001
0010
0001
0001
,
0011
2000
0001
3001
,
1000
0010
0100
0001
,
1001
1001
1001
0000
,
0022
0000
0000
0033
,
0001
0100
0010
1000
,
2200
0000
0000
3300
,
1000
0001
0110
0000
;

//---------------dance-single - ----------------
#NOTES:
     dance-single:
     :
     Challenge:
     8:
     0.537,0.505,0.535,0.037,0.225: // measure 1
0000
0000
0000
0000
,  // measure 2
0000
0000
0000
0000
,  // measure 3
0000
0000
0000
0000
,  // measure 4
0000
0000
0000
0000
,  // measure 5
0011
0000
0011
0000
0100
1000
0001
0000
,  // measure 6
1100
0000
1100
0000
0010
0001
1001
0000
,  // measure 7
1001
0101
1001
1010
,  // measure 8
1001
0101
1100
0110
,  // measure 9
1001
0000
1000
0000
0010
0000
0100
0000
0001
0000
0000
0010
0000
0000
0100
0000
,  // measure 10
0010
0000
0000
0001
0000
0000
0010
0000
0100
0000
0000
0010
0000
0000
0001
0000
,  // measure 11
1000
0000
0001
0000
0100
0000
0010
0000
1000
0000
0000
0100
0000
0000
0010
0000
,  // measure 12
0100
0000
0000
1000
0000
0000
0100
0000
0010
0000
0000
0100
0000
0000
1000
0000
,  // measure 13
0001
0000
0000
0010
0000
0000
0100
0000
0010
0000
0000
0100
0000
0000
1000
0000
,  // measure 14
0001
0000
0000
1000
0000
0000
0100
0000
0010
0000
0000
0100
0000
0000
0010
0000
,  // measure 15
0001
0000
0000
0100
0000
0000
0010
0000
0100
0000
0000
0010
0000
0000
1000
0000
,  // measure 16
0010
0000
0000
0100
0000
0000
0010
0000
0100
0001
0100
0000
0001
0000
0001
0000
,  // measure 17
1001
0000
1000
0000
0010
0000
0100
0000
0001
0000
1000
0100
0000
0000
1000
0000
,  // measure 18
0001
0000
1000
0100
0000
0000
1000
0000
0001
0010
0001
0000
1000
0000
0000
0000
,  // measure 19
1001
0000
0001
0000
0100
0000
0010
0000
1000
0000
0001
0010
0000
0000
0001
0000
,  // measure 20
1000
0000
0001
0010
0000
0000
0001
0000
1000
0100
1000
0000
0001
0000
0000
0000
,  // measure 21
1001
0000
0000
1000
0000
0000
0010
0000
0100
0000
0001
0100
0000
0000
0010
0000
,  // measure 22
0100
0000
0001
0100
0000
0000
0010
0000
0100
0001
0100
0000
0001
0000
1000
0000
,  // measure 23
1001
0000
0000
0001
0000
0000
0100
0000
0110
0000
0000
1000
0000
0000
0010
0000
,  // measure 24
0110
0000
0000
0000
0110
0000
0000
0001
1000
0000
0000
1000
0001
0000
0100
0000
,  // measure 25
0110
0000
1010
0000
1000
0010
0100
0001
,  // measure 26
0110
0000
0101
0000
0001
0100
0010
1000
,  // measure 27
0110
0000
1100
0000
1000
0100
0010
0001
,  // measure 28
0110
0000
0011
0000
0001
0010
0100
1000
,  // measure 29
1001
0000
1000
0100
0010
0001
1000
0020
,  // measure 30
0000
0000
0100
0000
0130
0000
0001
0000
0100
0010
0100
0000
0001
0000
1000
0000
,  // measure 31
1001
0000
0001
0010
0100
1000
0001
0100
,  // measure 32
0010
0000
1000
0000
0100
0000
0010
0000
0100
0010
0100
0000
1000
0000
0001
0000
,  // measure 33
2002
0000
0000
3003
,  // measure 34
0101
0000
0000
0000
0110
0000
0000
1000
0000
0000
0001
0000
1000
0000
0000
0000
,  // measure 35
0001
0000
0010
0000
0100
0000
0010
0000
0001
0000
1000
0010
0000
0000
1000
0000
,  // measure 36
0001
0000
1000
0010
0000
0000
1000
0000
1001
0000
0000
0000
1001
0000
0000
0000
,  // measure 37
1000
0000
0100
0000
0010
0000
0100
0000
1000
0000
0001
0100
0000
0000
0001
0000
,  // measure 38
1000
0000
0001
0100
0000
0000
0001
0000
1001
0000
0000
0000
1001
0000
0000
0000
,  // measure 39
0001
0000
0010
0000
0100
0000
0010
0000
0001
0000
1000
0010
0000
0000
1000
0000
,  // measure 40
0001
0010
0100
1000
0001
0001
0001
1000
,  // measure 41
1100
0000
0101
0000
0100
0001
1000
1000
,  // measure 42
0001
0010
0100
1000
0001
0010
0100
1000
,  // measure 43
0011
0000
1010
0000
0010
1000
0001
0001
,  // measure 44
1000
0000
0100
0000
0010
0000
0001
0000
0101
0000
0000
1100
0000
0000
0000
0000
;

//---------------dance-single - ----------------
#NOTES:
     dance-single:
     :
     Medium:
     6:
     0.412,0.452,0.560,0.061,0.006:
0000
0000
0000
0000
,
0000
0000
0000
0000
,
0000
0000
0000
0000
,
0000
0000
0000
0000
,
1001
1000
0001
1000
,
0100
0010
0100
0110
,
1001
0001
1001
1000
,
2001
0001
0001
3001
,
1001
0000
0010
0000
0100
0000
1000
0100
,
0001
0000
0100
0000
0100
0001
1000
0000
,
1001
0000
0100
0000
0010
0000
0001
0010
,
1000
0000
0010
0000
0010
1000
0001
0000
,
1001
0000
0001
0000
1000
0000
0001
0010
,
1000
0000
0010
0100
0010
0000
1000
0000
,
1001
0000
1000
0000
0001
0000
1000
0100
,
0001
0000
0100
0010
0100
0000
0001
0000
,
1001
0000
1000
0000
1000
0020
0000
1030
,
0000
0010
1000
0000
0001
0001
0001
0000
,
1001
0000
0001
0000
0001
0200
0000
0301
,
0000
0100
0001
0000
1000
1000
1000
0000
,
1001
0000
1000
0000
0001
0100
0000
0100
,
0000
0001
1000
0000
0010
0100
0010
0000
,
1001
0001
0101
1000
,
1010
1010
1001
1001
,
0011
0010
0010
0010
,
0010
0001
1000
0000
0001
0000
1000
0000
,
1100
0100
0100
0100
,
0100
1000
0001
0000
1000
0000
0001
0000
,
0101
0000
0100
0000
0100
0001
1000
0000
,
0010
0100
0010
0000
0010
1000
0010
0000
,
1010
0001
0101
1000
,
1010
0001
0101
1001
,
1001
0000
0000
0000
,
0110
0100
0100
0100
,
1001
0000
1000
0001
0100
0000
0100
0000
,
0100
0001
0010
0000
0011
0000
0011
0000
,
1001
0000
0001
1000
0010
0000
0010
0000
,
0010
1000
0100
0000
1100
0000
1100
0000
,
1001
0000
1000
0001
0010
0000
0001
0010
,
0011
0011
1100
1100
,
1001
0000
1000
0010
0100
0002
0000
1000
,
1003
1100
0001
0011
,
1001
0000
0001
0100
0010
2000
0000
0001
,
3001
0000
0000
0000
0011
0000
0000
0000
1100
0000
0000
1001
0000
0000
0000
0000
;

//---------------dance-single - ----------------
#NOTES:
     dance-single:
     :
     Beginner:
     1:
     0.085,0.132,0.110,0.000,0.000:
0000
0000
0000
0000
,
0000
0000
0000
0000
,
0000
0000
0000
0000
,
0000
0000
0000
0000
,
1000
0000
0000
0000
,
0001
0000
0000
0000
,
1000
0000
0000
0000
,
1000
0000
0000
0000
,
0001
0000
0000
0000
,
1000
0000
0000
0000
,
0001
0000
0000
0000
,
0010
0000
0000
0000
,
0100
0000
0000
0000
,
0010
0000
0000
0000
,
0100
0000
0000
0000
,
1000
0000
0000
0000
,
1001
0000
0000
0000
,
0001
0000
0000
0000
,
1000
0000
0000
0000
,
0001
0000
0000
0000
,
1001
0000
0000
0000
,
1000
0000
0000
0000
,
0001
0000
0000
0000
,
1001
0000
0000
0000
,
1000
0000
0000
0000
,
0100
0000
0000
0000
,
1000
0000
0000
0000
,
0001
0000
0000
0000
,
1001
0000
0000
0000
,
0001
0000
0000
0000
,
0010
0000
0000
0000
,
0001
0000
0000
0000
,
1001
0000
0000
0000
,
0000
0000
0000
0000
,
1000
0000
0000
0000
,
1000
0000
0000
0000
,
0001
0000
0000
0000
,
0001
0000
0000
0000
,
1000
0000
0000
0000
,
1001
0000
0000
0000
,
1001
0000
0000
0000
,
0010
0000
0000
0000
,
1001
0000
0000
0000
,
0100
0000
0110
0000
;
