#TITLE:ディスコξタイフーン;
#SUBTITLE:;
#ARTIST:PRIORITY feat. Sana;
#TITLETRANSLIT:DISCO TYPHOON;
#SUBTITLETRANSLIT:;
#ARTISTTRANSLIT:;
#CREDIT:DMAxel;
#BANNER:DISCO TYPHOON.png;
#BACKGROUND:DISCO TYPHOON-bg.png;
#LYRICSPATH:DISCO TYPHOON.lrc;
#CDTITLE:pop'n music.png;
#MUSIC:DISCO TYPHOON.mp3;
#OFFSET:-4.900;
#SAMPLESTART:89.752;
#SAMPLELENGTH:12.000;
#SELECTABLE:YES;
#DISPLAYBPM:129.000;
#BPMS:0.000=129.000,120.000=64.500,151.000=129.000;
#STOPS:150.500=0.960
;
#BGCHANGES:;

//---------------dance-single - ----------------
#NOTES:
     dance-single:
     :
     Easy:
     2:
     0.156,0.215,0.096,0.000,0.000: // measure 1
0000
0000
0000
0000
,  // measure 2
0000
0000
0000
0000
,  // measure 3
0000
1000
0000
1000
,  // measure 4
0000
1000
0000
1000
,  // measure 5
0100
0010
0001
0010
,  // measure 6
0100
1000
0000
0000
,  // measure 7
0000
0001
0000
1000
,  // measure 8
0000
0001
0000
1000
,  // measure 9
0000
0010
0000
0100
,  // measure 10
0000
0010
0000
0000
,  // measure 11
1000
0000
0010
0000
,  // measure 12
1000
0000
0001
0000
,  // measure 13
0100
0100
0100
0100
,  // measure 14
0010
0010
0010
0010
,  // measure 15
1001
0000
0100
0000
,  // measure 16
1000
0000
0100
0000
,  // measure 17
0000
0000
0010
0000
,  // measure 18
0001
0000
0010
0000
,  // measure 19
1001
0000
0100
0000
,  // measure 20
1000
0000
0100
0000
,  // measure 21
1001
0001
0001
0001
,  // measure 22
1000
1000
1000
1000
,  // measure 23
0001
0000
0100
0000
,  // measure 24
0001
0000
0100
0000
,  // measure 25
0010
0000
0100
0000
,  // measure 26
0010
0000
0100
0000
,  // measure 27
0010
0000
1000
0000
,  // measure 28
0010
0000
1000
0000
,  // measure 29
0001
0000
1000
0000
,  // measure 30
0010
0000
0100
0000
,  // measure 31
1001
0000
0010
0000
,  // measure 32
0010
0000
0010
0000
,  // measure 33
1001
0000
1000
0000
,  // measure 34
0100
0000
0010
0000
,  // measure 35
0001
0000
1000
0000
,  // measure 36
0001
0000
1000
0000
,  // measure 37
0010
0000
0100
0000
,  // measure 38
0010
0000
1000
1001
,  // measure 39
0000
0010
0000
0001
,  // measure 40
0000
0010
0000
0100
,  // measure 41
0000
1000
0000
0100
,  // measure 42
0000
1000
0000
1001
,  // measure 43
0000
0100
0000
0001
,  // measure 44
0000
0100
0000
1001
,  // measure 45
1000
1000
1000
0001
,  // measure 46
0001
0001
0001
0110
,  // measure 47
0000
1000
0010
1000
,  // measure 48
0010
0000
0100
0000
,  // measure 49
0001
0010
0001
0010
,  // measure 50
0000
0001
0000
1001
,  // measure 51
0000
1000
0100
1000
,  // measure 52
0010
0000
0000
0110
,  // measure 53
0001
0010
0100
1000
,  // measure 54
0100
0010
0001
1001
;

//---------------dance-single - ----------------
#NOTES:
     dance-single:
     :
     Hard:
     6:
     0.373,0.387,0.176,0.048,0.064: // measure 1
0000
0000
0000
0000
,  // measure 2
0000
0000
0000
0000
,  // measure 3
1001
0010
0000
0001
,  // measure 4
0000
1000
0000
0100
,  // measure 5
1001
0100
0001
0010
,  // measure 6
0100
0000
1000
0000
0010
0000
0001
0010
,  // measure 7
1001
0000
0000
0000
0000
0000
0100
0000
0100
0000
0000
0000
1000
0000
0000
1001
,  // measure 8
0000
0000
0000
0010
0010
0001
0010
0100
,  // measure 9
1000
0000
0000
0000
0000
0000
0100
0000
0100
0000
0000
0000
1000
0000
0000
1001
,  // measure 10
0000
0000
0000
0010
0010
0001
0010
0100
,  // measure 11
1000
0000
0000
0000
0010
0000
1000
0000
1000
0000
0000
0000
0010
0000
0000
0110
,  // measure 12
0000
0000
0000
0000
1000
0001
0001
0100
,  // measure 13
0001
0000
0010
0100
1000
0000
0100
0010
,  // measure 14
0001
0000
0100
0010
1000
0000
0001
0001
,  // measure 15
1001
0000
0000
0000
0010
0000
0001
0000
0010
0000
0000
0000
0001
0000
0000
0100
,  // measure 16
0000
0000
0000
0000
0010
0000
1000
0000
0010
0000
0000
0000
1000
0000
0000
0001
,  // measure 17
0000
0000
0000
0000
0100
0000
0001
0000
0100
0000
0000
0000
0001
0000
0000
1000
,  // measure 18
0000
0000
0000
0000
0100
0000
1000
0000
0100
0000
0000
0000
1000
0000
0000
0010
,  // measure 19
0000
0000
0000
0000
0100
0000
0001
0000
0010
0000
0000
0000
0001
0000
0000
1001
,  // measure 20
0000
0000
0010
1000
0100
0000
1000
0001
,  // measure 21
1000
0100
1000
0010
1000
0100
1000
0010
,  // measure 22
0100
0010
0100
0001
0100
0010
1000
1000
,  // measure 23
1001
0000
0010
1000
0100
0000
1000
0000
,  // measure 24
0100
0000
0010
0001
0100
0001
0010
0000
,  // measure 25
0100
0000
1000
0010
0100
0000
0001
0000
,  // measure 26
0010
0000
0100
1000
0010
0000
0100
0000
,  // measure 27
1001
0000
0100
1000
0010
0000
0100
0000
,  // measure 28
0001
0000
0100
0010
1000
0010
0100
0000
,  // measure 29
0001
0000
0100
0010
1000
0000
1001
0000
,  // measure 30
0100
0000
0010
0001
0100
0000
0010
0100
,  // measure 31
0002
0000
0023
0000
,  // measure 32
0230
0000
2300
0000
,  // measure 33
3001
0010
0001
0100
0001
0010
0001
0100
,  // measure 34
0010
0010
1000
0010
1000
0100
1000
0010
,  // measure 35
0110
0001
0010
0001
0010
0001
0010
0100
,  // measure 36
1000
0100
1000
0100
0010
0001
0100
1000
,  // measure 37
0100
0010
0001
0010
1000
0100
0010
0001
,  // measure 38
0100
1000
0100
0010
0001
0001
1001
0000
,  // measure 39
0010
0000
0001
0000
0100
0000
0000
0000
0001
0000
0000
0110
0000
0000
0000
0000
,  // measure 40
0010
0000
1000
0000
0100
0000
0000
0000
1000
0000
0000
0110
0000
0000
0000
0000
,  // measure 41
0010
0000
0001
0000
0100
0000
0000
0000
0001
0000
0000
0110
0000
0000
0000
0000
,  // measure 42
0100
1000
0010
0000
1000
0020
0000
0000
,  // measure 43
0130
0000
0001
0000
0010
0000
0001
0000
0100
0000
0000
1010
0000
0000
0000
0000
,  // measure 44
0010
1000
0100
1000
0010
0000
1000
0100
,  // measure 45
0010
0001
1000
0010
1000
0100
0010
0001
,  // measure 46
0010
0100
1000
0010
0100
0010
1000
0000
,  // measure 47
0001
0000
0100
0000
0010
0000
0100
0000
0001
0000
0000
0110
0000
0000
0000
0000
,  // measure 48
1000
0000
0010
0000
0100
0000
0010
0000
1000
0000
0000
0110
0000
0000
0000
0000
,  // measure 49
0001
0000
0100
0000
0010
0000
0100
0000
0001
0000
0000
0110
0000
0000
0000
0000
,  // measure 50
1000
0001
0010
0001
1000
0020
0000
0000
,  // measure 51
0130
0000
0001
0000
0010
0000
0001
0000
1000
0000
0000
0110
0000
0000
0001
0000
,  // measure 52
0100
0001
0010
0100
1000
0100
1000
0010
,  // measure 53
1000
0100
1000
0010
0100
0001
0010
0001
,  // measure 54
0100
0001
0010
0001
0100
0100
1001
0000
;

//---------------dance-single - ----------------
#NOTES:
     dance-single:
     :
     Challenge:
     8:
     0.458,0.451,0.288,0.032,0.256: // measure 1
0000
0000
0000
0000
,  // measure 2
0000
0000
0000
0000
,  // measure 3
1001
0000
0000
0000
0000
0000
0010
0000
0001
0000
0000
0000
0010
0000
0000
0010
,  // measure 4
0000
0000
0000
0000
0000
0000
0100
0000
1000
0000
0000
0000
0100
0000
0000
0100
,  // measure 5
1000
0000
0000
0100
1000
0000
0000
0001
0010
0000
0000
0001
0010
0000
0000
0001
,  // measure 6
1000
0000
0000
0010
0100
0000
0000
0001
0000
0000
1000
0000
0100
0000
0010
0000
,  // measure 7
1001
0000
0000
0000
0010
0000
0001
0000
0001
0000
0000
0000
0100
0000
0000
0110
,  // measure 8
0000
0000
0000
0000
0100
0000
1000
0000
1000
0000
0001
0000
0010
0000
0100
1000
,  // measure 9
0000
0000
0000
0000
0010
0000
1000
0000
1000
0000
0000
0000
0010
0000
0000
0110
,  // measure 10
0000
0000
0100
0001
0001
1000
0100
0010
,  // measure 11
1001
0000
0000
0000
0010
0000
0100
0000
0100
0000
0000
0000
0001
0000
0000
1001
,  // measure 12
0000
0000
0100
0010
0010
1000
0100
0010
,  // measure 13
0001
0000
0000
0001
0100
0000
0000
0100
0010
0000
0000
0010
1000
0000
0000
1000
,  // measure 14
0001
0000
0000
0010
0100
0000
0000
1000
0010
0000
1000
0000
1000
0000
0001
0000
,  // measure 15
1001
0000
0000
0000
0010
0000
0001
0000
0010
0001
0000
0100
0000
0001
0000
0100
,  // measure 16
0000
0001
1001
0000
0001
0010
0100
1000
,  // measure 17
0010
0000
0000
0000
0010
0000
1000
0000
0010
1000
0000
0100
0000
1000
0000
0100
,  // measure 18
0000
1000
1001
0000
1000
0100
0010
0001
,  // measure 19
0110
0000
0000
0000
0100
0000
0001
0000
0100
0001
0000
0010
0000
0001
0000
0010
,  // measure 20
0000
0001
1001
0000
0001
0010
0100
1000
,  // measure 21
0100
0000
0001
0000
0010
0000
0100
0000
1000
0000
0010
0100
0010
0000
1000
0000
,  // measure 22
0100
0000
0010
0000
0001
0000
0010
0000
1000
0000
0010
0100
0010
0000
1000
0000
,  // measure 23
1001
0000
1000
0010
0100
0010
1000
0010
,  // measure 24
1000
0000
0000
0000
0100
0000
0010
0000
0001
0000
0100
0010
0100
0000
0000
0000
,  // measure 25
0001
0100
0010
0100
0001
0000
0110
0000
,  // measure 26
0101
0000
1010
0000
0100
0001
0010
0100
,  // measure 27
1001
0000
0100
0001
0010
0001
0010
0100
,  // measure 28
1000
0000
0000
0000
0010
0000
1000
0000
0100
0000
1000
0001
1000
0000
0000
0000
,  // measure 29
0010
1000
0100
1000
0100
0010
0001
0000
,  // measure 30
1001
0000
0110
0000
1001
0000
0010
0010
,  // measure 31
2000
0000
3020
0000
,  // measure 32
0230
0000
0302
0000
,  // measure 33
0013
0001
0010
0100
1000
0100
0010
0001
,  // measure 34
0101
0101
0010
1000
0100
0010
0001
0010
,  // measure 35
1001
0100
1000
0100
0010
0001
0010
1000
,  // measure 36
0100
0001
0010
0100
1000
0100
0010
0001
,  // measure 37
0100
1000
0010
0001
0010
0100
1000
0010
,  // measure 38
0100
0000
0101
0000
0010
1000
0010
1000
0100
0000
1010
0000
1001
0000
0000
0000
,  // measure 39
1000
0000
0010
0000
0100
0001
0000
0010
0000
0001
0000
0010
0000
0000
0001
0000
,  // measure 40
1001
0000
0001
0010
0100
1000
0010
0000
,  // measure 41
0010
0000
1000
0000
0010
1000
0000
0100
0000
1000
0000
0100
0000
0000
1000
0000
,  // measure 42
1001
0000
1000
0100
0010
0001
0110
0000
,  // measure 43
0010
0000
0001
0000
0010
0001
0000
0100
0000
0001
0000
0100
0000
0000
0001
0000
,  // measure 44
1001
0000
0001
0010
0100
1000
0010
1000
,  // measure 45
0100
0000
1000
0000
0010
0000
1000
0001
1000
0000
0001
0000
0100
0000
0001
0000
,  // measure 46
0010
0000
0001
0000
0100
0000
0001
1000
0001
0000
0100
0000
0110
0000
0000
0000
,  // measure 47
0001
0000
1000
0000
0010
1000
0000
0100
0000
1000
0000
0100
0000
0000
1000
0000
,  // measure 48
1001
0000
1000
0100
0010
0001
0100
0000
,  // measure 49
0100
0000
0001
0000
0100
0001
0000
0010
0000
0001
0000
0010
0000
0000
0001
0000
,  // measure 50
1001
0000
0001
0010
0100
1000
0110
0000
,  // measure 51
0100
0000
1000
0000
0100
1000
0000
0010
0000
1000
0000
0010
0000
0000
1000
0000
,  // measure 52
1001
0000
1000
0100
0010
0001
0100
0001
,  // measure 53
0010
0000
0001
0000
0100
0000
0001
1000
0001
0000
1000
0000
0010
0000
1000
0000
,  // measure 54
0100
0000
1000
0000
0010
0000
0100
0010
0100
0000
0011
0000
1001
0000
0000
0000
;

//---------------dance-single - ----------------
#NOTES:
     dance-single:
     :
     Medium:
     5:
     0.251,0.344,0.080,0.000,0.000: // measure 1
0000
0000
0000
0000
,  // measure 2
0000
0000
0000
0000
,  // measure 3
1001
0000
0000
0010
,  // measure 4
0000
0010
0000
0010
,  // measure 5
0001
0001
1000
1000
,  // measure 6
0100
0100
0000
0000
,  // measure 7
1001
0000
0010
0000
,  // measure 8
0001
0000
1000
0000
,  // measure 9
0100
0000
1000
0000
,  // measure 10
0001
0000
1000
0000
,  // measure 11
0010
0000
0100
0000
,  // measure 12
0001
0000
0100
0010
,  // measure 13
1000
0001
1000
0001
1000
0001
1000
0000
,  // measure 14
0010
0100
0010
0100
0010
0100
0010
0000
,  // measure 15
1001
0010
0001
0010
,  // measure 16
0100
1000
0010
1000
,  // measure 17
0010
1000
0100
0010
,  // measure 18
0001
0100
0010
0100
,  // measure 19
1001
0010
0001
0010
,  // measure 20
0100
1000
0010
0100
,  // measure 21
0001
1000
0001
1000
0001
1000
0001
0000
,  // measure 22
0100
0010
0100
0010
0100
0010
0100
0000
,  // measure 23
1001
0010
0001
0010
,  // measure 24
0001
0010
0100
1000
,  // measure 25
0100
1000
0100
1000
,  // measure 26
0010
0100
0010
0100
,  // measure 27
1001
0010
0001
0100
,  // measure 28
0010
0100
0001
0010
,  // measure 29
0100
1000
0100
1000
,  // measure 30
0010
1000
0010
0100
,  // measure 31
1001
0000
0000
0000
,  // measure 32
0010
0000
0000
0000
,  // measure 33
1000
0100
0010
0001
,  // measure 34
0010
0100
1000
0001
,  // measure 35
1000
0010
0100
0010
,  // measure 36
0100
0010
0100
0010
,  // measure 37
1000
0001
0100
0001
,  // measure 38
0010
0100
1001
0100
,  // measure 39
1000
0100
0010
0001
,  // measure 40
0100
0001
0010
0001
,  // measure 41
0010
0001
0010
0100
,  // measure 42
1000
0010
1000
0100
,  // measure 43
0010
0001
0100
0010
,  // measure 44
1000
0000
0001
0000
1000
0000
0010
0100
,  // measure 45
0010
0100
0010
0100
0010
0000
1000
0001
,  // measure 46
1000
0001
1000
0001
1000
0000
1001
0000
,  // measure 47
0010
0001
0010
0100
,  // measure 48
1000
0010
1000
0010
,  // measure 49
1000
0100
0010
0001
,  // measure 50
0100
0010
0100
1001
,  // measure 51
0010
0001
0010
0100
,  // measure 52
1000
0000
0010
0000
0100
0000
0001
0010
,  // measure 53
0001
0010
0001
0010
0001
0000
1000
0010
,  // measure 54
1000
0010
1000
0010
1000
0010
0100
0000
;

//---------------dance-single - ----------------
#NOTES:
     dance-single:
     :
     Beginner:
     1:
     0.043,0.107,0.040,0.000,0.000: // measure 1
0000
0000
0000
0000
,  // measure 2
0000
0000
0000
0000
,  // measure 3
0000
0000
0000
0000
,  // measure 4
0000
0000
0000
0000
,  // measure 5
1000
0000
0000
0000
,  // measure 6
0001
0000
0000
0000
,  // measure 7
1001
0000
0000
0000
,  // measure 8
0000
0000
0000
0000
,  // measure 9
1000
0000
0000
0000
,  // measure 10
0000
0000
0000
0000
,  // measure 11
0001
0000
0000
0000
,  // measure 12
0000
0000
0000
0000
,  // measure 13
0100
0000
0000
0000
,  // measure 14
0010
0000
0000
0000
,  // measure 15
0110
0000
0000
0000
,  // measure 16
0000
0000
0000
0000
,  // measure 17
1000
0000
0000
0000
,  // measure 18
0000
0000
0000
0000
,  // measure 19
0001
0000
0000
0000
,  // measure 20
0000
0000
0000
0000
,  // measure 21
0100
0000
0000
0000
,  // measure 22
0010
0000
0000
0000
,  // measure 23
1001
0000
0000
0000
,  // measure 24
0000
0000
0000
0000
,  // measure 25
1000
0000
0000
0000
,  // measure 26
0000
0000
0000
0000
,  // measure 27
0001
0000
0000
0000
,  // measure 28
0000
0000
0000
0000
,  // measure 29
1000
0000
0000
0000
,  // measure 30
0000
0000
0000
0000
,  // measure 31
0010
0000
0000
0000
,  // measure 32
0000
0000
0000
0000
,  // measure 33
0100
0000
0000
0000
,  // measure 34
0000
0000
0000
0000
,  // measure 35
0001
0000
0000
0000
,  // measure 36
0000
0000
0000
0000
,  // measure 37
1000
0000
0000
0000
,  // measure 38
0000
0000
0000
0001
,  // measure 39
0000
0000
0000
0000
,  // measure 40
0000
0000
0000
1000
,  // measure 41
0000
0000
0000
0000
,  // measure 42
0000
0000
0000
0001
,  // measure 43
0000
0000
0000
0000
,  // measure 44
0000
0000
0000
0100
,  // measure 45
0000
0000
0000
0100
,  // measure 46
0000
0000
0000
0110
,  // measure 47
0000
0000
0000
0000
,  // measure 48
0000
0000
0000
0001
,  // measure 49
0000
0000
0000
0000
,  // measure 50
0000
0000
0000
1000
,  // measure 51
0000
0000
0000
0000
,  // measure 52
0000
0000
0000
0010
,  // measure 53
0000
0010
0000
0100
,  // measure 54
0000
0100
0000
0110
;
